  0
SECTION
  2
HEADER
  9
$ACADVER
  1
AC1015
  9
$ACADMAINTVER
 70
     6
  9
$DWGCODEPAGE
  3
ANSI_932
  9
$INSBASE
 10
6220.167170226014
 20
64.06795815580335
 30
0.0
  9
$EXTMIN
 10
-0.5743079699277587
 20
-0.2738500743598706
 30
-0.0000000349181948
  9
$EXTMAX
 10
6300.107043883301
 20
4455.075335202897
 30
0.0000000814935746
  9
$LIMMIN
 10
6220.167170226014
 20
64.06795815580335
  9
$LIMMAX
 10
12520.16717022601
 20
4519.067958155803
  9
$ORTHOMODE
 70
     0
  9
$REGENMODE
 70
     1
  9
$FILLMODE
 70
     1
  9
$QTEXTMODE
 70
     0
  9
$MIRRTEXT
 70
     0
  9
$LTSCALE
 40
4.5
  9
$ATTMODE
 70
     1
  9
$TEXTSIZE
 40
45.0
  9
$TRACEWID
 40
1.0
  9
$TEXTSTYLE
  7
BIGFONT
  9
$CLAYER
  8
P_2DIM
  9
$CELTYPE
  6
BYLAYER
  9
$CECOLOR
 62
   256
  9
$CELTSCALE
 40
1.0
  9
$DISPSILH
 70
     0
  9
$DIMSCALE
 40
15.0
  9
$DIMASZ
 40
2.0
  9
$DIMEXO
 40
3.0
  9
$DIMDLI
 40
8.0
  9
$DIMRND
 40
0.0
  9
$DIMDLE
 40
0.0
  9
$DIMEXE
 40
1.5
  9
$DIMTP
 40
0.0
  9
$DIMTM
 40
0.0
  9
$DIMTXT
 40
3.0
  9
$DIMCEN
 40
0.0
  9
$DIMTSZ
 40
0.0
  9
$DIMTOL
 70
     0
  9
$DIMLIM
 70
     0
  9
$DIMTIH
 70
     0
  9
$DIMTOH
 70
     0
  9
$DIMSE1
 70
     0
  9
$DIMSE2
 70
     0
  9
$DIMTAD
 70
     1
  9
$DIMZIN
 70
     8
  9
$DIMBLK
  1

  9
$DIMASO
 70
     1
  9
$DIMSHO
 70
     1
  9
$DIMPOST
  1

  9
$DIMAPOST
  1

  9
$DIMALT
 70
     0
  9
$DIMALTD
 70
     4
  9
$DIMALTF
 40
25.4
  9
$DIMLFAC
 40
1.0
  9
$DIMTOFL
 70
     0
  9
$DIMTVP
 40
1.0
  9
$DIMTIX
 70
     0
  9
$DIMSOXD
 70
     0
  9
$DIMSAH
 70
     0
  9
$DIMBLK1
  1

  9
$DIMBLK2
  1

  9
$DIMSTYLE
  2
DIMBIGFONT
  9
$DIMCLRD
 70
     0
  9
$DIMCLRE
 70
     0
  9
$DIMCLRT
 70
   230
  9
$DIMTFAC
 40
0.6
  9
$DIMGAP
 40
0.75
  9
$DIMJUST
 70
     0
  9
$DIMSD1
 70
     0
  9
$DIMSD2
 70
     0
  9
$DIMTOLJ
 70
     1
  9
$DIMTZIN
 70
     8
  9
$DIMALTZ
 70
     0
  9
$DIMALTTZ
 70
     0
  9
$DIMUPT
 70
     0
  9
$DIMDEC
 70
     1
  9
$DIMTDEC
 70
     1
  9
$DIMALTU
 70
     8
  9
$DIMALTTD
 70
     4
  9
$DIMTXSTY
  7
BIGFONT
  9
$DIMAUNIT
 70
     0
  9
$DIMADEC
 70
     1
  9
$DIMALTRND
 40
0.0
  9
$DIMAZIN
 70
     0
  9
$DIMDSEP
 70
    46
  9
$DIMATFIT
 70
     3
  9
$DIMFRAC
 70
     0
  9
$DIMLDRBLK
  1

  9
$DIMLUNIT
 70
     2
  9
$DIMLWD
 70
    -2
  9
$DIMLWE
 70
    -2
  9
$DIMTMOVE
 70
     0
  9
$LUNITS
 70
     2
  9
$LUPREC
 70
     6
  9
$SKETCHINC
 40
1.0
  9
$FILLETRAD
 40
10.0
  9
$AUNITS
 70
     0
  9
$AUPREC
 70
     6
  9
$MENU
  1
acad
  9
$ELEVATION
 40
0.0
  9
$PELEVATION
 40
0.0
  9
$THICKNESS
 40
0.0
  9
$LIMCHECK
 70
     0
  9
$CHAMFERA
 40
10.0
  9
$CHAMFERB
 40
10.0
  9
$CHAMFERC
 40
0.0
  9
$CHAMFERD
 40
0.0
  9
$SKPOLY
 70
     0
  9
$TDCREATE
 40
2450626.564154051
  9
$TDUCREATE
 40
2450626.189154051
  9
$TDUPDATE
 40
2455145.454917928
  9
$TDUUPDATE
 40
2455145.079917928
  9
$TDINDWG
 40
3.0044265741
  9
$TDUSRTIMER
 40
3.0044265741
  9
$USRTIMER
 70
     1
  9
$ANGBASE
 50
0.0
  9
$ANGDIR
 70
     0
  9
$PDMODE
 70
     0
  9
$PDSIZE
 40
0.0
  9
$PLINEWID
 40
0.0
  9
$SPLFRAME
 70
     0
  9
$SPLINETYPE
 70
     6
  9
$SPLINESEGS
 70
     8
  9
$HANDSEED
  5
4D1A2
  9
$SURFTAB1
 70
     6
  9
$SURFTAB2
 70
     6
  9
$SURFTYPE
 70
     6
  9
$SURFU
 70
     6
  9
$SURFV
 70
     6
  9
$UCSBASE
  2

  9
$UCSNAME
  2

  9
$UCSORG
 10
0.0
 20
0.0
 30
0.0
  9
$UCSXDIR
 10
1.0
 20
0.0
 30
0.0
  9
$UCSYDIR
 10
0.0
 20
1.0
 30
0.0
  9
$UCSORTHOREF
  2

  9
$UCSORTHOVIEW
 70
     0
  9
$UCSORGTOP
 10
0.0
 20
0.0
 30
0.0
  9
$UCSORGBOTTOM
 10
0.0
 20
0.0
 30
0.0
  9
$UCSORGLEFT
 10
0.0
 20
0.0
 30
0.0
  9
$UCSORGRIGHT
 10
0.0
 20
0.0
 30
0.0
  9
$UCSORGFRONT
 10
0.0
 20
0.0
 30
0.0
  9
$UCSORGBACK
 10
0.0
 20
0.0
 30
0.0
  9
$PUCSBASE
  2

  9
$PUCSNAME
  2

  9
$PUCSORG
 10
0.0
 20
0.0
 30
0.0
  9
$PUCSXDIR
 10
1.0
 20
0.0
 30
0.0
  9
$PUCSYDIR
 10
0.0
 20
1.0
 30
0.0
  9
$PUCSORTHOREF
  2

  9
$PUCSORTHOVIEW
 70
     0
  9
$PUCSORGTOP
 10
0.0
 20
0.0
 30
0.0
  9
$PUCSORGBOTTOM
 10
0.0
 20
0.0
 30
0.0
  9
$PUCSORGLEFT
 10
0.0
 20
0.0
 30
0.0
  9
$PUCSORGRIGHT
 10
0.0
 20
0.0
 30
0.0
  9
$PUCSORGFRONT
 10
0.0
 20
0.0
 30
0.0
  9
$PUCSORGBACK
 10
0.0
 20
0.0
 30
0.0
  9
$USERI1
 70
     0
  9
$USERI2
 70
     0
  9
$USERI3
 70
     0
  9
$USERI4
 70
     0
  9
$USERI5
 70
     0
  9
$USERR1
 40
0.0
  9
$USERR2
 40
0.0
  9
$USERR3
 40
0.0
  9
$USERR4
 40
0.0
  9
$USERR5
 40
0.0
  9
$WORLDVIEW
 70
     1
  9
$SHADEDGE
 70
     3
  9
$SHADEDIF
 70
    70
  9
$TILEMODE
 70
     1
  9
$MAXACTVP
 70
    16
  9
$PINSBASE
 10
0.0
 20
0.0
 30
0.0
  9
$PLIMCHECK
 70
     0
  9
$PEXTMIN
 10
1.000000000000000E+20
 20
1.000000000000000E+20
 30
1.000000000000000E+20
  9
$PEXTMAX
 10
-1.000000000000000E+20
 20
-1.000000000000000E+20
 30
-1.000000000000000E+20
  9
$PLIMMIN
 10
0.0
 20
0.0
  9
$PLIMMAX
 10
420.0
 20
297.0
  9
$UNITMODE
 70
     0
  9
$VISRETAIN
 70
     0
  9
$PLINEGEN
 70
     0
  9
$PSLTSCALE
 70
     0
  9
$TREEDEPTH
 70
  3020
  9
$CMLSTYLE
  2
STANDARD
  9
$CMLJUST
 70
     0
  9
$CMLSCALE
 40
15.0
  9
$PROXYGRAPHICS
 70
     1
  9
$MEASUREMENT
 70
     1
  9
$CELWEIGHT
370
    -1
  9
$ENDCAPS
280
     0
  9
$JOINSTYLE
280
     0
  9
$LWDISPLAY
290
     0
  9
$INSUNITS
 70
     0
  9
$HYPERLINKBASE
  1

  9
$STYLESHEET
  1

  9
$XEDIT
290
     1
  9
$CEPSNTYPE
380
     0
  9
$PSTYLEMODE
290
     1
  9
$FINGERPRINTGUID
  2
{CBE21C72-CBFD-4506-99FB-A03E2EBDCCCB}
  9
$VERSIONGUID
  2
{80923479-C9F4-4987-B6B4-19962A74D59A}
  9
$EXTNAMES
290
     1
  9
$PSVPSCALE
 40
0.0
  9
$OLESTARTUP
290
     0
  0
ENDSEC
  0
SECTION
  2
CLASSES
  0
CLASS
  1
LWPOLYLINE
  2
AcDbPolyline
  3
AutoCAD 2000
 90
        0
280
     0
281
     1
  0
CLASS
  1
ACDBDICTIONARYWDFLT
  2
AcDbDictionaryWithDefault
  3
ObjectDBX Classes
 90
        0
280
     0
281
     0
  0
CLASS
  1
ACDBPLACEHOLDER
  2
AcDbPlaceHolder
  3
ObjectDBX Classes
 90
        0
280
     0
281
     0
  0
CLASS
  1
LAYOUT
  2
AcDbLayout
  3
ObjectDBX Classes
 90
        0
280
     0
281
     0
  0
CLASS
  1
DICTIONARYVAR
  2
AcDbDictionaryVar
  3
ObjectDBX Classes
 90
        0
280
     0
281
     0
  0
CLASS
  1
RTEXT
  2
RText
  3
RText|AutoCAD Express Tool|expresstools@autodesk.com
 90
        0
280
     0
281
     1
  0
ENDSEC
  0
SECTION
  2
TABLES
  0
TABLE
  2
VPORT
  5
4B4C3
330
0
100
AcDbSymbolTable
 70
     2
  0
VPORT
  5
4D19F
330
4B4C3
100
AcDbSymbolTableRecord
100
AcDbViewportTableRecord
  2
*Active
 70
     0
 10
0.0
 20
0.0
 11
1.0
 21
1.0
 12
3149.766367956686
 22
2227.400742564269
 13
0.0
 23
0.0
 14
75.0
 24
75.0
 15
75.0
 25
75.0
 16
0.0
 26
0.0
 36
1.0
 17
0.0
 27
0.0
 37
0.0
 40
4693.199146999461
 41
1.351079136690647
 42
50.0
 43
0.0
 44
0.0
 50
0.0
 51
0.0
 71
     0
 72
   100
 73
     1
 74
     0
 75
     0
 76
     0
 77
     0
 78
     0
281
     0
 65
     1
110
0.0
120
0.0
130
0.0
111
1.0
121
0.0
131
0.0
112
0.0
122
1.0
132
0.0
 79
     0
146
0.0
  0
ENDTAB
  0
TABLE
  2
LTYPE
  5
4B4C0
330
0
100
AcDbSymbolTable
 70
     5
  0
LTYPE
  5
4B4CD
330
4B4C0
100
AcDbSymbolTableRecord
100
AcDbLinetypeTableRecord
  2
BYBLOCK
 70
     0
  3

 72
    65
 73
     0
 40
0.0
  0
LTYPE
  5
4B4CE
330
4B4C0
100
AcDbSymbolTableRecord
100
AcDbLinetypeTableRecord
  2
BYLAYER
 70
     0
  3

 72
    65
 73
     0
 40
0.0
  0
LTYPE
  5
4B4CF
330
4B4C0
100
AcDbSymbolTableRecord
100
AcDbLinetypeTableRecord
  2
CONTINUOUS
 70
     0
  3
Solid line
 72
    65
 73
     0
 40
0.0
  0
LTYPE
  5
4C9F5
330
4B4C0
100
AcDbSymbolTableRecord
100
AcDbLinetypeTableRecord
  2
ACAD_ISO07W100
 70
     0
  3
ISO dot . . . . . . . . . . . . . . . . . . . .
 72
    65
 73
     2
 40
3.5
 49
0.5
 74
     0
 49
-3.0
 74
     0
  0
LTYPE
  5
4C9F6
330
4B4C0
100
AcDbSymbolTableRecord
100
AcDbLinetypeTableRecord
  2
CENTER2
 70
     0
  3
Center (.5x) ___ _ ___ _ ___ _ ___ _ ___ _ ___
 72
    65
 73
     4
 40
28.575
 49
19.05
 74
     0
 49
-3.175
 74
     0
 49
3.175
 74
     0
 49
-3.175
 74
     0
  0
LTYPE
  5
4C9F7
330
4B4C0
100
AcDbSymbolTableRecord
100
AcDbLinetypeTableRecord
  2
HIDDEN2
 70
     0
  3
Hidden (.5x) _ _ _ _ _ _ _ _ _ _ _ _ _ _ _ _ _
 72
    65
 73
     2
 40
4.762499999999999
 49
3.175
 74
     0
 49
-1.5875
 74
     0
  0
LTYPE
  5
4C9F8
330
4B4C0
100
AcDbSymbolTableRecord
100
AcDbLinetypeTableRecord
  2
PHANTOM2
 70
     0
  3
Phantom (.5x) ___ _ _ ___ _ _ ___ _ _ ___ _ _
 72
    65
 73
     6
 40
31.75
 49
15.875
 74
     0
 49
-3.175
 74
     0
 49
3.175
 74
     0
 49
-3.175
 74
     0
 49
3.175
 74
     0
 49
-3.175
 74
     0
  0
ENDTAB
  0
TABLE
  2
LAYER
  5
4B4BD
330
0
100
AcDbSymbolTable
 70
    50
  0
LAYER
  5
4B4CA
330
4B4BD
100
AcDbSymbolTableRecord
100
AcDbLayerTableRecord
  2
0
 70
     0
 62
     7
  6
CONTINUOUS
370
    -3
390
4C9DF
  0
LAYER
  5
4B4E3
330
4B4BD
100
AcDbSymbolTableRecord
100
AcDbLayerTableRecord
  2
TEXT
 70
     0
 62
     1
  6
CONTINUOUS
370
    -3
390
4C9DF
  0
LAYER
  5
4B56B
330
4B4BD
100
AcDbSymbolTableRecord
100
AcDbLayerTableRecord
  2
DEFPOINTS
 70
     0
 62
     7
  6
CONTINUOUS
290
     0
370
    -3
390
4C9DF
  0
LAYER
  5
4C9F9
330
4B4BD
100
AcDbSymbolTableRecord
100
AcDbLayerTableRecord
  2
P001
 70
     0
 62
   131
  6
CONTINUOUS
370
    -3
390
4C9DF
  0
LAYER
  5
4C9FA
330
4B4BD
100
AcDbSymbolTableRecord
100
AcDbLayerTableRecord
  2
P_5DRAWFRAME
 70
     0
 62
   104
  6
CONTINUOUS
370
    -3
390
4C9DF
  0
LAYER
  5
4C9FB
330
4B4BD
100
AcDbSymbolTableRecord
100
AcDbLayerTableRecord
  2
P002
 70
     0
 62
   181
  6
CONTINUOUS
370
    -3
390
4C9DF
  0
LAYER
  5
4C9FC
330
4B4BD
100
AcDbSymbolTableRecord
100
AcDbLayerTableRecord
  2
P003
 70
     0
 62
   231
  6
CONTINUOUS
370
    -3
390
4C9DF
  0
LAYER
  5
4C9FD
330
4B4BD
100
AcDbSymbolTableRecord
100
AcDbLayerTableRecord
  2
P004
 70
     0
 62
    41
  6
CONTINUOUS
370
    -3
390
4C9DF
  0
LAYER
  5
4C9FE
330
4B4BD
100
AcDbSymbolTableRecord
100
AcDbLayerTableRecord
  2
P005
 70
     0
 62
    91
  6
CONTINUOUS
370
    -3
390
4C9DF
  0
LAYER
  5
4C9FF
330
4B4BD
100
AcDbSymbolTableRecord
100
AcDbLayerTableRecord
  2
P006
 70
     0
 62
   141
  6
CONTINUOUS
370
    -3
390
4C9DF
  0
LAYER
  5
4CA00
330
4B4BD
100
AcDbSymbolTableRecord
100
AcDbLayerTableRecord
  2
P007
 70
     0
 62
   191
  6
CONTINUOUS
370
    -3
390
4C9DF
  0
LAYER
  5
4CA01
330
4B4BD
100
AcDbSymbolTableRecord
100
AcDbLayerTableRecord
  2
P008
 70
     0
 62
   241
  6
CONTINUOUS
370
    -3
390
4C9DF
  0
LAYER
  5
4CA02
330
4B4BD
100
AcDbSymbolTableRecord
100
AcDbLayerTableRecord
  2
P009
 70
     0
 62
    51
  6
CONTINUOUS
370
    -3
390
4C9DF
  0
LAYER
  5
4CA03
330
4B4BD
100
AcDbSymbolTableRecord
100
AcDbLayerTableRecord
  2
P010
 70
     0
 62
   101
  6
CONTINUOUS
370
    -3
390
4C9DF
  0
LAYER
  5
4CA04
330
4B4BD
100
AcDbSymbolTableRecord
100
AcDbLayerTableRecord
  2
P011
 70
     0
 62
   151
  6
CONTINUOUS
370
    -3
390
4C9DF
  0
LAYER
  5
4CA05
330
4B4BD
100
AcDbSymbolTableRecord
100
AcDbLayerTableRecord
  2
P_1CENTER
 70
     0
 62
     2
  6
CONTINUOUS
370
    -3
390
4C9DF
  0
LAYER
  5
4CA06
330
4B4BD
100
AcDbSymbolTableRecord
100
AcDbLayerTableRecord
  2
P012
 70
     0
 62
   201
  6
CONTINUOUS
370
    -3
390
4C9DF
  0
LAYER
  5
4CA07
330
4B4BD
100
AcDbSymbolTableRecord
100
AcDbLayerTableRecord
  2
P013
 70
     0
 62
    11
  6
CONTINUOUS
370
    -3
390
4C9DF
  0
LAYER
  5
4CA08
330
4B4BD
100
AcDbSymbolTableRecord
100
AcDbLayerTableRecord
  2
P014
 70
     0
 62
    61
  6
CONTINUOUS
370
    -3
390
4C9DF
  0
LAYER
  5
4CA09
330
4B4BD
100
AcDbSymbolTableRecord
100
AcDbLayerTableRecord
  2
P015
 70
     0
 62
   111
  6
CONTINUOUS
370
    -3
390
4C9DF
  0
LAYER
  5
4CA0A
330
4B4BD
100
AcDbSymbolTableRecord
100
AcDbLayerTableRecord
  2
P016
 70
     0
 62
   161
  6
CONTINUOUS
370
    -3
390
4C9DF
  0
LAYER
  5
4CA0B
330
4B4BD
100
AcDbSymbolTableRecord
100
AcDbLayerTableRecord
  2
P017
 70
     0
 62
   211
  6
CONTINUOUS
370
    -3
390
4C9DF
  0
LAYER
  5
4CA0C
330
4B4BD
100
AcDbSymbolTableRecord
100
AcDbLayerTableRecord
  2
P018
 70
     0
 62
    21
  6
CONTINUOUS
370
    -3
390
4C9DF
  0
LAYER
  5
4CA0D
330
4B4BD
100
AcDbSymbolTableRecord
100
AcDbLayerTableRecord
  2
P019
 70
     0
 62
    71
  6
CONTINUOUS
370
    -3
390
4C9DF
  0
LAYER
  5
4CA0E
330
4B4BD
100
AcDbSymbolTableRecord
100
AcDbLayerTableRecord
  2
P020
 70
     0
 62
   121
  6
CONTINUOUS
370
    -3
390
4C9DF
  0
LAYER
  5
4CA0F
330
4B4BD
100
AcDbSymbolTableRecord
100
AcDbLayerTableRecord
  2
P_2DIM
 70
     0
 62
     6
  6
CONTINUOUS
370
    -3
390
4C9DF
  0
LAYER
  5
4CA10
330
4B4BD
100
AcDbSymbolTableRecord
100
AcDbLayerTableRecord
  2
P_3TEXT
 70
     0
 62
    60
  6
CONTINUOUS
370
    -3
390
4C9DF
  0
LAYER
  5
4CA11
330
4B4BD
100
AcDbSymbolTableRecord
100
AcDbLayerTableRecord
  2
P_4ARCHI
 70
     0
 62
     1
  6
CONTINUOUS
370
    -3
390
4C9DF
  0
LAYER
  5
4CA12
330
4B4BD
100
AcDbSymbolTableRecord
100
AcDbLayerTableRecord
  2
P_6DMY
 70
     0
 62
   253
  6
CONTINUOUS
370
    -3
390
4C9DF
  0
LAYER
  5
4CA13
330
4B4BD
100
AcDbSymbolTableRecord
100
AcDbLayerTableRecord
  2
P901
 70
     0
 62
   135
  6
CONTINUOUS
370
    -3
390
4C9DF
  0
LAYER
  5
4CA14
330
4B4BD
100
AcDbSymbolTableRecord
100
AcDbLayerTableRecord
  2
P902
 70
     0
 62
   185
  6
CONTINUOUS
370
    -3
390
4C9DF
  0
LAYER
  5
4CA15
330
4B4BD
100
AcDbSymbolTableRecord
100
AcDbLayerTableRecord
  2
P903
 70
     0
 62
   225
  6
CONTINUOUS
370
    -3
390
4C9DF
  0
LAYER
  5
4CA16
330
4B4BD
100
AcDbSymbolTableRecord
100
AcDbLayerTableRecord
  2
P913
 70
     0
 62
    15
  6
CONTINUOUS
370
    -3
390
4C9DF
  0
LAYER
  5
4CA17
330
4B4BD
100
AcDbSymbolTableRecord
100
AcDbLayerTableRecord
  2
P918
 70
     0
 62
    25
  6
CONTINUOUS
370
    -3
390
4C9DF
  0
LAYER
  5
4CA18
330
4B4BD
100
AcDbSymbolTableRecord
100
AcDbLayerTableRecord
  2
P904
 70
     0
 62
    45
  6
CONTINUOUS
370
    -3
390
4C9DF
  0
LAYER
  5
4CA19
330
4B4BD
100
AcDbSymbolTableRecord
100
AcDbLayerTableRecord
  2
P906
 70
     0
 62
   145
  6
CONTINUOUS
370
    -3
390
4C9DF
  0
LAYER
  5
4CA1A
330
4B4BD
100
AcDbSymbolTableRecord
100
AcDbLayerTableRecord
  2
P914
 70
     0
 62
    65
  6
CONTINUOUS
370
    -3
390
4C9DF
  0
LAYER
  5
4CA1B
330
4B4BD
100
AcDbSymbolTableRecord
100
AcDbLayerTableRecord
  2
P919
 70
     0
 62
    75
  6
CONTINUOUS
370
    -3
390
4C9DF
  0
LAYER
  5
4CA1C
330
4B4BD
100
AcDbSymbolTableRecord
100
AcDbLayerTableRecord
  2
P905
 70
     0
 62
    95
  6
CONTINUOUS
370
    -3
390
4C9DF
  0
LAYER
  5
4CA1D
330
4B4BD
100
AcDbSymbolTableRecord
100
AcDbLayerTableRecord
  2
P910
 70
     0
 62
   105
  6
CONTINUOUS
370
    -3
390
4C9DF
  0
LAYER
  5
4CA1E
330
4B4BD
100
AcDbSymbolTableRecord
100
AcDbLayerTableRecord
  2
P915
 70
     0
 62
   115
  6
CONTINUOUS
370
    -3
390
4C9DF
  0
LAYER
  5
4CA1F
330
4B4BD
100
AcDbSymbolTableRecord
100
AcDbLayerTableRecord
  2
P920
 70
     0
 62
   125
  6
CONTINUOUS
370
    -3
390
4C9DF
  0
LAYER
  5
4CA20
330
4B4BD
100
AcDbSymbolTableRecord
100
AcDbLayerTableRecord
  2
P909
 70
     0
 62
    55
  6
CONTINUOUS
370
    -3
390
4C9DF
  0
LAYER
  5
4CA21
330
4B4BD
100
AcDbSymbolTableRecord
100
AcDbLayerTableRecord
  2
P911
 70
     0
 62
   155
  6
CONTINUOUS
370
    -3
390
4C9DF
  0
LAYER
  5
4CA22
330
4B4BD
100
AcDbSymbolTableRecord
100
AcDbLayerTableRecord
  2
P916
 70
     0
 62
   165
  6
CONTINUOUS
370
    -3
390
4C9DF
  0
LAYER
  5
4CA23
330
4B4BD
100
AcDbSymbolTableRecord
100
AcDbLayerTableRecord
  2
P907
 70
     0
 62
   195
  6
CONTINUOUS
370
    -3
390
4C9DF
  0
LAYER
  5
4CA24
330
4B4BD
100
AcDbSymbolTableRecord
100
AcDbLayerTableRecord
  2
P912
 70
     0
 62
   205
  6
CONTINUOUS
370
    -3
390
4C9DF
  0
LAYER
  5
4CA25
330
4B4BD
100
AcDbSymbolTableRecord
100
AcDbLayerTableRecord
  2
P917
 70
     0
 62
   215
  6
CONTINUOUS
370
    -3
390
4C9DF
  0
LAYER
  5
4CA26
330
4B4BD
100
AcDbSymbolTableRecord
100
AcDbLayerTableRecord
  2
P908
 70
     0
 62
   245
  6
CONTINUOUS
370
    -3
390
4C9DF
  0
LAYER
  5
4CA27
330
4B4BD
100
AcDbSymbolTableRecord
100
AcDbLayerTableRecord
  2
P_7THICK
 70
     0
 62
     7
  6
CONTINUOUS
370
    -3
390
4C9DF
  0
ENDTAB
  0
TABLE
  2
STYLE
  5
4B4BE
330
0
100
AcDbSymbolTable
 70
     7
  0
STYLE
  5
4B4CB
330
4B4BE
100
AcDbSymbolTableRecord
100
AcDbTextStyleTableRecord
  2
STANDARD
 70
     0
 40
0.0
 41
1.0
 50
0.0
 71
     0
 42
45.0
  3
txt
  4
bigfont
  0
STYLE
  5
4B4D9
330
4B4BE
100
AcDbSymbolTableRecord
100
AcDbTextStyleTableRecord
  2
EXTFONT
 70
     0
 40
37.5
 41
1.0
 50
0.0
 71
     0
 42
3.5
  3
txt.shx
  4
extfont
  0
STYLE
  5
4B4DA
330
4B4BE
100
AcDbSymbolTableRecord
100
AcDbTextStyleTableRecord
  2
BIGFONT
 70
     0
 40
0.0
 41
1.0
 50
0.0
 71
     0
 42
45.0
  3
simplex.shx
  4
bigfont.shx
  0
STYLE
  5
4CA28
330
4B4BE
100
AcDbSymbolTableRecord
100
AcDbTextStyleTableRecord
  2

 70
     1
 40
0.0
 41
1.0
 50
0.0
 71
     0
 42
2.5
  3
ltypeshp.shx
  4

  0
STYLE
  5
4CA29
330
4B4BE
100
AcDbSymbolTableRecord
100
AcDbTextStyleTableRecord
  2
GOTHIC
 70
     0
 40
0.0
 41
1.0
 50
0.0
 71
     0
 42
3.0
  3
MS PGothic.ttf
  4

1001
ACAD
1000
MS PGothic
1071
    32818
  0
STYLE
  5
4CA2A
330
4B4BE
100
AcDbSymbolTableRecord
100
AcDbTextStyleTableRecord
  2
MINCHO
 70
     0
 40
0.0
 41
1.0
 50
0.0
 71
     0
 42
3.0
  3
MS PMincho.ttf
  4

1001
ACAD
1000
MS PMincho
1071
    32786
  0
STYLE
  5
4CA2B
330
4B4BE
100
AcDbSymbolTableRecord
100
AcDbTextStyleTableRecord
  2
RGOTHIC
 70
     0
 40
0.0
 41
1.0
 50
0.0
 71
     0
 42
3.0
  3
HGRSMP.TTF
  4

1001
ACAD
1000
HG丸ｺﾞｼｯｸM-PRO
1071
    32818
  0
ENDTAB
  0
TABLE
  2
VIEW
  5
4B4C1
330
0
100
AcDbSymbolTable
 70
     0
  0
ENDTAB
  0
TABLE
  2
UCS
  5
4B4C2
330
0
100
AcDbSymbolTable
 70
     0
  0
ENDTAB
  0
TABLE
  2
APPID
  5
4B4C4
330
0
100
AcDbSymbolTable
 70
     1
  0
APPID
  5
4B4CC
330
4B4C4
100
AcDbSymbolTableRecord
100
AcDbRegAppTableRecord
  2
ACAD
 70
     0
  0
ENDTAB
  0
TABLE
  2
DIMSTYLE
  5
4B4C5
330
0
100
AcDbSymbolTable
 70
    39
100
AcDbDimStyleTable
  0
DIMSTYLE
105
4B4E1
330
4B4C5
100
AcDbSymbolTableRecord
100
AcDbDimStyleTableRecord
  2
P-DWG
 70
     0
 40
15.0
 41
2.0
 42
3.0
 43
0.0
 44
1.0
 73
     0
 74
     0
 77
     1
 78
     8
140
2.5
141
2.5
143
0.0394
145
0.7000000000000001
146
0.6666666666666666
147
0.3
172
     1
173
     1
176
     2
177
     2
178
     1
271
     2
272
     2
279
     2
340
4B4CB
341
4BABA
343
4BABA
344
4BABA
  0
DIMSTYLE
105
4BA8E
330
4B4C5
100
AcDbSymbolTableRecord
100
AcDbDimStyleTableRecord
  2
P-DWG$7
 70
     0
 40
15.0
 41
2.0
 42
3.0
 43
0.0
 44
1.0
 73
     0
 74
     0
 77
     1
 78
     8
140
3.0
141
2.5
143
0.0394
145
0.7000000000000001
146
0.6666666666666666
147
0.3
172
     1
173
     1
176
     2
177
     2
178
     1
271
     2
272
     2
279
     2
340
4B4CB
341
4BABA
343
4BABA
344
4BABA
  0
DIMSTYLE
105
4BA8F
330
4B4C5
100
AcDbSymbolTableRecord
100
AcDbDimStyleTableRecord
  2
VISION
 70
     0
 40
15.0
 41
2.0
 42
0.0
 43
0.0
 44
1.0
 73
     0
 74
     0
 77
     1
 78
     8
140
3.0
141
2.5
143
0.0394
145
0.7000000000000001
146
0.6666666666666666
147
0.3
172
     1
173
     1
176
     2
177
     2
178
     1
271
     0
272
     2
279
     2
340
4B4CB
341
4BABA
343
4BABA
344
4BABA
  0
DIMSTYLE
105
4BA90
330
4B4C5
100
AcDbSymbolTableRecord
100
AcDbDimStyleTableRecord
  2
VISION$7
 70
     0
 40
15.0
 41
2.0
 42
0.0
 43
0.0
 44
1.0
 73
     0
 74
     0
 77
     1
 78
     8
140
3.5
141
2.5
143
0.0394
145
0.7000000000000001
146
0.6666666666666666
147
0.5
172
     1
173
     1
176
     2
177
     2
178
     1
271
     0
272
     2
279
     2
340
4B4CB
341
4BABA
343
4BABA
344
4BABA
  0
DIMSTYLE
105
4CA2C
330
4B4C5
100
AcDbSymbolTableRecord
100
AcDbDimStyleTableRecord
  2
STANDARD
 70
     0
 41
2.0
 42
3.0
 43
8.0
 44
1.5
 73
     0
 74
     0
 77
     1
 78
     8
140
3.0
141
0.0
146
0.6
147
0.75
171
     4
173
     1
178
   230
271
     1
272
     1
273
     8
274
     4
284
     8
340
4B4CB
  0
DIMSTYLE
105
4CA2D
330
4B4C5
100
AcDbSymbolTableRecord
100
AcDbDimStyleTableRecord
  2
DIMBIGFONT
 70
     0
 41
2.0
 42
3.0
 43
8.0
 44
1.5
 73
     0
 74
     0
 77
     1
 78
     8
140
3.0
141
0.0
145
1.0
146
0.6
147
0.75
171
     4
173
     1
178
   230
271
     1
272
     1
273
     8
274
     4
284
     8
340
4B4DA
  0
DIMSTYLE
105
4CA2E
330
4B4C5
100
AcDbSymbolTableRecord
100
AcDbDimStyleTableRecord
  2
DIMBIGFONT$2
 70
     0
 41
2.0
 42
3.0
 43
8.0
 44
1.5
 73
     0
 74
     0
 77
     1
 78
     8
140
3.0
141
0.0
145
1.0
146
0.6
147
0.75
171
     4
173
     1
178
   230
179
     1
271
     1
272
     1
273
     8
274
     4
284
     8
288
     1
340
4B4DA
  0
DIMSTYLE
105
4CA2F
330
4B4C5
100
AcDbSymbolTableRecord
100
AcDbDimStyleTableRecord
  2
DIMBIGFONT$3
 70
     0
 41
2.0
 42
3.0
 43
8.0
 44
1.5
 77
     1
 78
     8
140
3.0
141
0.0
145
1.0
146
0.6
147
0.75
171
     4
173
     1
178
   230
271
     1
272
     1
273
     8
274
     4
284
     8
288
     1
289
     0
340
4B4DA
  0
DIMSTYLE
105
4CA30
330
4B4C5
100
AcDbSymbolTableRecord
100
AcDbDimStyleTableRecord
  2
DIMBIGFONT$7
 70
     0
 41
2.0
 42
3.0
 43
8.0
 44
1.5
 73
     0
 74
     0
 77
     1
 78
     8
140
3.0
141
0.0
145
1.0
146
0.6
147
0.75
171
     4
173
     1
178
   230
271
     1
272
     1
273
     8
274
     4
284
     8
340
4B4DA
  0
DIMSTYLE
105
4CA31
102
{ACAD_REACTORS
330
4D0CF
330
4D0B5
102
}
330
4B4C5
100
AcDbSymbolTableRecord
100
AcDbDimStyleTableRecord
  2
DIMBIGFONT$0
 70
     0
 41
1.2
 42
3.0
 43
8.0
 44
1.5
 73
     0
 74
     0
 77
     1
 78
     8
140
3.0
141
0.0
145
1.0
146
0.6
147
0.75
171
     4
173
     1
178
   230
271
     1
272
     1
273
     8
274
     4
279
     2
284
     8
340
4B4DA
341
4C9F0
343
4C9F0
344
4C9F0
  0
DIMSTYLE
105
4CA32
330
4B4C5
100
AcDbSymbolTableRecord
100
AcDbDimStyleTableRecord
  2
DIMGOTHIC
 70
     0
 41
2.0
 42
3.0
 43
8.0
 44
1.5
 73
     0
 74
     0
 77
     1
 78
     8
140
3.0
141
0.0
145
1.0
146
0.6
147
0.75
171
     4
173
     1
178
   230
271
     1
272
     1
273
     8
274
     4
284
     8
340
4CA29
  0
DIMSTYLE
105
4CA33
330
4B4C5
100
AcDbSymbolTableRecord
100
AcDbDimStyleTableRecord
  2
DIMGOTHIC$2
 70
     0
 41
2.0
 42
3.0
 43
8.0
 44
1.5
 73
     0
 74
     0
 77
     1
 78
     8
140
3.0
141
0.0
146
0.6
147
0.75
171
     4
173
     1
178
   230
179
     1
271
     1
272
     1
273
     8
274
     4
284
     8
288
     1
340
4CA29
  0
DIMSTYLE
105
4CA34
330
4B4C5
100
AcDbSymbolTableRecord
100
AcDbDimStyleTableRecord
  2
DIMGOTHIC$3
 70
     0
 41
2.0
 42
3.0
 43
8.0
 44
1.5
 77
     1
 78
     8
140
3.0
141
0.0
146
0.6
147
0.75
171
     4
173
     1
178
   230
271
     1
272
     1
273
     8
274
     4
284
     8
288
     1
289
     0
340
4CA29
  0
DIMSTYLE
105
4CA35
330
4B4C5
100
AcDbSymbolTableRecord
100
AcDbDimStyleTableRecord
  2
DIMGOTHIC$7
 70
     0
 41
2.0
 42
3.0
 43
8.0
 44
1.5
 73
     0
 74
     0
 77
     1
 78
     8
140
3.0
141
0.0
146
0.6
147
0.75
171
     4
173
     1
178
   230
271
     1
272
     1
273
     8
274
     4
284
     8
340
4CA29
  0
DIMSTYLE
105
4CA36
330
4B4C5
100
AcDbSymbolTableRecord
100
AcDbDimStyleTableRecord
  2
DIMGOTHIC$0
 70
     0
 41
2.0
 42
3.0
 43
8.0
 44
1.5
 73
     0
 74
     0
 77
     1
 78
     8
140
3.0
141
0.0
146
0.6
147
0.75
171
     4
173
     1
178
   230
271
     1
272
     1
273
     8
274
     4
279
     2
284
     8
340
4CA29
  0
DIMSTYLE
105
4CA37
330
4B4C5
100
AcDbSymbolTableRecord
100
AcDbDimStyleTableRecord
  2
DIMMINCHO
 70
     0
 41
2.0
 42
3.0
 43
8.0
 44
1.5
 73
     0
 74
     0
 77
     1
 78
     8
140
3.0
141
0.0
145
1.0
146
0.6
147
0.75
171
     4
173
     1
178
   230
271
     1
272
     1
273
     8
274
     4
284
     8
340
4CA2A
  0
DIMSTYLE
105
4CA38
330
4B4C5
100
AcDbSymbolTableRecord
100
AcDbDimStyleTableRecord
  2
DIMMINCHO$2
 70
     0
 41
2.0
 42
3.0
 43
8.0
 44
1.5
 73
     0
 74
     0
 77
     1
 78
     8
140
3.0
141
0.0
146
0.6
147
0.75
171
     4
173
     1
178
   230
179
     1
271
     1
272
     1
273
     8
274
     4
284
     8
288
     1
340
4CA2A
  0
DIMSTYLE
105
4CA39
330
4B4C5
100
AcDbSymbolTableRecord
100
AcDbDimStyleTableRecord
  2
DIMMINCHO$3
 70
     0
 41
2.0
 42
3.0
 43
8.0
 44
1.5
 77
     1
 78
     8
140
3.0
141
0.0
146
0.6
147
0.75
171
     4
173
     1
178
   230
271
     1
272
     1
273
     8
274
     4
284
     8
288
     1
289
     0
340
4CA2A
  0
DIMSTYLE
105
4CA3A
330
4B4C5
100
AcDbSymbolTableRecord
100
AcDbDimStyleTableRecord
  2
DIMMINCHO$7
 70
     0
 41
2.0
 42
3.0
 43
8.0
 44
1.5
 73
     0
 74
     0
 77
     1
 78
     8
140
3.0
141
0.0
146
0.6
147
0.75
171
     4
173
     1
178
   230
271
     1
272
     1
273
     8
274
     4
284
     8
340
4CA2A
  0
DIMSTYLE
105
4CA3B
330
4B4C5
100
AcDbSymbolTableRecord
100
AcDbDimStyleTableRecord
  2
DIMMINCHO$0
 70
     0
 41
2.0
 42
3.0
 43
8.0
 44
1.5
 73
     0
 74
     0
 77
     1
 78
     8
140
3.0
141
0.0
146
0.6
147
0.75
171
     4
173
     1
178
   230
271
     1
272
     1
273
     8
274
     4
279
     2
284
     8
340
4CA2A
  0
DIMSTYLE
105
4CA3C
330
4B4C5
100
AcDbSymbolTableRecord
100
AcDbDimStyleTableRecord
  2
STANDARD$2
 70
     0
 41
2.0
 42
3.0
 43
8.0
 44
1.5
 73
     0
 74
     0
 77
     1
 78
     8
140
3.0
141
0.0
146
0.6
147
0.75
171
     4
173
     1
178
   230
179
     1
271
     1
272
     1
273
     8
274
     4
284
     8
288
     1
340
4B4CB
  0
DIMSTYLE
105
4CA3D
330
4B4C5
100
AcDbSymbolTableRecord
100
AcDbDimStyleTableRecord
  2
STANDARD$3
 70
     0
 41
2.0
 42
3.0
 43
8.0
 44
1.5
 77
     1
 78
     8
140
3.0
141
0.0
146
0.6
147
0.75
171
     4
173
     1
178
   230
271
     1
272
     1
273
     8
274
     4
284
     8
288
     1
289
     0
340
4B4CB
  0
DIMSTYLE
105
4CA3E
330
4B4C5
100
AcDbSymbolTableRecord
100
AcDbDimStyleTableRecord
  2
STANDARD$7
 70
     0
 41
2.0
 42
3.0
 43
8.0
 44
1.5
 73
     0
 74
     0
 77
     1
 78
     8
140
3.0
141
0.0
146
0.6
147
0.75
171
     4
173
     1
178
   230
271
     1
272
     1
273
     8
274
     4
284
     8
340
4B4CB
  0
DIMSTYLE
105
4CA3F
330
4B4C5
100
AcDbSymbolTableRecord
100
AcDbDimStyleTableRecord
  2
STANDARD$0
 70
     0
 41
2.0
 42
3.0
 43
8.0
 44
1.5
 73
     0
 74
     0
 77
     1
 78
     8
140
3.0
141
0.0
146
0.6
147
0.75
171
     4
173
     1
178
   230
271
     1
272
     1
273
     8
274
     4
279
     2
284
     8
340
4B4CB
  0
DIMSTYLE
105
4CA40
330
4B4C5
100
AcDbSymbolTableRecord
100
AcDbDimStyleTableRecord
  2
STANDARD$4
 70
     0
 41
2.0
 42
3.0
 43
8.0
 44
1.5
 73
     0
 74
     0
 77
     1
 78
     8
140
3.0
141
0.0
146
0.6
147
0.75
171
     4
173
     1
178
   230
271
     1
272
     1
273
     8
274
     4
284
     8
340
4B4CB
  0
DIMSTYLE
105
4CA41
330
4B4C5
100
AcDbSymbolTableRecord
100
AcDbDimStyleTableRecord
  2
STANDARD$6
 70
     0
 41
2.0
 42
3.0
 43
8.0
 44
1.5
 73
     0
 74
     0
 77
     1
 78
     8
140
3.0
141
0.0
146
0.6
147
0.75
171
     4
173
     1
178
   230
271
     1
272
     1
273
     8
274
     4
284
     8
340
4B4CB
  0
DIMSTYLE
105
4CA42
330
4B4C5
100
AcDbSymbolTableRecord
100
AcDbDimStyleTableRecord
  2
DIMBIGFONT$4
 70
     0
 41
2.0
 42
3.0
 43
8.0
 44
1.5
 73
     0
 74
     0
 77
     1
 78
     8
140
3.0
141
0.0
145
1.0
146
0.6
147
0.75
171
     4
173
     1
178
   230
271
     1
272
     1
273
     8
274
     4
284
     8
340
4B4DA
  0
DIMSTYLE
105
4CA43
330
4B4C5
100
AcDbSymbolTableRecord
100
AcDbDimStyleTableRecord
  2
DIMBIGFONT$6
 70
     0
 41
2.0
 42
3.0
 43
8.0
 44
1.5
 73
     0
 74
     0
 77
     1
 78
     8
140
3.0
141
0.0
145
1.0
146
0.6
147
0.75
171
     4
173
     1
178
   230
271
     1
272
     1
273
     8
274
     4
284
     8
340
4B4DA
  0
DIMSTYLE
105
4CA44
330
4B4C5
100
AcDbSymbolTableRecord
100
AcDbDimStyleTableRecord
  2
DIMGOTHIC$4
 70
     0
 41
2.0
 42
3.0
 43
8.0
 44
1.5
 73
     0
 74
     0
 77
     1
 78
     8
140
3.0
141
0.0
146
0.6
147
0.75
171
     4
173
     1
178
   230
271
     1
272
     1
273
     8
274
     4
284
     8
340
4CA29
  0
DIMSTYLE
105
4CA45
330
4B4C5
100
AcDbSymbolTableRecord
100
AcDbDimStyleTableRecord
  2
DIMGOTHIC$6
 70
     0
 41
2.0
 42
3.0
 43
8.0
 44
1.5
 73
     0
 74
     0
 77
     1
 78
     8
140
3.0
141
0.0
146
0.6
147
0.75
171
     4
173
     1
178
   230
271
     1
272
     1
273
     8
274
     4
284
     8
340
4CA29
  0
DIMSTYLE
105
4CA46
330
4B4C5
100
AcDbSymbolTableRecord
100
AcDbDimStyleTableRecord
  2
DIMMINCHO$4
 70
     0
 41
2.0
 42
3.0
 43
8.0
 44
1.5
 73
     0
 74
     0
 77
     1
 78
     8
140
3.0
141
0.0
146
0.6
147
0.75
171
     4
173
     1
178
   230
271
     1
272
     1
273
     8
274
     4
284
     8
340
4CA2A
  0
DIMSTYLE
105
4CA47
330
4B4C5
100
AcDbSymbolTableRecord
100
AcDbDimStyleTableRecord
  2
DIMMINCHO$6
 70
     0
 41
2.0
 42
3.0
 43
8.0
 44
1.5
 73
     0
 74
     0
 77
     1
 78
     8
140
3.0
141
0.0
146
0.6
147
0.75
171
     4
173
     1
178
   230
271
     1
272
     1
273
     8
274
     4
284
     8
340
4CA2A
  0
DIMSTYLE
105
4CA48
330
4B4C5
100
AcDbSymbolTableRecord
100
AcDbDimStyleTableRecord
  2
DIMRGOTHIC
 70
     0
 41
2.0
 42
3.0
 43
8.0
 44
1.5
 73
     0
 74
     0
 77
     1
 78
     8
140
3.0
141
0.0
145
1.0
146
0.6
147
0.75
171
     4
173
     1
178
   230
271
     1
272
     1
273
     8
274
     4
284
     8
340
4CA2B
  0
DIMSTYLE
105
4CA49
330
4B4C5
100
AcDbSymbolTableRecord
100
AcDbDimStyleTableRecord
  2
DIMRGOTHIC$4
 70
     0
 41
2.0
 42
3.0
 43
8.0
 44
1.5
 73
     0
 74
     0
 77
     1
 78
     8
140
3.0
141
0.0
146
0.6
147
0.75
171
     4
173
     1
178
   230
271
     1
272
     1
273
     8
274
     4
284
     8
340
4CA2B
  0
DIMSTYLE
105
4CA4A
330
4B4C5
100
AcDbSymbolTableRecord
100
AcDbDimStyleTableRecord
  2
DIMRGOTHIC$6
 70
     0
 41
2.0
 42
3.0
 43
8.0
 44
1.5
 73
     0
 74
     0
 77
     1
 78
     8
140
3.0
141
0.0
146
0.6
147
0.75
171
     4
173
     1
178
   230
271
     1
272
     1
273
     8
274
     4
284
     8
340
4CA2B
  0
DIMSTYLE
105
4CA4B
330
4B4C5
100
AcDbSymbolTableRecord
100
AcDbDimStyleTableRecord
  2
DIMRGOTHIC$2
 70
     0
 41
2.0
 42
3.0
 43
8.0
 44
1.5
 73
     0
 74
     0
 77
     1
 78
     8
140
3.0
141
0.0
146
0.6
147
0.75
171
     4
173
     1
178
   230
179
     1
271
     1
272
     1
273
     8
274
     4
284
     8
288
     1
340
4CA2B
  0
DIMSTYLE
105
4CA4C
330
4B4C5
100
AcDbSymbolTableRecord
100
AcDbDimStyleTableRecord
  2
DIMRGOTHIC$3
 70
     0
 41
2.0
 42
3.0
 43
8.0
 44
1.5
 77
     1
 78
     8
140
3.0
141
0.0
146
0.6
147
0.75
171
     4
173
     1
178
   230
271
     1
272
     1
273
     8
274
     4
284
     8
288
     1
289
     0
340
4CA2B
  0
DIMSTYLE
105
4CA4D
330
4B4C5
100
AcDbSymbolTableRecord
100
AcDbDimStyleTableRecord
  2
DIMRGOTHIC$7
 70
     0
 41
2.0
 42
3.0
 43
8.0
 44
1.5
 73
     0
 74
     0
 77
     1
 78
     8
140
3.0
141
0.0
146
0.6
147
0.75
171
     4
173
     1
178
   230
271
     1
272
     1
273
     8
274
     4
284
     8
340
4CA2B
  0
DIMSTYLE
105
4CA4E
330
4B4C5
100
AcDbSymbolTableRecord
100
AcDbDimStyleTableRecord
  2
DIMRGOTHIC$0
 70
     0
 41
2.0
 42
3.0
 43
8.0
 44
1.5
 73
     0
 74
     0
 77
     1
 78
     8
140
3.0
141
0.0
146
0.6
147
0.75
171
     4
173
     1
178
   230
271
     1
272
     1
273
     8
274
     4
279
     2
284
     8
340
4CA2B
  0
ENDTAB
  0
TABLE
  2
BLOCK_RECORD
  5
4B4BC
330
0
100
AcDbSymbolTable
 70
     5
  0
BLOCK_RECORD
  5
4B4D3
330
4B4BC
100
AcDbSymbolTableRecord
100
AcDbBlockTableRecord
  2
*MODEL_SPACE
340
4C9E2
  0
BLOCK_RECORD
  5
4B4D0
330
4B4BC
100
AcDbSymbolTableRecord
100
AcDbBlockTableRecord
  2
*PAPER_SPACE
340
4C9E3
  0
BLOCK_RECORD
  5
4BABA
330
4B4BC
100
AcDbSymbolTableRecord
100
AcDbBlockTableRecord
  2
_OPEN
340
0
  0
BLOCK_RECORD
  5
4C9F0
330
4B4BC
100
AcDbSymbolTableRecord
100
AcDbBlockTableRecord
  2
_DOT
340
0
  0
BLOCK_RECORD
  5
4CAF8
330
4B4BC
100
AcDbSymbolTableRecord
100
AcDbBlockTableRecord
  2
DFP3
340
0
102
{BLKREFS
331
4D031
102
}
  0
BLOCK_RECORD
  5
4D0B6
330
4B4BC
100
AcDbSymbolTableRecord
100
AcDbBlockTableRecord
  2
*D3
340
0
  0
BLOCK_RECORD
  5
4D0D0
330
4B4BC
100
AcDbSymbolTableRecord
100
AcDbBlockTableRecord
  2
*D4
340
0
  0
ENDTAB
  0
ENDSEC
  0
SECTION
  2
BLOCKS
  0
BLOCK
  5
4B4EA
330
4B4D3
100
AcDbEntity
  8
0
100
AcDbBlockBegin
  2
*MODEL_SPACE
 70
     0
 10
0.0
 20
0.0
 30
0.0
  3
*MODEL_SPACE
  1

  0
ENDBLK
  5
4B4EB
330
4B4D3
100
AcDbEntity
  8
0
100
AcDbBlockEnd
  0
BLOCK
  5
4B4E8
330
4B4D0
100
AcDbEntity
 67
     1
  8
0
100
AcDbBlockBegin
  2
*PAPER_SPACE
 70
     0
 10
0.0
 20
0.0
 30
0.0
  3
*PAPER_SPACE
  1

  0
ENDBLK
  5
4B4E9
330
4B4D0
100
AcDbEntity
 67
     1
  8
0
100
AcDbBlockEnd
  0
BLOCK
  5
4BABB
330
4BABA
100
AcDbEntity
  8
0
 48
0.5
100
AcDbBlockBegin
  2
_OPEN
 70
     0
 10
0.0
 20
0.0
 30
0.0
  3
_OPEN
  1

  0
LINE
  5
4BABC
330
4BABA
100
AcDbEntity
  8
0
  6
ByBlock
 62
     0
 48
0.5
100
AcDbLine
 10
-1.0
 20
0.1666666666666667
 30
0.0
 11
0.0
 21
0.0
 31
0.0
  0
LINE
  5
4BABD
330
4BABA
100
AcDbEntity
  8
0
  6
ByBlock
 62
     0
 48
0.5
100
AcDbLine
 10
0.0
 20
0.0
 30
0.0
 11
-1.0
 21
-0.1666666666666667
 31
0.0
  0
LINE
  5
4BABE
330
4BABA
100
AcDbEntity
  8
0
  6
ByBlock
 62
     0
 48
0.5
100
AcDbLine
 10
0.0
 20
0.0
 30
0.0
 11
-1.0
 21
0.0
 31
0.0
  0
ENDBLK
  5
4BABF
330
4BABA
100
AcDbEntity
  8
0
 48
0.5
100
AcDbBlockEnd
  0
BLOCK
  5
4C9F3
330
4C9F0
100
AcDbEntity
  8
0
100
AcDbBlockBegin
  2
_DOT
 70
     0
 10
0.0
 20
0.0
 30
0.0
  3
_DOT
  1

  0
LWPOLYLINE
  5
4C9F1
330
4C9F0
100
AcDbEntity
  8
0
  6
ByBlock
 62
     0
100
AcDbPolyline
 90
        2
 70
     1
 43
0.5
 10
-0.25
 20
0.0
 42
1.0
 10
0.25
 20
0.0
 42
1.0
  0
LINE
  5
4C9F2
330
4C9F0
100
AcDbEntity
  8
0
  6
ByBlock
 62
     0
100
AcDbLine
 10
-0.5
 20
0.0
 30
0.0
 11
-1.0
 21
0.0
 31
0.0
  0
ENDBLK
  5
4C9F4
330
4C9F0
100
AcDbEntity
  8
0
100
AcDbBlockEnd
  0
BLOCK
  5
4D02F
330
4CAF8
100
AcDbEntity
  8
0
100
AcDbBlockBegin
  2
DFP3
 70
     2
 10
0.0
 20
0.0
 30
0.0
  3
DFP3
  1

  0
LINE
  5
4CAF9
330
4CAF8
100
AcDbEntity
  8
DEFPOINTS
 62
     0
100
AcDbLine
 10
420.0
 20
297.0
 30
0.0
 11
420.0
 21
0.0
 31
0.0
  0
LINE
  5
4CAFA
330
4CAF8
100
AcDbEntity
  8
DEFPOINTS
 62
     0
100
AcDbLine
 10
0.0
 20
297.0
 30
0.0
 11
0.0
 21
0.0
 31
0.0
  0
LINE
  5
4CAFB
330
4CAF8
100
AcDbEntity
  8
0
 62
     0
100
AcDbLine
 10
21.5
 20
9.75
 30
0.0
 11
408.0
 21
9.75
 31
0.0
  0
LINE
  5
4CAFC
330
4CAF8
100
AcDbEntity
  8
0
 62
     0
100
AcDbLine
 10
21.5
 20
9.699999999999818
 30
0.0
 11
408.0
 21
9.699999999999818
 31
0.0
  0
LINE
  5
4CAFD
330
4CAF8
100
AcDbEntity
  8
0
 62
     0
100
AcDbLine
 10
21.5
 20
9.650000000000091
 30
0.0
 11
408.0
 21
9.650000000000091
 31
0.0
  0
LINE
  5
4CAFE
330
4CAF8
100
AcDbEntity
  8
0
 62
     0
100
AcDbLine
 10
21.5
 20
32.5
 30
0.0
 11
408.0
 21
32.5
 31
0.0
  0
LINE
  5
4CAFF
330
4CAF8
100
AcDbEntity
  8
0
 62
     0
100
AcDbLine
 10
21.5
 20
32.55000000000018
 30
0.0
 11
408.0
 21
32.55000000000018
 31
0.0
  0
LINE
  5
4CB00
330
4CAF8
100
AcDbEntity
  8
0
 62
     0
100
AcDbLine
 10
21.5
 20
33.5
 30
0.0
 11
408.0
 21
33.5
 31
0.0
  0
LINE
  5
4CB01
330
4CAF8
100
AcDbEntity
  8
0
 62
     0
100
AcDbLine
 10
21.5
 20
33.44999999999982
 30
0.0
 11
408.0
 21
33.44999999999982
 31
0.0
  0
LINE
  5
4CB02
330
4CAF8
100
AcDbEntity
  8
0
 62
     0
100
AcDbLine
 10
21.5
 20
9.599999999999909
 30
0.0
 11
408.0
 21
9.599999999999909
 31
0.0
  0
LINE
  5
4CB03
330
4CAF8
100
AcDbEntity
  8
0
 62
     0
100
AcDbLine
 10
21.5
 20
9.550000000000182
 30
0.0
 11
408.0
 21
9.550000000000182
 31
0.0
  0
LINE
  5
4CB04
330
4CAF8
100
AcDbEntity
  8
0
 62
     0
100
AcDbLine
 10
21.5
 20
9.5
 30
0.0
 11
408.0
 21
9.5
 31
0.0
  0
LINE
  5
4CB05
330
4CAF8
100
AcDbEntity
  8
0
 62
     0
100
AcDbLine
 10
21.5
 20
9.449999999999818
 30
0.0
 11
408.0
 21
9.449999999999818
 31
0.0
  0
LINE
  5
4CB06
330
4CAF8
100
AcDbEntity
  8
0
 62
     0
100
AcDbLine
 10
21.5
 20
8.75
 30
0.0
 11
408.0
 21
8.75
 31
0.0
  0
LINE
  5
4CB07
330
4CAF8
100
AcDbEntity
  8
0
 62
     0
100
AcDbLine
 10
21.5
 20
8.800000000000182
 30
0.0
 11
408.0
 21
8.800000000000182
 31
0.0
  0
LINE
  5
4CB08
330
4CAF8
100
AcDbEntity
  8
0
 62
     0
100
AcDbLine
 10
21.5
 20
8.849999999999909
 30
0.0
 11
408.0
 21
8.849999999999909
 31
0.0
  0
LINE
  5
4CB09
330
4CAF8
100
AcDbEntity
  8
0
 62
     0
100
AcDbLine
 10
21.5
 20
8.900000000000091
 30
0.0
 11
408.0
 21
8.900000000000091
 31
0.0
  0
LINE
  5
4CB0A
330
4CAF8
100
AcDbEntity
  8
0
 62
     0
100
AcDbLine
 10
21.5
 20
8.949999999999818
 30
0.0
 11
408.0
 21
8.949999999999818
 31
0.0
  0
LINE
  5
4CB0B
330
4CAF8
100
AcDbEntity
  8
0
 62
     0
100
AcDbLine
 10
21.5
 20
9.0
 30
0.0
 11
408.0
 21
9.0
 31
0.0
  0
LINE
  5
4CB0C
330
4CAF8
100
AcDbEntity
  8
0
 62
     0
100
AcDbLine
 10
21.5
 20
9.050000000000182
 30
0.0
 11
408.0
 21
9.050000000000182
 31
0.0
  0
LINE
  5
4CB0D
330
4CAF8
100
AcDbEntity
  8
0
 62
     0
100
AcDbLine
 10
21.5
 20
9.099999999999909
 30
0.0
 11
408.0
 21
9.099999999999909
 31
0.0
  0
LINE
  5
4CB0E
330
4CAF8
100
AcDbEntity
  8
0
 62
     0
100
AcDbLine
 10
21.5
 20
9.150000000000091
 30
0.0
 11
408.0
 21
9.150000000000091
 31
0.0
  0
LINE
  5
4CB0F
330
4CAF8
100
AcDbEntity
  8
0
 62
     0
100
AcDbLine
 10
21.5
 20
9.199999999999818
 30
0.0
 11
408.0
 21
9.199999999999818
 31
0.0
  0
LINE
  5
4CB10
330
4CAF8
100
AcDbEntity
  8
0
 62
     0
100
AcDbLine
 10
21.5
 20
9.25
 30
0.0
 11
408.0
 21
9.25
 31
0.0
  0
LINE
  5
4CB11
330
4CAF8
100
AcDbEntity
  8
0
 62
     0
100
AcDbLine
 10
21.5
 20
9.300000000000182
 30
0.0
 11
408.0
 21
9.300000000000182
 31
0.0
  0
LINE
  5
4CB12
330
4CAF8
100
AcDbEntity
  8
0
 62
     0
100
AcDbLine
 10
21.5
 20
9.349999999999909
 30
0.0
 11
408.0
 21
9.349999999999909
 31
0.0
  0
LINE
  5
4CB13
330
4CAF8
100
AcDbEntity
  8
0
 62
     0
100
AcDbLine
 10
21.5
 20
9.400000000000091
 30
0.0
 11
408.0
 21
9.400000000000091
 31
0.0
  0
LINE
  5
4CB14
330
4CAF8
100
AcDbEntity
  8
0
 62
     0
100
AcDbLine
 10
21.5
 20
33.34999999999991
 30
0.0
 11
408.0
 21
33.34999999999991
 31
0.0
  0
LINE
  5
4CB15
330
4CAF8
100
AcDbEntity
  8
0
 62
     0
100
AcDbLine
 10
21.5
 20
33.05000000000018
 30
0.0
 11
408.0
 21
33.05000000000018
 31
0.0
  0
LINE
  5
4CB16
330
4CAF8
100
AcDbEntity
  8
0
 62
     0
100
AcDbLine
 10
21.5
 20
32.94999999999982
 30
0.0
 11
408.0
 21
32.94999999999982
 31
0.0
  0
LINE
  5
4CB17
330
4CAF8
100
AcDbEntity
  8
0
 62
     0
100
AcDbLine
 10
21.5
 20
32.75
 30
0.0
 11
408.0
 21
32.75
 31
0.0
  0
LINE
  5
4CB18
330
4CAF8
100
AcDbEntity
  8
0
 62
     0
100
AcDbLine
 10
21.5
 20
32.65000000000009
 30
0.0
 11
408.0
 21
32.65000000000009
 31
0.0
  0
LINE
  5
4CB19
330
4CAF8
100
AcDbEntity
  8
0
 62
     0
100
AcDbLine
 10
21.5
 20
32.84999999999991
 30
0.0
 11
408.0
 21
32.84999999999991
 31
0.0
  0
LINE
  5
4CB1A
330
4CAF8
100
AcDbEntity
  8
0
 62
     0
100
AcDbLine
 10
21.5
 20
33.15000000000009
 30
0.0
 11
408.0
 21
33.15000000000009
 31
0.0
  0
LINE
  5
4CB1B
330
4CAF8
100
AcDbEntity
  8
0
 62
     0
100
AcDbLine
 10
21.5
 20
33.25
 30
0.0
 11
408.0
 21
33.25
 31
0.0
  0
LINE
  5
4CB1C
330
4CAF8
100
AcDbEntity
  8
0
 62
     0
100
AcDbLine
 10
21.5
 20
32.90000000000009
 30
0.0
 11
408.0
 21
32.90000000000009
 31
0.0
  0
LINE
  5
4CB1D
330
4CAF8
100
AcDbEntity
  8
0
 62
     0
100
AcDbLine
 10
21.5
 20
32.59999999999991
 30
0.0
 11
408.0
 21
32.59999999999991
 31
0.0
  0
LINE
  5
4CB1E
330
4CAF8
100
AcDbEntity
  8
0
 62
     0
100
AcDbLine
 10
21.5
 20
32.69999999999982
 30
0.0
 11
408.0
 21
32.69999999999982
 31
0.0
  0
LINE
  5
4CB1F
330
4CAF8
100
AcDbEntity
  8
0
 62
     0
100
AcDbLine
 10
21.5
 20
32.80000000000018
 30
0.0
 11
408.0
 21
32.80000000000018
 31
0.0
  0
LINE
  5
4CB20
330
4CAF8
100
AcDbEntity
  8
0
 62
     0
100
AcDbLine
 10
21.5
 20
33.40000000000009
 30
0.0
 11
408.0
 21
33.40000000000009
 31
0.0
  0
LINE
  5
4CB21
330
4CAF8
100
AcDbEntity
  8
0
 62
     0
100
AcDbLine
 10
21.5
 20
33.30000000000018
 30
0.0
 11
408.0
 21
33.30000000000018
 31
0.0
  0
LINE
  5
4CB22
330
4CAF8
100
AcDbEntity
  8
0
 62
     0
100
AcDbLine
 10
21.5
 20
33.19999999999982
 30
0.0
 11
408.0
 21
33.19999999999982
 31
0.0
  0
LINE
  5
4CB23
330
4CAF8
100
AcDbEntity
  8
0
 62
     0
100
AcDbLine
 10
21.5
 20
33.09999999999991
 30
0.0
 11
408.0
 21
33.09999999999991
 31
0.0
  0
LINE
  5
4CB24
330
4CAF8
100
AcDbEntity
  8
0
 62
     0
100
AcDbLine
 10
21.5
 20
33.0
 30
0.0
 11
408.0
 21
33.0
 31
0.0
  0
LINE
  5
4CB25
330
4CAF8
100
AcDbEntity
  8
DEFPOINTS
 62
     0
100
AcDbLine
 10
0.0
 20
0.0
 30
0.0
 11
420.0
 21
0.0
 31
0.0
  0
LINE
  5
4CB26
330
4CAF8
100
AcDbEntity
  8
0
 62
     0
100
AcDbLine
 10
88.5
 20
15.02500000000009
 30
0.0
 11
115.5
 21
15.02500000000009
 31
0.0
  0
LINE
  5
4CB27
330
4CAF8
100
AcDbEntity
  8
0
 62
     0
100
AcDbLine
 10
88.5
 20
21.02500000000009
 30
0.0
 11
115.5
 21
21.02500000000009
 31
0.0
  0
LINE
  5
4CB28
330
4CAF8
100
AcDbEntity
  8
0
 62
     0
100
AcDbLine
 10
88.5
 20
27.02500000000009
 30
0.0
 11
115.5
 21
27.02500000000009
 31
0.0
  0
LINE
  5
4CB29
330
4CAF8
100
AcDbEntity
  8
0
 62
     0
100
AcDbLine
 10
21.5
 20
15.02500000000009
 30
0.0
 11
86.5
 21
15.02500000000009
 31
0.0
  0
LINE
  5
4CB2A
330
4CAF8
100
AcDbEntity
  8
0
 62
     0
100
AcDbLine
 10
21.5
 20
21.02500000000009
 30
0.0
 11
86.5
 21
21.02500000000009
 31
0.0
  0
LINE
  5
4CB2B
330
4CAF8
100
AcDbEntity
  8
0
 62
     0
100
AcDbLine
 10
21.5
 20
27.02500000000009
 30
0.0
 11
86.5
 21
27.02500000000009
 31
0.0
  0
LINE
  5
4CB2C
330
4CAF8
100
AcDbEntity
  8
0
 62
     0
100
AcDbLine
 10
106.25
 20
27.82499999999982
 30
0.0
 11
106.5
 21
27.57499999999982
 31
0.0
  0
LINE
  5
4CB2D
330
4CAF8
100
AcDbEntity
  8
0
 62
     0
100
AcDbLine
 10
106.2579940000001
 20
27.88771600000018
 30
0.0
 11
106.5627159999999
 21
27.58299399999987
 31
0.0
  0
LINE
  5
4CB2E
330
4CAF8
100
AcDbEntity
  8
0
 62
     0
100
AcDbLine
 10
106.2774770000001
 20
27.93894499999988
 30
0.0
 11
106.6139450000001
 21
27.60247699999991
 31
0.0
  0
LINE
  5
4CB2F
330
4CAF8
100
AcDbEntity
  8
0
 62
     0
100
AcDbLine
 10
106.305306
 20
27.98182600000018
 30
0.0
 11
106.6568259999999
 21
27.63030600000002
 31
0.0
  0
LINE
  5
4CB30
330
4CAF8
100
AcDbEntity
  8
0
 62
     0
100
AcDbLine
 10
106.3404089999999
 20
28.01743399999987
 30
0.0
 11
106.692434
 21
27.66540900000018
 31
0.0
  0
LINE
  5
4CB31
330
4CAF8
100
AcDbEntity
  8
0
 62
     0
100
AcDbLine
 10
106.3827529999999
 20
28.04580100000021
 30
0.0
 11
106.7208009999999
 21
27.70775300000014
 31
0.0
  0
LINE
  5
4CB32
330
4CAF8
100
AcDbEntity
  8
0
 62
     0
100
AcDbLine
 10
106.4333200000001
 20
28.06594399999994
 30
0.0
 11
106.7409440000001
 21
27.75831999999991
 31
0.0
  0
LINE
  5
4CB33
330
4CAF8
100
AcDbEntity
  8
0
 62
     0
100
AcDbLine
 10
106.4950240000001
 20
28.07495000000017
 30
0.0
 11
106.7499499999999
 21
27.8200240000001
 31
0.0
  0
LINE
  5
4CB34
330
4CAF8
100
AcDbEntity
  8
0
 62
     0
100
AcDbLine
 10
106.578246
 20
28.06244000000015
 30
0.0
 11
106.7374399999999
 21
27.90324599999985
 31
0.0
  0
LINE
  5
4CB35
330
4CAF8
100
AcDbEntity
  8
0
 62
     0
100
AcDbLine
 10
106.2652390000001
 20
27.73905000000013
 30
0.0
 11
106.4140499999999
 21
27.59023900000011
 31
0.0
  0
LINE
  5
4CB36
330
4CAF8
100
AcDbEntity
  8
0
 62
     0
100
AcDbLine
 10
106.25
 20
27.82499999999982
 30
0.0
 11
106.5
 21
28.07499999999982
 31
0.0
  0
LINE
  5
4CB37
330
4CAF8
100
AcDbEntity
  8
0
 62
     0
100
AcDbLine
 10
106.2579940000001
 20
27.76228399999991
 30
0.0
 11
106.5627159999999
 21
28.06700600000022
 31
0.0
  0
LINE
  5
4CB38
330
4CAF8
100
AcDbEntity
  8
0
 62
     0
100
AcDbLine
 10
106.2774770000001
 20
27.71105500000021
 30
0.0
 11
106.6139450000001
 21
28.04752300000018
 31
0.0
  0
LINE
  5
4CB39
330
4CAF8
100
AcDbEntity
  8
0
 62
     0
100
AcDbLine
 10
106.305306
 20
27.66817399999991
 30
0.0
 11
106.6568259999999
 21
28.01969400000007
 31
0.0
  0
LINE
  5
4CB3A
330
4CAF8
100
AcDbEntity
  8
0
 62
     0
100
AcDbLine
 10
106.3404089999999
 20
27.63256600000022
 30
0.0
 11
106.692434
 21
27.98459099999991
 31
0.0
  0
LINE
  5
4CB3B
330
4CAF8
100
AcDbEntity
  8
0
 62
     0
100
AcDbLine
 10
106.3827529999999
 20
27.60419899999988
 30
0.0
 11
106.7208009999999
 21
27.94224699999995
 31
0.0
  0
LINE
  5
4CB3C
330
4CAF8
100
AcDbEntity
  8
0
 62
     0
100
AcDbLine
 10
106.4333200000001
 20
27.58405600000015
 30
0.0
 11
106.7409440000001
 21
27.89168000000018
 31
0.0
  0
LINE
  5
4CB3D
330
4CAF8
100
AcDbEntity
  8
0
 62
     0
100
AcDbLine
 10
106.4950240000001
 20
27.57504999999992
 30
0.0
 11
106.7499499999999
 21
27.82997599999999
 31
0.0
  0
LINE
  5
4CB3E
330
4CAF8
100
AcDbEntity
  8
0
 62
     0
100
AcDbLine
 10
106.578246
 20
27.58755999999994
 30
0.0
 11
106.7374399999999
 21
27.74675399999978
 31
0.0
  0
LINE
  5
4CB3F
330
4CAF8
100
AcDbEntity
  8
0
 62
     0
100
AcDbLine
 10
106.2652390000001
 20
27.91094999999996
 30
0.0
 11
106.4140499999999
 21
28.05976099999998
 31
0.0
  0
LINE
  5
4CB40
330
4CAF8
100
AcDbEntity
  8
0
 62
     0
100
AcDbLine
 10
106.25
 20
21.82499999999982
 30
0.0
 11
106.5
 21
21.57499999999982
 31
0.0
  0
LINE
  5
4CB41
330
4CAF8
100
AcDbEntity
  8
0
 62
     0
100
AcDbLine
 10
106.2579940000001
 20
21.88771600000018
 30
0.0
 11
106.5627159999999
 21
21.58299399999987
 31
0.0
  0
LINE
  5
4CB42
330
4CAF8
100
AcDbEntity
  8
0
 62
     0
100
AcDbLine
 10
106.2774770000001
 20
21.93894499999988
 30
0.0
 11
106.6139450000001
 21
21.60247699999991
 31
0.0
  0
LINE
  5
4CB43
330
4CAF8
100
AcDbEntity
  8
0
 62
     0
100
AcDbLine
 10
106.305306
 20
21.98182600000018
 30
0.0
 11
106.6568259999999
 21
21.63030600000002
 31
0.0
  0
LINE
  5
4CB44
330
4CAF8
100
AcDbEntity
  8
0
 62
     0
100
AcDbLine
 10
106.3404089999999
 20
22.01743399999987
 30
0.0
 11
106.692434
 21
21.66540900000018
 31
0.0
  0
LINE
  5
4CB45
330
4CAF8
100
AcDbEntity
  8
0
 62
     0
100
AcDbLine
 10
106.3827529999999
 20
22.04580100000021
 30
0.0
 11
106.7208009999999
 21
21.70775300000014
 31
0.0
  0
LINE
  5
4CB46
330
4CAF8
100
AcDbEntity
  8
0
 62
     0
100
AcDbLine
 10
106.4333200000001
 20
22.06594399999994
 30
0.0
 11
106.7409440000001
 21
21.75831999999991
 31
0.0
  0
LINE
  5
4CB47
330
4CAF8
100
AcDbEntity
  8
0
 62
     0
100
AcDbLine
 10
106.4950240000001
 20
22.07495000000017
 30
0.0
 11
106.7499499999999
 21
21.8200240000001
 31
0.0
  0
LINE
  5
4CB48
330
4CAF8
100
AcDbEntity
  8
0
 62
     0
100
AcDbLine
 10
106.578246
 20
22.06244000000015
 30
0.0
 11
106.7374399999999
 21
21.90324599999985
 31
0.0
  0
LINE
  5
4CB49
330
4CAF8
100
AcDbEntity
  8
0
 62
     0
100
AcDbLine
 10
106.2652390000001
 20
21.73905000000013
 30
0.0
 11
106.4140499999999
 21
21.59023900000011
 31
0.0
  0
LINE
  5
4CB4A
330
4CAF8
100
AcDbEntity
  8
0
 62
     0
100
AcDbLine
 10
106.25
 20
21.82499999999982
 30
0.0
 11
106.5
 21
22.07499999999982
 31
0.0
  0
LINE
  5
4CB4B
330
4CAF8
100
AcDbEntity
  8
0
 62
     0
100
AcDbLine
 10
106.2579940000001
 20
21.76228399999991
 30
0.0
 11
106.5627159999999
 21
22.06700600000022
 31
0.0
  0
LINE
  5
4CB4C
330
4CAF8
100
AcDbEntity
  8
0
 62
     0
100
AcDbLine
 10
106.2774770000001
 20
21.71105500000021
 30
0.0
 11
106.6139450000001
 21
22.04752300000018
 31
0.0
  0
LINE
  5
4CB4D
330
4CAF8
100
AcDbEntity
  8
0
 62
     0
100
AcDbLine
 10
106.305306
 20
21.66817399999991
 30
0.0
 11
106.6568259999999
 21
22.01969400000007
 31
0.0
  0
LINE
  5
4CB4E
330
4CAF8
100
AcDbEntity
  8
0
 62
     0
100
AcDbLine
 10
106.3404089999999
 20
21.63256600000022
 30
0.0
 11
106.692434
 21
21.98459099999991
 31
0.0
  0
LINE
  5
4CB4F
330
4CAF8
100
AcDbEntity
  8
0
 62
     0
100
AcDbLine
 10
106.3827529999999
 20
21.60419899999988
 30
0.0
 11
106.7208009999999
 21
21.94224699999995
 31
0.0
  0
LINE
  5
4CB50
330
4CAF8
100
AcDbEntity
  8
0
 62
     0
100
AcDbLine
 10
106.4333200000001
 20
21.58405600000015
 30
0.0
 11
106.7409440000001
 21
21.89168000000018
 31
0.0
  0
LINE
  5
4CB51
330
4CAF8
100
AcDbEntity
  8
0
 62
     0
100
AcDbLine
 10
106.4950240000001
 20
21.57504999999992
 30
0.0
 11
106.7499499999999
 21
21.82997599999999
 31
0.0
  0
LINE
  5
4CB52
330
4CAF8
100
AcDbEntity
  8
0
 62
     0
100
AcDbLine
 10
106.578246
 20
21.58755999999994
 30
0.0
 11
106.7374399999999
 21
21.74675399999978
 31
0.0
  0
LINE
  5
4CB53
330
4CAF8
100
AcDbEntity
  8
0
 62
     0
100
AcDbLine
 10
106.2652390000001
 20
21.91094999999996
 30
0.0
 11
106.4140499999999
 21
22.05976099999998
 31
0.0
  0
LINE
  5
4CB54
330
4CAF8
100
AcDbEntity
  8
0
 62
     0
100
AcDbLine
 10
97.25
 20
27.82499999999982
 30
0.0
 11
97.5
 21
27.57499999999982
 31
0.0
  0
LINE
  5
4CB55
330
4CAF8
100
AcDbEntity
  8
0
 62
     0
100
AcDbLine
 10
97.25799400000005
 20
27.88771600000018
 30
0.0
 11
97.56271599999991
 21
27.58299399999987
 31
0.0
  0
LINE
  5
4CB56
330
4CAF8
100
AcDbEntity
  8
0
 62
     0
100
AcDbLine
 10
97.27747700000009
 20
27.93894499999988
 30
0.0
 11
97.61394500000006
 21
27.60247699999991
 31
0.0
  0
LINE
  5
4CB57
330
4CAF8
100
AcDbEntity
  8
0
 62
     0
100
AcDbLine
 10
97.30530599999997
 20
27.98182600000018
 30
0.0
 11
97.65682599999991
 21
27.63030600000002
 31
0.0
  0
LINE
  5
4CB58
330
4CAF8
100
AcDbEntity
  8
0
 62
     0
100
AcDbLine
 10
97.34040899999991
 20
28.01743399999987
 30
0.0
 11
97.69243400000005
 21
27.66540900000018
 31
0.0
  0
LINE
  5
4CB59
330
4CAF8
100
AcDbEntity
  8
0
 62
     0
100
AcDbLine
 10
97.38275299999987
 20
28.04580100000021
 30
0.0
 11
97.72080099999994
 21
27.70775300000014
 31
0.0
  0
LINE
  5
4CB5A
330
4CAF8
100
AcDbEntity
  8
0
 62
     0
100
AcDbLine
 10
97.4333200000001
 20
28.06594399999994
 30
0.0
 11
97.74094400000013
 21
27.75831999999991
 31
0.0
  0
LINE
  5
4CB5B
330
4CAF8
100
AcDbEntity
  8
0
 62
     0
100
AcDbLine
 10
97.49502400000006
 20
28.07495000000017
 30
0.0
 11
97.7499499999999
 21
27.8200240000001
 31
0.0
  0
LINE
  5
4CB5C
330
4CAF8
100
AcDbEntity
  8
0
 62
     0
100
AcDbLine
 10
97.57824600000004
 20
28.06244000000015
 30
0.0
 11
97.73743999999988
 21
27.90324599999985
 31
0.0
  0
LINE
  5
4CB5D
330
4CAF8
100
AcDbEntity
  8
0
 62
     0
100
AcDbLine
 10
97.26523899999984
 20
27.73905000000013
 30
0.0
 11
97.41404999999986
 21
27.59023900000011
 31
0.0
  0
LINE
  5
4CB5E
330
4CAF8
100
AcDbEntity
  8
0
 62
     0
100
AcDbLine
 10
97.25
 20
27.82499999999982
 30
0.0
 11
97.5
 21
28.07499999999982
 31
0.0
  0
LINE
  5
4CB5F
330
4CAF8
100
AcDbEntity
  8
0
 62
     0
100
AcDbLine
 10
97.25799400000005
 20
27.76228399999991
 30
0.0
 11
97.56271599999991
 21
28.06700600000022
 31
0.0
  0
LINE
  5
4CB60
330
4CAF8
100
AcDbEntity
  8
0
 62
     0
100
AcDbLine
 10
97.27747700000009
 20
27.71105500000021
 30
0.0
 11
97.61394500000006
 21
28.04752300000018
 31
0.0
  0
LINE
  5
4CB61
330
4CAF8
100
AcDbEntity
  8
0
 62
     0
100
AcDbLine
 10
97.30530599999997
 20
27.66817399999991
 30
0.0
 11
97.65682599999991
 21
28.01969400000007
 31
0.0
  0
LINE
  5
4CB62
330
4CAF8
100
AcDbEntity
  8
0
 62
     0
100
AcDbLine
 10
97.34040899999991
 20
27.63256600000022
 30
0.0
 11
97.69243400000005
 21
27.98459099999991
 31
0.0
  0
LINE
  5
4CB63
330
4CAF8
100
AcDbEntity
  8
0
 62
     0
100
AcDbLine
 10
97.38275299999987
 20
27.60419899999988
 30
0.0
 11
97.72080099999994
 21
27.94224699999995
 31
0.0
  0
LINE
  5
4CB64
330
4CAF8
100
AcDbEntity
  8
0
 62
     0
100
AcDbLine
 10
97.4333200000001
 20
27.58405600000015
 30
0.0
 11
97.74094400000013
 21
27.89168000000018
 31
0.0
  0
LINE
  5
4CB65
330
4CAF8
100
AcDbEntity
  8
0
 62
     0
100
AcDbLine
 10
97.49502400000006
 20
27.57504999999992
 30
0.0
 11
97.7499499999999
 21
27.82997599999999
 31
0.0
  0
LINE
  5
4CB66
330
4CAF8
100
AcDbEntity
  8
0
 62
     0
100
AcDbLine
 10
97.57824600000004
 20
27.58755999999994
 30
0.0
 11
97.73743999999988
 21
27.74675399999978
 31
0.0
  0
LINE
  5
4CB67
330
4CAF8
100
AcDbEntity
  8
0
 62
     0
100
AcDbLine
 10
97.26523899999984
 20
27.91094999999996
 30
0.0
 11
97.41404999999986
 21
28.05976099999998
 31
0.0
  0
LINE
  5
4CB68
330
4CAF8
100
AcDbEntity
  8
0
 62
     0
100
AcDbLine
 10
97.25
 20
21.82499999999982
 30
0.0
 11
97.5
 21
21.57499999999982
 31
0.0
  0
LINE
  5
4CB69
330
4CAF8
100
AcDbEntity
  8
0
 62
     0
100
AcDbLine
 10
97.25799400000005
 20
21.88771600000018
 30
0.0
 11
97.56271599999991
 21
21.58299399999987
 31
0.0
  0
LINE
  5
4CB6A
330
4CAF8
100
AcDbEntity
  8
0
 62
     0
100
AcDbLine
 10
97.27747700000009
 20
21.93894499999988
 30
0.0
 11
97.61394500000006
 21
21.60247699999991
 31
0.0
  0
LINE
  5
4CB6B
330
4CAF8
100
AcDbEntity
  8
0
 62
     0
100
AcDbLine
 10
97.30530599999997
 20
21.98182600000018
 30
0.0
 11
97.65682599999991
 21
21.63030600000002
 31
0.0
  0
LINE
  5
4CB6C
330
4CAF8
100
AcDbEntity
  8
0
 62
     0
100
AcDbLine
 10
97.34040899999991
 20
22.01743399999987
 30
0.0
 11
97.69243400000005
 21
21.66540900000018
 31
0.0
  0
LINE
  5
4CB6D
330
4CAF8
100
AcDbEntity
  8
0
 62
     0
100
AcDbLine
 10
97.38275299999987
 20
22.04580100000021
 30
0.0
 11
97.72080099999994
 21
21.70775300000014
 31
0.0
  0
LINE
  5
4CB6E
330
4CAF8
100
AcDbEntity
  8
0
 62
     0
100
AcDbLine
 10
97.4333200000001
 20
22.06594399999994
 30
0.0
 11
97.74094400000013
 21
21.75831999999991
 31
0.0
  0
LINE
  5
4CB6F
330
4CAF8
100
AcDbEntity
  8
0
 62
     0
100
AcDbLine
 10
97.49502400000006
 20
22.07495000000017
 30
0.0
 11
97.7499499999999
 21
21.8200240000001
 31
0.0
  0
LINE
  5
4CB70
330
4CAF8
100
AcDbEntity
  8
0
 62
     0
100
AcDbLine
 10
97.57824600000004
 20
22.06244000000015
 30
0.0
 11
97.73743999999988
 21
21.90324599999985
 31
0.0
  0
LINE
  5
4CB71
330
4CAF8
100
AcDbEntity
  8
0
 62
     0
100
AcDbLine
 10
97.26523899999984
 20
21.73905000000013
 30
0.0
 11
97.41404999999986
 21
21.59023900000011
 31
0.0
  0
LINE
  5
4CB72
330
4CAF8
100
AcDbEntity
  8
0
 62
     0
100
AcDbLine
 10
97.25
 20
21.82499999999982
 30
0.0
 11
97.5
 21
22.07499999999982
 31
0.0
  0
LINE
  5
4CB73
330
4CAF8
100
AcDbEntity
  8
0
 62
     0
100
AcDbLine
 10
97.25799400000005
 20
21.76228399999991
 30
0.0
 11
97.56271599999991
 21
22.06700600000022
 31
0.0
  0
LINE
  5
4CB74
330
4CAF8
100
AcDbEntity
  8
0
 62
     0
100
AcDbLine
 10
97.27747700000009
 20
21.71105500000021
 30
0.0
 11
97.61394500000006
 21
22.04752300000018
 31
0.0
  0
LINE
  5
4CB75
330
4CAF8
100
AcDbEntity
  8
0
 62
     0
100
AcDbLine
 10
97.30530599999997
 20
21.66817399999991
 30
0.0
 11
97.65682599999991
 21
22.01969400000007
 31
0.0
  0
LINE
  5
4CB76
330
4CAF8
100
AcDbEntity
  8
0
 62
     0
100
AcDbLine
 10
97.34040899999991
 20
21.63256600000022
 30
0.0
 11
97.69243400000005
 21
21.98459099999991
 31
0.0
  0
LINE
  5
4CB77
330
4CAF8
100
AcDbEntity
  8
0
 62
     0
100
AcDbLine
 10
97.38275299999987
 20
21.60419899999988
 30
0.0
 11
97.72080099999994
 21
21.94224699999995
 31
0.0
  0
LINE
  5
4CB78
330
4CAF8
100
AcDbEntity
  8
0
 62
     0
100
AcDbLine
 10
97.4333200000001
 20
21.58405600000015
 30
0.0
 11
97.74094400000013
 21
21.89168000000018
 31
0.0
  0
LINE
  5
4CB79
330
4CAF8
100
AcDbEntity
  8
0
 62
     0
100
AcDbLine
 10
97.49502400000006
 20
21.57504999999992
 30
0.0
 11
97.7499499999999
 21
21.82997599999999
 31
0.0
  0
LINE
  5
4CB7A
330
4CAF8
100
AcDbEntity
  8
0
 62
     0
100
AcDbLine
 10
97.57824600000004
 20
21.58755999999994
 30
0.0
 11
97.73743999999988
 21
21.74675399999978
 31
0.0
  0
LINE
  5
4CB7B
330
4CAF8
100
AcDbEntity
  8
0
 62
     0
100
AcDbLine
 10
97.26523899999984
 20
21.91094999999996
 30
0.0
 11
97.41404999999986
 21
22.05976099999998
 31
0.0
  0
LINE
  5
4CB7C
330
4CAF8
100
AcDbEntity
  8
0
 62
     0
100
AcDbLine
 10
106.25
 20
15.82499999999982
 30
0.0
 11
106.5
 21
15.57499999999982
 31
0.0
  0
LINE
  5
4CB7D
330
4CAF8
100
AcDbEntity
  8
0
 62
     0
100
AcDbLine
 10
106.2579940000001
 20
15.88771600000018
 30
0.0
 11
106.5627159999999
 21
15.58299399999987
 31
0.0
  0
LINE
  5
4CB7E
330
4CAF8
100
AcDbEntity
  8
0
 62
     0
100
AcDbLine
 10
106.2774770000001
 20
15.93894499999988
 30
0.0
 11
106.6139450000001
 21
15.60247699999991
 31
0.0
  0
LINE
  5
4CB7F
330
4CAF8
100
AcDbEntity
  8
0
 62
     0
100
AcDbLine
 10
106.305306
 20
15.98182600000018
 30
0.0
 11
106.6568259999999
 21
15.63030600000002
 31
0.0
  0
LINE
  5
4CB80
330
4CAF8
100
AcDbEntity
  8
0
 62
     0
100
AcDbLine
 10
106.3404089999999
 20
16.01743399999987
 30
0.0
 11
106.692434
 21
15.66540900000018
 31
0.0
  0
LINE
  5
4CB81
330
4CAF8
100
AcDbEntity
  8
0
 62
     0
100
AcDbLine
 10
106.3827529999999
 20
16.04580100000021
 30
0.0
 11
106.7208009999999
 21
15.70775300000014
 31
0.0
  0
LINE
  5
4CB82
330
4CAF8
100
AcDbEntity
  8
0
 62
     0
100
AcDbLine
 10
106.4333200000001
 20
16.06594399999994
 30
0.0
 11
106.7409440000001
 21
15.75831999999991
 31
0.0
  0
LINE
  5
4CB83
330
4CAF8
100
AcDbEntity
  8
0
 62
     0
100
AcDbLine
 10
106.4950240000001
 20
16.07495000000017
 30
0.0
 11
106.7499499999999
 21
15.8200240000001
 31
0.0
  0
LINE
  5
4CB84
330
4CAF8
100
AcDbEntity
  8
0
 62
     0
100
AcDbLine
 10
106.578246
 20
16.06244000000015
 30
0.0
 11
106.7374399999999
 21
15.90324599999985
 31
0.0
  0
LINE
  5
4CB85
330
4CAF8
100
AcDbEntity
  8
0
 62
     0
100
AcDbLine
 10
106.2652390000001
 20
15.73905000000013
 30
0.0
 11
106.4140499999999
 21
15.59023900000011
 31
0.0
  0
LINE
  5
4CB86
330
4CAF8
100
AcDbEntity
  8
0
 62
     0
100
AcDbLine
 10
106.25
 20
15.82499999999982
 30
0.0
 11
106.5
 21
16.07499999999982
 31
0.0
  0
LINE
  5
4CB87
330
4CAF8
100
AcDbEntity
  8
0
 62
     0
100
AcDbLine
 10
106.2579940000001
 20
15.76228399999991
 30
0.0
 11
106.5627159999999
 21
16.06700600000022
 31
0.0
  0
LINE
  5
4CB88
330
4CAF8
100
AcDbEntity
  8
0
 62
     0
100
AcDbLine
 10
106.2774770000001
 20
15.71105500000021
 30
0.0
 11
106.6139450000001
 21
16.04752300000018
 31
0.0
  0
LINE
  5
4CB89
330
4CAF8
100
AcDbEntity
  8
0
 62
     0
100
AcDbLine
 10
106.305306
 20
15.66817399999991
 30
0.0
 11
106.6568259999999
 21
16.01969400000007
 31
0.0
  0
LINE
  5
4CB8A
330
4CAF8
100
AcDbEntity
  8
0
 62
     0
100
AcDbLine
 10
106.3404089999999
 20
15.63256600000022
 30
0.0
 11
106.692434
 21
15.98459099999991
 31
0.0
  0
LINE
  5
4CB8B
330
4CAF8
100
AcDbEntity
  8
0
 62
     0
100
AcDbLine
 10
106.3827529999999
 20
15.60419899999988
 30
0.0
 11
106.7208009999999
 21
15.94224699999995
 31
0.0
  0
LINE
  5
4CB8C
330
4CAF8
100
AcDbEntity
  8
0
 62
     0
100
AcDbLine
 10
106.4333200000001
 20
15.58405600000015
 30
0.0
 11
106.7409440000001
 21
15.89168000000018
 31
0.0
  0
LINE
  5
4CB8D
330
4CAF8
100
AcDbEntity
  8
0
 62
     0
100
AcDbLine
 10
106.4950240000001
 20
15.57504999999992
 30
0.0
 11
106.7499499999999
 21
15.82997599999999
 31
0.0
  0
LINE
  5
4CB8E
330
4CAF8
100
AcDbEntity
  8
0
 62
     0
100
AcDbLine
 10
106.578246
 20
15.58755999999994
 30
0.0
 11
106.7374399999999
 21
15.74675399999978
 31
0.0
  0
LINE
  5
4CB8F
330
4CAF8
100
AcDbEntity
  8
0
 62
     0
100
AcDbLine
 10
106.2652390000001
 20
15.91094999999996
 30
0.0
 11
106.4140499999999
 21
16.05976099999998
 31
0.0
  0
LINE
  5
4CB90
330
4CAF8
100
AcDbEntity
  8
0
 62
     0
100
AcDbLine
 10
97.25
 20
15.82499999999982
 30
0.0
 11
97.5
 21
15.57499999999982
 31
0.0
  0
LINE
  5
4CB91
330
4CAF8
100
AcDbEntity
  8
0
 62
     0
100
AcDbLine
 10
97.25799400000005
 20
15.88771600000018
 30
0.0
 11
97.56271599999991
 21
15.58299399999987
 31
0.0
  0
LINE
  5
4CB92
330
4CAF8
100
AcDbEntity
  8
0
 62
     0
100
AcDbLine
 10
97.27747700000009
 20
15.93894499999988
 30
0.0
 11
97.61394500000006
 21
15.60247699999991
 31
0.0
  0
LINE
  5
4CB93
330
4CAF8
100
AcDbEntity
  8
0
 62
     0
100
AcDbLine
 10
97.30530599999997
 20
15.98182600000018
 30
0.0
 11
97.65682599999991
 21
15.63030600000002
 31
0.0
  0
LINE
  5
4CB94
330
4CAF8
100
AcDbEntity
  8
0
 62
     0
100
AcDbLine
 10
97.34040899999991
 20
16.01743399999987
 30
0.0
 11
97.69243400000005
 21
15.66540900000018
 31
0.0
  0
LINE
  5
4CB95
330
4CAF8
100
AcDbEntity
  8
0
 62
     0
100
AcDbLine
 10
97.38275299999987
 20
16.04580100000021
 30
0.0
 11
97.72080099999994
 21
15.70775300000014
 31
0.0
  0
LINE
  5
4CB96
330
4CAF8
100
AcDbEntity
  8
0
 62
     0
100
AcDbLine
 10
97.4333200000001
 20
16.06594399999994
 30
0.0
 11
97.74094400000013
 21
15.75831999999991
 31
0.0
  0
LINE
  5
4CB97
330
4CAF8
100
AcDbEntity
  8
0
 62
     0
100
AcDbLine
 10
97.49502400000006
 20
16.07495000000017
 30
0.0
 11
97.7499499999999
 21
15.8200240000001
 31
0.0
  0
LINE
  5
4CB98
330
4CAF8
100
AcDbEntity
  8
0
 62
     0
100
AcDbLine
 10
97.57824600000004
 20
16.06244000000015
 30
0.0
 11
97.73743999999988
 21
15.90324599999985
 31
0.0
  0
LINE
  5
4CB99
330
4CAF8
100
AcDbEntity
  8
0
 62
     0
100
AcDbLine
 10
97.26523899999984
 20
15.73905000000013
 30
0.0
 11
97.41404999999986
 21
15.59023900000011
 31
0.0
  0
LINE
  5
4CB9A
330
4CAF8
100
AcDbEntity
  8
0
 62
     0
100
AcDbLine
 10
97.25
 20
15.82499999999982
 30
0.0
 11
97.5
 21
16.07499999999982
 31
0.0
  0
LINE
  5
4CB9B
330
4CAF8
100
AcDbEntity
  8
0
 62
     0
100
AcDbLine
 10
97.25799400000005
 20
15.76228399999991
 30
0.0
 11
97.56271599999991
 21
16.06700600000022
 31
0.0
  0
LINE
  5
4CB9C
330
4CAF8
100
AcDbEntity
  8
0
 62
     0
100
AcDbLine
 10
97.27747700000009
 20
15.71105500000021
 30
0.0
 11
97.61394500000006
 21
16.04752300000018
 31
0.0
  0
LINE
  5
4CB9D
330
4CAF8
100
AcDbEntity
  8
0
 62
     0
100
AcDbLine
 10
97.30530599999997
 20
15.66817399999991
 30
0.0
 11
97.65682599999991
 21
16.01969400000007
 31
0.0
  0
LINE
  5
4CB9E
330
4CAF8
100
AcDbEntity
  8
0
 62
     0
100
AcDbLine
 10
97.34040899999991
 20
15.63256600000022
 30
0.0
 11
97.69243400000005
 21
15.98459099999991
 31
0.0
  0
LINE
  5
4CB9F
330
4CAF8
100
AcDbEntity
  8
0
 62
     0
100
AcDbLine
 10
97.38275299999987
 20
15.60419899999988
 30
0.0
 11
97.72080099999994
 21
15.94224699999995
 31
0.0
  0
LINE
  5
4CBA0
330
4CAF8
100
AcDbEntity
  8
0
 62
     0
100
AcDbLine
 10
97.4333200000001
 20
15.58405600000015
 30
0.0
 11
97.74094400000013
 21
15.89168000000018
 31
0.0
  0
LINE
  5
4CBA1
330
4CAF8
100
AcDbEntity
  8
0
 62
     0
100
AcDbLine
 10
97.49502400000006
 20
15.57504999999992
 30
0.0
 11
97.7499499999999
 21
15.82997599999999
 31
0.0
  0
LINE
  5
4CBA2
330
4CAF8
100
AcDbEntity
  8
0
 62
     0
100
AcDbLine
 10
97.57824600000004
 20
15.58755999999994
 30
0.0
 11
97.73743999999988
 21
15.74675399999978
 31
0.0
  0
LINE
  5
4CBA3
330
4CAF8
100
AcDbEntity
  8
0
 62
     0
100
AcDbLine
 10
97.26523899999984
 20
15.91094999999996
 30
0.0
 11
97.41404999999986
 21
16.05976099999998
 31
0.0
  0
LINE
  5
4CBA4
330
4CAF8
100
AcDbEntity
  8
0
 62
     0
100
AcDbLine
 10
106.25
 20
10.40000000000009
 30
0.0
 11
106.5
 21
10.15000000000009
 31
0.0
  0
LINE
  5
4CBA5
330
4CAF8
100
AcDbEntity
  8
0
 62
     0
100
AcDbLine
 10
106.2579940000001
 20
10.462716
 30
0.0
 11
106.5627159999999
 21
10.15799400000014
 31
0.0
  0
LINE
  5
4CBA6
330
4CAF8
100
AcDbEntity
  8
0
 62
     0
100
AcDbLine
 10
106.2774770000001
 20
10.51394500000015
 30
0.0
 11
106.6139450000001
 21
10.17747700000018
 31
0.0
  0
LINE
  5
4CBA7
330
4CAF8
100
AcDbEntity
  8
0
 62
     0
100
AcDbLine
 10
106.305306
 20
10.556826
 30
0.0
 11
106.6568259999999
 21
10.20530599999984
 31
0.0
  0
LINE
  5
4CBA8
330
4CAF8
100
AcDbEntity
  8
0
 62
     0
100
AcDbLine
 10
106.3404089999999
 20
10.59243400000014
 30
0.0
 11
106.692434
 21
10.240409
 31
0.0
  0
LINE
  5
4CBA9
330
4CAF8
100
AcDbEntity
  8
0
 62
     0
100
AcDbLine
 10
106.3827529999999
 20
10.62080100000003
 30
0.0
 11
106.7208009999999
 21
10.28275299999996
 31
0.0
  0
LINE
  5
4CBAA
330
4CAF8
100
AcDbEntity
  8
0
 62
     0
100
AcDbLine
 10
106.4333200000001
 20
10.64094399999976
 30
0.0
 11
106.7409440000001
 21
10.33332000000019
 31
0.0
  0
LINE
  5
4CBAB
330
4CAF8
100
AcDbEntity
  8
0
 62
     0
100
AcDbLine
 10
106.4950240000001
 20
10.64994999999999
 30
0.0
 11
106.7499499999999
 21
10.39502399999992
 31
0.0
  0
LINE
  5
4CBAC
330
4CAF8
100
AcDbEntity
  8
0
 62
     0
100
AcDbLine
 10
106.578246
 20
10.63743999999997
 30
0.0
 11
106.7374399999999
 21
10.47824600000013
 31
0.0
  0
LINE
  5
4CBAD
330
4CAF8
100
AcDbEntity
  8
0
 62
     0
100
AcDbLine
 10
106.2652390000001
 20
10.31404999999995
 30
0.0
 11
106.4140499999999
 21
10.16523899999993
 31
0.0
  0
LINE
  5
4CBAE
330
4CAF8
100
AcDbEntity
  8
0
 62
     0
100
AcDbLine
 10
106.25
 20
10.40000000000009
 30
0.0
 11
106.5
 21
10.65000000000009
 31
0.0
  0
LINE
  5
4CBAF
330
4CAF8
100
AcDbEntity
  8
0
 62
     0
100
AcDbLine
 10
106.2579940000001
 20
10.33728400000018
 30
0.0
 11
106.5627159999999
 21
10.64200600000004
 31
0.0
  0
LINE
  5
4CBB0
330
4CAF8
100
AcDbEntity
  8
0
 62
     0
100
AcDbLine
 10
106.2774770000001
 20
10.28605500000003
 30
0.0
 11
106.6139450000001
 21
10.622523
 31
0.0
  0
LINE
  5
4CBB1
330
4CAF8
100
AcDbEntity
  8
0
 62
     0
100
AcDbLine
 10
106.305306
 20
10.24317400000018
 30
0.0
 11
106.6568259999999
 21
10.59469399999989
 31
0.0
  0
LINE
  5
4CBB2
330
4CAF8
100
AcDbEntity
  8
0
 62
     0
100
AcDbLine
 10
106.3404089999999
 20
10.20756600000004
 30
0.0
 11
106.692434
 21
10.55959100000018
 31
0.0
  0
LINE
  5
4CBB3
330
4CAF8
100
AcDbEntity
  8
0
 62
     0
100
AcDbLine
 10
106.3827529999999
 20
10.17919900000015
 30
0.0
 11
106.7208009999999
 21
10.51724699999977
 31
0.0
  0
LINE
  5
4CBB4
330
4CAF8
100
AcDbEntity
  8
0
 62
     0
100
AcDbLine
 10
106.4333200000001
 20
10.15905599999996
 30
0.0
 11
106.7409440000001
 21
10.46668
 31
0.0
  0
LINE
  5
4CBB5
330
4CAF8
100
AcDbEntity
  8
0
 62
     0
100
AcDbLine
 10
106.4950240000001
 20
10.15005000000019
 30
0.0
 11
106.7499499999999
 21
10.40497599999981
 31
0.0
  0
LINE
  5
4CBB6
330
4CAF8
100
AcDbEntity
  8
0
 62
     0
100
AcDbLine
 10
106.578246
 20
10.16256000000021
 30
0.0
 11
106.7374399999999
 21
10.32175400000006
 31
0.0
  0
LINE
  5
4CBB7
330
4CAF8
100
AcDbEntity
  8
0
 62
     0
100
AcDbLine
 10
106.2652390000001
 20
10.48595000000023
 30
0.0
 11
106.4140499999999
 21
10.6347609999998
 31
0.0
  0
LINE
  5
4CBB8
330
4CAF8
100
AcDbEntity
  8
0
 62
     0
100
AcDbLine
 10
97.25
 20
10.40000000000009
 30
0.0
 11
97.5
 21
10.15000000000009
 31
0.0
  0
LINE
  5
4CBB9
330
4CAF8
100
AcDbEntity
  8
0
 62
     0
100
AcDbLine
 10
97.25799400000005
 20
10.462716
 30
0.0
 11
97.56271599999991
 21
10.15799400000014
 31
0.0
  0
LINE
  5
4CBBA
330
4CAF8
100
AcDbEntity
  8
0
 62
     0
100
AcDbLine
 10
97.27747700000009
 20
10.51394500000015
 30
0.0
 11
97.61394500000006
 21
10.17747700000018
 31
0.0
  0
LINE
  5
4CBBB
330
4CAF8
100
AcDbEntity
  8
0
 62
     0
100
AcDbLine
 10
97.30530599999997
 20
10.556826
 30
0.0
 11
97.65682599999991
 21
10.20530599999984
 31
0.0
  0
LINE
  5
4CBBC
330
4CAF8
100
AcDbEntity
  8
0
 62
     0
100
AcDbLine
 10
97.34040899999991
 20
10.59243400000014
 30
0.0
 11
97.69243400000005
 21
10.240409
 31
0.0
  0
LINE
  5
4CBBD
330
4CAF8
100
AcDbEntity
  8
0
 62
     0
100
AcDbLine
 10
97.38275299999987
 20
10.62080100000003
 30
0.0
 11
97.72080099999994
 21
10.28275299999996
 31
0.0
  0
LINE
  5
4CBBE
330
4CAF8
100
AcDbEntity
  8
0
 62
     0
100
AcDbLine
 10
97.4333200000001
 20
10.64094399999976
 30
0.0
 11
97.74094400000013
 21
10.33332000000019
 31
0.0
  0
LINE
  5
4CBBF
330
4CAF8
100
AcDbEntity
  8
0
 62
     0
100
AcDbLine
 10
97.49502400000006
 20
10.64994999999999
 30
0.0
 11
97.7499499999999
 21
10.39502399999992
 31
0.0
  0
LINE
  5
4CBC0
330
4CAF8
100
AcDbEntity
  8
0
 62
     0
100
AcDbLine
 10
97.57824600000004
 20
10.63743999999997
 30
0.0
 11
97.73743999999988
 21
10.47824600000013
 31
0.0
  0
LINE
  5
4CBC1
330
4CAF8
100
AcDbEntity
  8
0
 62
     0
100
AcDbLine
 10
97.26523899999984
 20
10.31404999999995
 30
0.0
 11
97.41404999999986
 21
10.16523899999993
 31
0.0
  0
LINE
  5
4CBC2
330
4CAF8
100
AcDbEntity
  8
0
 62
     0
100
AcDbLine
 10
97.25
 20
10.40000000000009
 30
0.0
 11
97.5
 21
10.65000000000009
 31
0.0
  0
LINE
  5
4CBC3
330
4CAF8
100
AcDbEntity
  8
0
 62
     0
100
AcDbLine
 10
97.25799400000005
 20
10.33728400000018
 30
0.0
 11
97.56271599999991
 21
10.64200600000004
 31
0.0
  0
LINE
  5
4CBC4
330
4CAF8
100
AcDbEntity
  8
0
 62
     0
100
AcDbLine
 10
97.27747700000009
 20
10.28605500000003
 30
0.0
 11
97.61394500000006
 21
10.622523
 31
0.0
  0
LINE
  5
4CBC5
330
4CAF8
100
AcDbEntity
  8
0
 62
     0
100
AcDbLine
 10
97.30530599999997
 20
10.24317400000018
 30
0.0
 11
97.65682599999991
 21
10.59469399999989
 31
0.0
  0
LINE
  5
4CBC6
330
4CAF8
100
AcDbEntity
  8
0
 62
     0
100
AcDbLine
 10
97.34040899999991
 20
10.20756600000004
 30
0.0
 11
97.69243400000005
 21
10.55959100000018
 31
0.0
  0
LINE
  5
4CBC7
330
4CAF8
100
AcDbEntity
  8
0
 62
     0
100
AcDbLine
 10
97.38275299999987
 20
10.17919900000015
 30
0.0
 11
97.72080099999994
 21
10.51724699999977
 31
0.0
  0
LINE
  5
4CBC8
330
4CAF8
100
AcDbEntity
  8
0
 62
     0
100
AcDbLine
 10
97.4333200000001
 20
10.15905599999996
 30
0.0
 11
97.74094400000013
 21
10.46668
 31
0.0
  0
LINE
  5
4CBC9
330
4CAF8
100
AcDbEntity
  8
0
 62
     0
100
AcDbLine
 10
97.49502400000006
 20
10.15005000000019
 30
0.0
 11
97.7499499999999
 21
10.40497599999981
 31
0.0
  0
LINE
  5
4CBCA
330
4CAF8
100
AcDbEntity
  8
0
 62
     0
100
AcDbLine
 10
97.57824600000004
 20
10.16256000000021
 30
0.0
 11
97.73743999999988
 21
10.32175400000006
 31
0.0
  0
LINE
  5
4CBCB
330
4CAF8
100
AcDbEntity
  8
0
 62
     0
100
AcDbLine
 10
97.26523899999984
 20
10.48595000000023
 30
0.0
 11
97.41404999999986
 21
10.6347609999998
 31
0.0
  0
LINE
  5
4CBCC
330
4CAF8
100
AcDbEntity
  8
0
 62
     0
100
AcDbLine
 10
174.4749999999999
 20
33.0
 30
0.0
 11
174.4749999999999
 21
9.0
 31
0.0
  0
LINE
  5
4CBCD
330
4CAF8
100
AcDbEntity
  8
0
 62
     0
100
AcDbLine
 10
174.5250000000001
 20
33.0
 30
0.0
 11
174.5250000000001
 21
9.0
 31
0.0
  0
LINE
  5
4CBCE
330
4CAF8
100
AcDbEntity
  8
0
 62
     0
100
AcDbLine
 10
214.1500001919297
 20
34.59999999999991
 30
0.0
 11
214.7500001919296
 21
34.0
 31
0.0
  0
LINE
  5
4CBCF
330
4CAF8
100
AcDbEntity
  8
0
 62
     0
100
AcDbLine
 10
214.1537481919295
 20
34.66696200000024
 30
0.0
 11
214.8169621919295
 21
34.00374800000009
 31
0.0
  0
LINE
  5
4CBD0
330
4CAF8
100
AcDbEntity
  8
0
 62
     0
100
AcDbLine
 10
214.1637421919295
 20
34.72767900000008
 30
0.0
 11
214.8776791919295
 21
34.01374200000009
 31
0.0
  0
LINE
  5
4CBD1
330
4CAF8
100
AcDbEntity
  8
0
 62
     0
100
AcDbLine
 10
214.1787211919296
 20
34.78341099999989
 30
0.0
 11
214.9334111919296
 21
34.02872100000013
 31
0.0
  0
LINE
  5
4CBD2
330
4CAF8
100
AcDbEntity
  8
0
 62
     0
100
AcDbLine
 10
214.1979081919297
 20
34.83493499999986
 30
0.0
 11
214.9849351919295
 21
34.04790800000001
 31
0.0
  0
LINE
  5
4CBD3
330
4CAF8
100
AcDbEntity
  8
0
 62
     0
100
AcDbLine
 10
214.2208011919295
 20
34.88275199999998
 30
0.0
 11
215.0327521919297
 21
34.07080099999985
 31
0.0
  0
LINE
  5
4CBD4
330
4CAF8
100
AcDbEntity
  8
0
 62
     0
100
AcDbLine
 10
214.2470671919296
 20
34.92719699999998
 30
0.0
 11
215.0771971919297
 21
34.09706700000015
 31
0.0
  0
LINE
  5
4CBD5
330
4CAF8
100
AcDbEntity
  8
0
 62
     0
100
AcDbLine
 10
214.2764861919296
 20
34.96848899999986
 30
0.0
 11
215.1184891919295
 21
34.12648600000011
 31
0.0
  0
LINE
  5
4CBD6
330
4CAF8
100
AcDbEntity
  8
0
 62
     0
100
AcDbLine
 10
214.3089261919297
 20
35.00676000000021
 30
0.0
 11
215.1567601919294
 21
34.15892600000006
 31
0.0
  0
LINE
  5
4CBD7
330
4CAF8
100
AcDbEntity
  8
0
 62
     0
100
AcDbLine
 10
214.3443241919297
 20
35.04207200000019
 30
0.0
 11
215.1920721919296
 21
34.19432400000005
 31
0.0
  0
LINE
  5
4CBD8
330
4CAF8
100
AcDbEntity
  8
0
 62
     0
100
AcDbLine
 10
214.3826831919296
 20
35.07442399999991
 30
0.0
 11
215.2244241919296
 21
34.23268300000018
 31
0.0
  0
LINE
  5
4CBD9
330
4CAF8
100
AcDbEntity
  8
0
 62
     0
100
AcDbLine
 10
214.1547661919297
 20
34.52452300000004
 30
0.0
 11
214.6745231919297
 21
34.00476600000002
 31
0.0
  0
LINE
  5
4CBDA
330
4CAF8
100
AcDbEntity
  8
0
 62
     0
100
AcDbLine
 10
214.1729561919295
 20
34.43562299999985
 30
0.0
 11
214.5856231919295
 21
34.02295599999979
 31
0.0
  0
LINE
  5
4CBDB
330
4CAF8
100
AcDbEntity
  8
0
 62
     0
100
AcDbLine
 10
214.2210101919296
 20
34.31685800000014
 30
0.0
 11
214.4668581919296
 21
34.07101000000011
 31
0.0
  0
LINE
  5
4CBDC
330
4CAF8
100
AcDbEntity
  8
0
 62
     0
100
AcDbLine
 10
214.1500001919297
 20
34.59999999999991
 30
0.0
 11
214.7500001919296
 21
35.19999999999982
 31
0.0
  0
LINE
  5
4CBDD
330
4CAF8
100
AcDbEntity
  8
0
 62
     0
100
AcDbLine
 10
214.1537481919295
 20
34.53303800000003
 30
0.0
 11
214.8169621919295
 21
35.19625200000019
 31
0.0
  0
LINE
  5
4CBDE
330
4CAF8
100
AcDbEntity
  8
0
 62
     0
100
AcDbLine
 10
214.1637421919295
 20
34.47232100000019
 30
0.0
 11
214.8776791919295
 21
35.18625800000018
 31
0.0
  0
LINE
  5
4CBDF
330
4CAF8
100
AcDbEntity
  8
0
 62
     0
100
AcDbLine
 10
214.1787211919296
 20
34.41658899999993
 30
0.0
 11
214.9334111919296
 21
35.17127900000014
 31
0.0
  0
LINE
  5
4CBE0
330
4CAF8
100
AcDbEntity
  8
0
 62
     0
100
AcDbLine
 10
214.1979081919297
 20
34.36506499999996
 30
0.0
 11
214.9849351919295
 21
35.15209199999981
 31
0.0
  0
LINE
  5
4CBE1
330
4CAF8
100
AcDbEntity
  8
0
 62
     0
100
AcDbLine
 10
214.2208011919295
 20
34.31724799999984
 30
0.0
 11
215.0327521919297
 21
35.12919899999997
 31
0.0
  0
LINE
  5
4CBE2
330
4CAF8
100
AcDbEntity
  8
0
 62
     0
100
AcDbLine
 10
214.2470671919296
 20
34.27280299999984
 30
0.0
 11
215.0771971919297
 21
35.10293300000012
 31
0.0
  0
LINE
  5
4CBE3
330
4CAF8
100
AcDbEntity
  8
0
 62
     0
100
AcDbLine
 10
214.2764861919296
 20
34.23151099999995
 30
0.0
 11
215.1184891919295
 21
35.07351400000016
 31
0.0
  0
LINE
  5
4CBE4
330
4CAF8
100
AcDbEntity
  8
0
 62
     0
100
AcDbLine
 10
214.3089261919297
 20
34.19324000000006
 30
0.0
 11
215.1567601919294
 21
35.04107400000021
 31
0.0
  0
LINE
  5
4CBE5
330
4CAF8
100
AcDbEntity
  8
0
 62
     0
100
AcDbLine
 10
214.3443241919297
 20
34.15792800000008
 30
0.0
 11
215.1920721919296
 21
35.00567599999977
 31
0.0
  0
LINE
  5
4CBE6
330
4CAF8
100
AcDbEntity
  8
0
 62
     0
100
AcDbLine
 10
214.3826831919296
 20
34.12557599999991
 30
0.0
 11
215.2244241919296
 21
34.96731700000009
 31
0.0
  0
LINE
  5
4CBE7
330
4CAF8
100
AcDbEntity
  8
0
 62
     0
100
AcDbLine
 10
214.1547661919297
 20
34.67547699999977
 30
0.0
 11
214.6745231919297
 21
35.1952339999998
 31
0.0
  0
LINE
  5
4CBE8
330
4CAF8
100
AcDbEntity
  8
0
 62
     0
100
AcDbLine
 10
214.1729561919295
 20
34.76437699999997
 30
0.0
 11
214.5856231919295
 21
35.17704400000002
 31
0.0
  0
LINE
  5
4CBE9
330
4CAF8
100
AcDbEntity
  8
0
 62
     0
100
AcDbLine
 10
214.2210101919296
 20
34.88314200000013
 30
0.0
 11
214.4668581919296
 21
35.12899000000016
 31
0.0
  0
LINE
  5
4CBEA
330
4CAF8
100
AcDbEntity
  8
0
 62
     0
100
AcDbLine
 10
214.4240651919297
 20
35.10375199999999
 30
0.0
 11
215.2537521919297
 21
34.27406500000006
 31
0.0
  0
LINE
  5
4CBEB
330
4CAF8
100
AcDbEntity
  8
0
 62
     0
100
AcDbLine
 10
214.4686061919295
 20
35.12992200000008
 30
0.0
 11
215.2799221919298
 21
34.31860599999982
 31
0.0
  0
LINE
  5
4CBEC
330
4CAF8
100
AcDbEntity
  8
0
 62
     0
100
AcDbLine
 10
214.5165271919296
 20
35.15271200000007
 30
0.0
 11
215.3027121919297
 21
34.36652700000013
 31
0.0
  0
LINE
  5
4CBED
330
4CAF8
100
AcDbEntity
  8
0
 62
     0
100
AcDbLine
 10
214.5681661919296
 20
35.17178400000012
 30
0.0
 11
215.3217841919296
 21
34.41816599999993
 31
0.0
  0
LINE
  5
4CBEE
330
4CAF8
100
AcDbEntity
  8
0
 62
     0
100
AcDbLine
 10
214.6240321919298
 20
35.18662799999993
 30
0.0
 11
215.3366281919296
 21
34.47403200000008
 31
0.0
  0
LINE
  5
4CBEF
330
4CAF8
100
AcDbEntity
  8
0
 62
     0
100
AcDbLine
 10
214.6849121919298
 20
35.19645899999978
 30
0.0
 11
215.3464591919295
 21
34.53491200000008
 31
0.0
  0
LINE
  5
4CBF0
330
4CAF8
100
AcDbEntity
  8
0
 62
     0
100
AcDbLine
 10
214.7520851919297
 20
35.19999599999983
 30
0.0
 11
215.3499961919295
 21
34.60208499999999
 31
0.0
  0
LINE
  5
4CBF1
330
4CAF8
100
AcDbEntity
  8
0
 62
     0
100
AcDbLine
 10
214.8278661919297
 20
35.19492600000012
 30
0.0
 11
215.3449261919296
 21
34.67786599999999
 31
0.0
  0
LINE
  5
4CBF2
330
4CAF8
100
AcDbEntity
  8
0
 62
     0
100
AcDbLine
 10
214.9172991919295
 20
35.17620399999987
 30
0.0
 11
215.3262041919295
 21
34.76729900000009
 31
0.0
  0
LINE
  5
4CBF3
330
4CAF8
100
AcDbEntity
  8
0
 62
     0
100
AcDbLine
 10
215.0376741919297
 20
35.12653899999987
 30
0.0
 11
215.2765391919295
 21
34.88767400000006
 31
0.0
  0
LINE
  5
4CBF4
330
4CAF8
100
AcDbEntity
  8
0
 62
     0
100
AcDbLine
 10
214.4240651919297
 20
34.09624799999983
 30
0.0
 11
215.2537521919297
 21
34.92593500000021
 31
0.0
  0
LINE
  5
4CBF5
330
4CAF8
100
AcDbEntity
  8
0
 62
     0
100
AcDbLine
 10
214.4686061919295
 20
34.07007800000019
 30
0.0
 11
215.2799221919298
 21
34.881394
 31
0.0
  0
LINE
  5
4CBF6
330
4CAF8
100
AcDbEntity
  8
0
 62
     0
100
AcDbLine
 10
214.5165271919296
 20
34.04728800000021
 30
0.0
 11
215.3027121919297
 21
34.83347300000014
 31
0.0
  0
LINE
  5
4CBF7
330
4CAF8
100
AcDbEntity
  8
0
 62
     0
100
AcDbLine
 10
214.5681661919296
 20
34.02821600000016
 30
0.0
 11
215.3217841919296
 21
34.78183399999989
 31
0.0
  0
LINE
  5
4CBF8
330
4CAF8
100
AcDbEntity
  8
0
 62
     0
100
AcDbLine
 10
214.6240321919298
 20
34.01337199999989
 30
0.0
 11
215.3366281919296
 21
34.72596800000019
 31
0.0
  0
LINE
  5
4CBF9
330
4CAF8
100
AcDbEntity
  8
0
 62
     0
100
AcDbLine
 10
214.6849121919298
 20
34.00354100000004
 30
0.0
 11
215.3464591919295
 21
34.6650880000002
 31
0.0
  0
LINE
  5
4CBFA
330
4CAF8
100
AcDbEntity
  8
0
 62
     0
100
AcDbLine
 10
214.7520851919297
 20
34.00000399999999
 30
0.0
 11
215.3499961919295
 21
34.59791499999983
 31
0.0
  0
LINE
  5
4CBFB
330
4CAF8
100
AcDbEntity
  8
0
 62
     0
100
AcDbLine
 10
214.8278661919297
 20
34.00507400000015
 30
0.0
 11
215.3449261919296
 21
34.52213399999982
 31
0.0
  0
LINE
  5
4CBFC
330
4CAF8
100
AcDbEntity
  8
0
 62
     0
100
AcDbLine
 10
214.9172991919295
 20
34.02379599999995
 30
0.0
 11
215.3262041919295
 21
34.43270100000018
 31
0.0
  0
LINE
  5
4CBFD
330
4CAF8
100
AcDbEntity
  8
0
 62
     0
100
AcDbLine
 10
215.0376741919297
 20
34.07346099999995
 30
0.0
 11
215.2765391919295
 21
34.31232600000021
 31
0.0
  0
LINE
  5
4CBFE
330
4CAF8
100
AcDbEntity
  8
0
 62
     0
100
AcDbLine
 10
323.5
 20
16.97499999999991
 30
0.0
 11
393.5
 21
16.97499999999991
 31
0.0
  0
LINE
  5
4CBFF
330
4CAF8
100
AcDbEntity
  8
0
 62
     0
100
AcDbLine
 10
323.5
 20
17.02500000000009
 30
0.0
 11
393.5
 21
17.02500000000009
 31
0.0
  0
LINE
  5
4CC00
330
4CAF8
100
AcDbEntity
  8
0
 62
     0
100
AcDbLine
 10
323.5
 20
24.97499999999991
 30
0.0
 11
393.5
 21
24.97499999999991
 31
0.0
  0
LINE
  5
4CC01
330
4CAF8
100
AcDbEntity
  8
0
 62
     0
100
AcDbLine
 10
323.5
 20
25.02500000000009
 30
0.0
 11
393.5
 21
25.02500000000009
 31
0.0
  0
LINE
  5
4CC02
330
4CAF8
100
AcDbEntity
  8
0
 62
     0
100
AcDbLine
 10
246.5
 20
16.97499999999991
 30
0.0
 11
321.5
 21
16.97499999999991
 31
0.0
  0
LINE
  5
4CC03
330
4CAF8
100
AcDbEntity
  8
0
 62
     0
100
AcDbLine
 10
246.5
 20
24.97499999999991
 30
0.0
 11
321.5
 21
24.97499999999991
 31
0.0
  0
LINE
  5
4CC04
330
4CAF8
100
AcDbEntity
  8
0
 62
     0
100
AcDbLine
 10
246.5
 20
17.02500000000009
 30
0.0
 11
321.5
 21
17.02500000000009
 31
0.0
  0
LINE
  5
4CC05
330
4CAF8
100
AcDbEntity
  8
0
 62
     0
100
AcDbLine
 10
246.5
 20
25.02500000000009
 30
0.0
 11
321.5
 21
25.02500000000009
 31
0.0
  0
TEXT
  5
4CC06
330
4CAF8
100
AcDbEntity
  8
0
 62
     0
100
AcDbText
 10
244.8585210000001
 20
30.1
 30
0.0
 40
2.0
  1
PROJECT
  7
BIGFONT
100
AcDbText
  0
LINE
  5
4CC07
330
4CAF8
100
AcDbEntity
  8
0
 62
     0
100
AcDbLine
 10
244.4749999999999
 20
33.0
 30
0.0
 11
244.4749999999999
 21
9.0
 31
0.0
  0
LINE
  5
4CC08
330
4CAF8
100
AcDbEntity
  8
0
 62
     0
100
AcDbLine
 10
244.5250000000001
 20
33.0
 30
0.0
 11
244.5250000000001
 21
9.0
 31
0.0
  0
TEXT
  5
4CC09
330
4CAF8
100
AcDbEntity
  8
0
 62
     0
100
AcDbText
 10
323.943481
 20
30.1
 30
0.0
 40
2.0
  1
DATE
  7
BIGFONT
100
AcDbText
  0
LINE
  5
4CC0A
330
4CAF8
100
AcDbEntity
  8
0
 62
     0
100
AcDbLine
 10
344.4749999999999
 20
25.0
 30
0.0
 11
344.4749999999999
 21
17.0
 31
0.0
  0
LINE
  5
4CC0B
330
4CAF8
100
AcDbEntity
  8
0
 62
     0
100
AcDbLine
 10
344.5250000000001
 20
25.0
 30
0.0
 11
344.5250000000001
 21
17.0
 31
0.0
  0
TEXT
  5
4CC0C
330
4CAF8
100
AcDbEntity
  8
0
 62
     0
100
AcDbText
 10
323.943481
 20
22.57499999999991
 30
0.0
 40
2.0
  1
DRAWN
  7
BIGFONT
100
AcDbText
  0
TEXT
  5
4CC0D
330
4CAF8
100
AcDbEntity
  8
0
 62
     0
100
AcDbText
 10
323.943481
 20
14.57499999999991
 30
0.0
 40
2.0
  1
DWG. NO.
  7
BIGFONT
100
AcDbText
  0
TEXT
  5
4CC0E
330
4CAF8
100
AcDbEntity
  8
0
 62
     0
100
AcDbText
 10
344.4281310000001
 20
22.61124400000017
 30
0.0
 40
2.0
  1
CHECKED
  7
BIGFONT
100
AcDbText
  0
LINE
  5
4CC0F
330
4CAF8
100
AcDbEntity
  8
0
 62
     0
100
AcDbLine
 10
323.4749999999999
 20
33.0
 30
0.0
 11
323.4749999999999
 21
9.0
 31
0.0
  0
LINE
  5
4CC10
330
4CAF8
100
AcDbEntity
  8
0
 62
     0
100
AcDbLine
 10
323.5250000000001
 20
33.0
 30
0.0
 11
323.5250000000001
 21
9.0
 31
0.0
  0
TEXT
  5
4CC11
330
4CAF8
100
AcDbEntity
  8
0
 62
     0
100
AcDbText
 10
365.671509
 20
30.1
 30
0.0
 40
2.0
  1
SCALE
  7
BIGFONT
100
AcDbText
  0
TEXT
  5
4CC12
330
4CAF8
100
AcDbEntity
  8
0
 62
     0
100
AcDbText
 10
393.743011
 20
30.1
 30
0.0
 40
2.0
  1
FILE NO.
  7
BIGFONT
100
AcDbText
  0
TEXT
  5
4CC13
330
4CAF8
100
AcDbEntity
  8
0
 62
     0
100
AcDbText
 10
365.671509
 20
22.57499999999991
 30
0.0
 40
2.0
  1
APPROVED
  7
BIGFONT
100
AcDbText
  0
LINE
  5
4CC14
330
4CAF8
100
AcDbEntity
  8
0
 62
     0
100
AcDbLine
 10
365.4749999999999
 20
17.0
 30
0.0
 11
365.4749999999999
 21
33.0
 31
0.0
  0
LINE
  5
4CC15
330
4CAF8
100
AcDbEntity
  8
0
 62
     0
100
AcDbLine
 10
365.5250000000001
 20
17.0
 30
0.0
 11
365.5250000000001
 21
33.0
 31
0.0
  0
LINE
  5
4CC16
330
4CAF8
100
AcDbEntity
  8
0
 62
     0
100
AcDbLine
 10
393.4749999999999
 20
33.0
 30
0.0
 11
393.4749999999999
 21
9.0
 31
0.0
  0
LINE
  5
4CC17
330
4CAF8
100
AcDbEntity
  8
0
 62
     0
100
AcDbLine
 10
393.5250000000001
 20
33.0
 30
0.0
 11
393.5250000000001
 21
9.0
 31
0.0
  0
LINE
  5
4CC18
330
4CAF8
100
AcDbEntity
  8
0
 62
     0
100
AcDbLine
 10
21.5
 20
286.5999999999999
 30
0.0
 11
408.0
 21
286.5999999999999
 31
0.0
  0
LINE
  5
4CC19
330
4CAF8
100
AcDbEntity
  8
0
 62
     0
100
AcDbLine
 10
21.5
 20
286.5500000000002
 30
0.0
 11
408.0
 21
286.5500000000002
 31
0.0
  0
LINE
  5
4CC1A
330
4CAF8
100
AcDbEntity
  8
0
 62
     0
100
AcDbLine
 10
21.5
 20
286.5
 30
0.0
 11
408.0
 21
286.5
 31
0.0
  0
LINE
  5
4CC1B
330
4CAF8
100
AcDbEntity
  8
0
 62
     0
100
AcDbLine
 10
21.5
 20
286.4499999999998
 30
0.0
 11
408.0
 21
286.4499999999998
 31
0.0
  0
LINE
  5
4CC1C
330
4CAF8
100
AcDbEntity
  8
0
 62
     0
100
AcDbLine
 10
21.5
 20
286.0
 30
0.0
 11
408.0
 21
286.0
 31
0.0
  0
LINE
  5
4CC1D
330
4CAF8
100
AcDbEntity
  8
0
 62
     0
100
AcDbLine
 10
21.5
 20
286.0500000000002
 30
0.0
 11
408.0
 21
286.0500000000002
 31
0.0
  0
LINE
  5
4CC1E
330
4CAF8
100
AcDbEntity
  8
0
 62
     0
100
AcDbLine
 10
21.5
 20
286.0999999999999
 30
0.0
 11
408.0
 21
286.0999999999999
 31
0.0
  0
LINE
  5
4CC1F
330
4CAF8
100
AcDbEntity
  8
0
 62
     0
100
AcDbLine
 10
21.5
 20
286.1999999999998
 30
0.0
 11
408.0
 21
286.1999999999998
 31
0.0
  0
LINE
  5
4CC20
330
4CAF8
100
AcDbEntity
  8
0
 62
     0
100
AcDbLine
 10
21.5
 20
286.3000000000002
 30
0.0
 11
408.0
 21
286.3000000000002
 31
0.0
  0
LINE
  5
4CC21
330
4CAF8
100
AcDbEntity
  8
0
 62
     0
100
AcDbLine
 10
21.5
 20
286.4000000000001
 30
0.0
 11
408.0
 21
286.4000000000001
 31
0.0
  0
LINE
  5
4CC22
330
4CAF8
100
AcDbEntity
  8
0
 62
     0
100
AcDbLine
 10
21.5
 20
285.5999999999999
 30
0.0
 11
408.0
 21
285.5999999999999
 31
0.0
  0
LINE
  5
4CC23
330
4CAF8
100
AcDbEntity
  8
0
 62
     0
100
AcDbLine
 10
21.5
 20
285.6999999999998
 30
0.0
 11
408.0
 21
285.6999999999998
 31
0.0
  0
LINE
  5
4CC24
330
4CAF8
100
AcDbEntity
  8
0
 62
     0
100
AcDbLine
 10
21.5
 20
285.75
 30
0.0
 11
408.0
 21
285.75
 31
0.0
  0
LINE
  5
4CC25
330
4CAF8
100
AcDbEntity
  8
0
 62
     0
100
AcDbLine
 10
21.5
 20
285.8000000000002
 30
0.0
 11
408.0
 21
285.8000000000002
 31
0.0
  0
LINE
  5
4CC26
330
4CAF8
100
AcDbEntity
  8
0
 62
     0
100
AcDbLine
 10
21.5
 20
285.8499999999999
 30
0.0
 11
408.0
 21
285.8499999999999
 31
0.0
  0
LINE
  5
4CC27
330
4CAF8
100
AcDbEntity
  8
0
 62
     0
100
AcDbLine
 10
21.5
 20
285.9000000000001
 30
0.0
 11
408.0
 21
285.9000000000001
 31
0.0
  0
LINE
  5
4CC28
330
4CAF8
100
AcDbEntity
  8
0
 62
     0
100
AcDbLine
 10
21.5
 20
285.9499999999998
 30
0.0
 11
408.0
 21
285.9499999999998
 31
0.0
  0
LINE
  5
4CC29
330
4CAF8
100
AcDbEntity
  8
0
 62
     0
100
AcDbLine
 10
408.0
 20
286.3499999999999
 30
0.0
 11
21.5
 21
286.3499999999999
 31
0.0
  0
LINE
  5
4CC2A
330
4CAF8
100
AcDbEntity
  8
0
 62
     0
100
AcDbLine
 10
408.0
 20
286.25
 30
0.0
 11
21.5
 21
286.25
 31
0.0
  0
LINE
  5
4CC2B
330
4CAF8
100
AcDbEntity
  8
0
 62
     0
100
AcDbLine
 10
408.0
 20
286.1500000000001
 30
0.0
 11
21.5
 21
286.1500000000001
 31
0.0
  0
LINE
  5
4CC2C
330
4CAF8
100
AcDbEntity
  8
0
 62
     0
100
AcDbLine
 10
408.0
 20
285.6500000000001
 30
0.0
 11
21.5
 21
285.6500000000001
 31
0.0
  0
LINE
  5
4CC2D
330
4CAF8
100
AcDbEntity
  8
DEFPOINTS
 62
     0
100
AcDbLine
 10
0.0
 20
297.0
 30
0.0
 11
420.0
 21
297.0
 31
0.0
  0
LINE
  5
4CC2E
330
4CAF8
100
AcDbEntity
  8
0
 62
     0
100
AcDbLine
 10
21.97403199999985
 20
160.136628
 30
0.0
 11
22.68662799999993
 21
159.4240320000002
 31
0.0
  0
LINE
  5
4CC2F
330
4CAF8
100
AcDbEntity
  8
0
 62
     0
100
AcDbLine
 10
22.03491199999985
 20
160.1464589999999
 30
0.0
 11
22.69645899999978
 21
159.4849120000002
 31
0.0
  0
LINE
  5
4CC30
330
4CAF8
100
AcDbEntity
  8
0
 62
     0
100
AcDbLine
 10
22.10208499999999
 20
160.1499959999999
 30
0.0
 11
22.69999599999983
 21
159.5520850000001
 31
0.0
  0
LINE
  5
4CC31
330
4CAF8
100
AcDbEntity
  8
0
 62
     0
100
AcDbLine
 10
22.17786599999999
 20
160.1449260000002
 30
0.0
 11
22.6949259999999
 21
159.6278660000001
 31
0.0
  0
LINE
  5
4CC32
330
4CAF8
100
AcDbEntity
  8
0
 62
     0
100
AcDbLine
 10
22.26729899999987
 20
160.1262039999999
 30
0.0
 11
22.67620399999987
 21
159.7172990000002
 31
0.0
  0
LINE
  5
4CC33
330
4CAF8
100
AcDbEntity
  8
0
 62
     0
100
AcDbLine
 10
22.38767400000006
 20
160.0765389999999
 30
0.0
 11
22.62653899999987
 21
159.8376740000001
 31
0.0
  0
LINE
  5
4CC34
330
4CAF8
100
AcDbEntity
  8
0
 62
     0
100
AcDbLine
 10
21.97403199999985
 20
158.963372
 30
0.0
 11
22.68662799999993
 21
159.6759679999998
 31
0.0
  0
LINE
  5
4CC35
330
4CAF8
100
AcDbEntity
  8
0
 62
     0
100
AcDbLine
 10
22.03491199999985
 20
158.9535410000001
 30
0.0
 11
22.69645899999978
 21
159.6150879999998
 31
0.0
  0
LINE
  5
4CC36
330
4CAF8
100
AcDbEntity
  8
0
 62
     0
100
AcDbLine
 10
22.10208499999999
 20
158.9500040000001
 30
0.0
 11
22.69999599999983
 21
159.5479149999999
 31
0.0
  0
LINE
  5
4CC37
330
4CAF8
100
AcDbEntity
  8
0
 62
     0
100
AcDbLine
 10
22.17786599999999
 20
158.9550739999998
 30
0.0
 11
22.6949259999999
 21
159.4721339999999
 31
0.0
  0
LINE
  5
4CC38
330
4CAF8
100
AcDbEntity
  8
0
 62
     0
100
AcDbLine
 10
22.26729899999987
 20
158.973796
 30
0.0
 11
22.67620399999987
 21
159.3827009999998
 31
0.0
  0
LINE
  5
4CC39
330
4CAF8
100
AcDbEntity
  8
0
 62
     0
100
AcDbLine
 10
22.38767400000006
 20
159.023461
 30
0.0
 11
22.62653899999987
 21
159.2623259999998
 31
0.0
  0
LINE
  5
4CC3A
330
4CAF8
100
AcDbEntity
  8
0
 62
     0
100
AcDbLine
 10
21.57100999999989
 20
159.2668579999998
 30
0.0
 11
21.81685799999991
 21
159.0210100000002
 31
0.0
  0
LINE
  5
4CC3B
330
4CAF8
100
AcDbEntity
  8
0
 62
     0
100
AcDbLine
 10
21.57100999999989
 20
159.8331420000002
 30
0.0
 11
21.81685799999991
 21
160.0789899999998
 31
0.0
  0
LINE
  5
4CC3C
330
4CAF8
100
AcDbEntity
  8
0
 62
     0
100
AcDbLine
 10
21.5
 20
159.55
 30
0.0
 11
22.09999999999991
 21
158.9500000000001
 31
0.0
  0
LINE
  5
4CC3D
330
4CAF8
100
AcDbEntity
  8
0
 62
     0
100
AcDbLine
 10
21.50374799999986
 20
159.6169619999999
 30
0.0
 11
22.16696199999978
 21
158.9537480000002
 31
0.0
  0
LINE
  5
4CC3E
330
4CAF8
100
AcDbEntity
  8
0
 62
     0
100
AcDbLine
 10
21.51374199999987
 20
159.6776790000002
 30
0.0
 11
22.22767899999985
 21
158.9637420000002
 31
0.0
  0
LINE
  5
4CC3F
330
4CAF8
100
AcDbEntity
  8
0
 62
     0
100
AcDbLine
 10
21.5287209999999
 20
159.733411
 30
0.0
 11
22.28341099999989
 21
158.9787210000002
 31
0.0
  0
LINE
  5
4CC40
330
4CAF8
100
AcDbEntity
  8
0
 62
     0
100
AcDbLine
 10
21.54790800000001
 20
159.7849349999999
 30
0.0
 11
22.33493499999986
 21
158.9979080000001
 31
0.0
  0
LINE
  5
4CC41
330
4CAF8
100
AcDbEntity
  8
0
 62
     0
100
AcDbLine
 10
21.57080099999985
 20
159.8327520000001
 30
0.0
 11
22.38275199999998
 21
159.0208009999999
 31
0.0
  0
LINE
  5
4CC42
330
4CAF8
100
AcDbEntity
  8
0
 62
     0
100
AcDbLine
 10
21.59706699999992
 20
159.8771970000001
 30
0.0
 11
22.42719699999998
 21
159.0470669999998
 31
0.0
  0
LINE
  5
4CC43
330
4CAF8
100
AcDbEntity
  8
0
 62
     0
100
AcDbLine
 10
21.62648599999989
 20
159.9184889999999
 30
0.0
 11
22.46848899999986
 21
159.0764860000002
 31
0.0
  0
LINE
  5
4CC44
330
4CAF8
100
AcDbEntity
  8
0
 62
     0
100
AcDbLine
 10
21.65892600000006
 20
159.9567599999998
 30
0.0
 11
22.50675999999999
 21
159.1089260000001
 31
0.0
  0
LINE
  5
4CC45
330
4CAF8
100
AcDbEntity
  8
0
 62
     0
100
AcDbLine
 10
21.69432400000005
 20
159.9920719999998
 30
0.0
 11
22.54207199999996
 21
159.1443240000001
 31
0.0
  0
LINE
  5
4CC46
330
4CAF8
100
AcDbEntity
  8
0
 62
     0
100
AcDbLine
 10
21.73268299999995
 20
160.024424
 30
0.0
 11
22.57442399999991
 21
159.1826829999998
 31
0.0
  0
LINE
  5
4CC47
330
4CAF8
100
AcDbEntity
  8
0
 62
     0
100
AcDbLine
 10
21.77406499999984
 20
160.0537520000001
 30
0.0
 11
22.60375199999999
 21
159.2240650000001
 31
0.0
  0
LINE
  5
4CC48
330
4CAF8
100
AcDbEntity
  8
0
 62
     0
100
AcDbLine
 10
21.81860599999982
 20
160.0799220000002
 30
0.0
 11
22.62992199999985
 21
159.2686059999999
 31
0.0
  0
LINE
  5
4CC49
330
4CAF8
100
AcDbEntity
  8
0
 62
     0
100
AcDbLine
 10
21.86652699999991
 20
160.1027120000001
 30
0.0
 11
22.65271200000007
 21
159.3165270000002
 31
0.0
  0
LINE
  5
4CC4A
330
4CAF8
100
AcDbEntity
  8
0
 62
     0
100
AcDbLine
 10
21.91816599999993
 20
160.1217840000002
 30
0.0
 11
22.67178399999989
 21
159.368166
 31
0.0
  0
LINE
  5
4CC4B
330
4CAF8
100
AcDbEntity
  8
0
 62
     0
100
AcDbLine
 10
21.50476600000002
 20
159.4745230000001
 30
0.0
 11
22.02452300000004
 21
158.9547660000001
 31
0.0
  0
LINE
  5
4CC4C
330
4CAF8
100
AcDbEntity
  8
0
 62
     0
100
AcDbLine
 10
21.52295599999979
 20
159.3856229999999
 30
0.0
 11
21.93562299999985
 21
158.9729559999999
 31
0.0
  0
LINE
  5
4CC4D
330
4CAF8
100
AcDbEntity
  8
0
 62
     0
100
AcDbLine
 10
21.5
 20
159.55
 30
0.0
 11
22.09999999999991
 21
160.1499999999999
 31
0.0
  0
LINE
  5
4CC4E
330
4CAF8
100
AcDbEntity
  8
0
 62
     0
100
AcDbLine
 10
21.50374799999986
 20
159.4830380000001
 30
0.0
 11
22.16696199999978
 21
160.1462519999998
 31
0.0
  0
LINE
  5
4CC4F
330
4CAF8
100
AcDbEntity
  8
0
 62
     0
100
AcDbLine
 10
21.51374199999987
 20
159.4223209999998
 30
0.0
 11
22.22767899999985
 21
160.1362579999998
 31
0.0
  0
LINE
  5
4CC50
330
4CAF8
100
AcDbEntity
  8
0
 62
     0
100
AcDbLine
 10
21.5287209999999
 20
159.366589
 30
0.0
 11
22.28341099999989
 21
160.1212789999998
 31
0.0
  0
LINE
  5
4CC51
330
4CAF8
100
AcDbEntity
  8
0
 62
     0
100
AcDbLine
 10
21.54790800000001
 20
159.315065
 30
0.0
 11
22.33493499999986
 21
160.1020919999999
 31
0.0
  0
LINE
  5
4CC52
330
4CAF8
100
AcDbEntity
  8
0
 62
     0
100
AcDbLine
 10
21.57080099999985
 20
159.2672479999999
 30
0.0
 11
22.38275199999998
 21
160.079199
 31
0.0
  0
LINE
  5
4CC53
330
4CAF8
100
AcDbEntity
  8
0
 62
     0
100
AcDbLine
 10
21.59706699999992
 20
159.2228029999999
 30
0.0
 11
22.42719699999998
 21
160.0529330000002
 31
0.0
  0
LINE
  5
4CC54
330
4CAF8
100
AcDbEntity
  8
0
 62
     0
100
AcDbLine
 10
21.62648599999989
 20
159.181511
 30
0.0
 11
22.46848899999986
 21
160.0235139999998
 31
0.0
  0
LINE
  5
4CC55
330
4CAF8
100
AcDbEntity
  8
0
 62
     0
100
AcDbLine
 10
21.65892600000006
 20
159.1432400000001
 30
0.0
 11
22.50675999999999
 21
159.9910739999998
 31
0.0
  0
LINE
  5
4CC56
330
4CAF8
100
AcDbEntity
  8
0
 62
     0
100
AcDbLine
 10
21.69432400000005
 20
159.1079280000002
 30
0.0
 11
22.54207199999996
 21
159.9556759999998
 31
0.0
  0
LINE
  5
4CC57
330
4CAF8
100
AcDbEntity
  8
0
 62
     0
100
AcDbLine
 10
21.73268299999995
 20
159.075576
 30
0.0
 11
22.57442399999991
 21
159.9173170000002
 31
0.0
  0
LINE
  5
4CC58
330
4CAF8
100
AcDbEntity
  8
0
 62
     0
100
AcDbLine
 10
21.77406499999984
 20
159.0462479999999
 30
0.0
 11
22.60375199999999
 21
159.8759349999998
 31
0.0
  0
LINE
  5
4CC59
330
4CAF8
100
AcDbEntity
  8
0
 62
     0
100
AcDbLine
 10
21.81860599999982
 20
159.0200779999998
 30
0.0
 11
22.62992199999985
 21
159.8313940000001
 31
0.0
  0
LINE
  5
4CC5A
330
4CAF8
100
AcDbEntity
  8
0
 62
     0
100
AcDbLine
 10
21.86652699999991
 20
158.9972879999998
 30
0.0
 11
22.65271200000007
 21
159.7834729999998
 31
0.0
  0
LINE
  5
4CC5B
330
4CAF8
100
AcDbEntity
  8
0
 62
     0
100
AcDbLine
 10
21.91816599999993
 20
158.9782159999998
 30
0.0
 11
22.67178399999989
 21
159.731834
 31
0.0
  0
LINE
  5
4CC5C
330
4CAF8
100
AcDbEntity
  8
0
 62
     0
100
AcDbLine
 10
21.50476600000002
 20
159.6254769999998
 30
0.0
 11
22.02452300000004
 21
160.1452339999999
 31
0.0
  0
LINE
  5
4CC5D
330
4CAF8
100
AcDbEntity
  8
0
 62
     0
100
AcDbLine
 10
21.52295599999979
 20
159.714377
 30
0.0
 11
21.93562299999985
 21
160.1270440000001
 31
0.0
  0
LINE
  5
4CC5E
330
4CAF8
100
AcDbEntity
  8
0
 62
     0
100
AcDbLine
 10
21.76123700000007
 20
279.27484
 30
0.0
 11
22.27516000000005
 21
279.788763
 31
0.0
  0
LINE
  5
4CC5F
330
4CAF8
100
AcDbEntity
  8
0
 62
     0
100
AcDbLine
 10
21.81602199999988
 20
279.2589149999999
 30
0.0
 11
22.29108499999997
 21
279.7339780000002
 31
0.0
  0
LINE
  5
4CC60
330
4CAF8
100
AcDbEntity
  8
0
 62
     0
100
AcDbLine
 10
21.87840099999985
 20
279.2505839999999
 30
0.0
 11
22.29941599999997
 21
279.6715989999998
 31
0.0
  0
LINE
  5
4CC61
330
4CAF8
100
AcDbEntity
  8
0
 62
     0
100
AcDbLine
 10
21.95191100000002
 20
279.2533830000002
 30
0.0
 11
22.29661699999988
 21
279.5980890000001
 31
0.0
  0
LINE
  5
4CC62
330
4CAF8
100
AcDbEntity
  8
0
 62
     0
100
AcDbLine
 10
22.04737999999988
 20
279.2781409999998
 30
0.0
 11
22.27185899999986
 21
279.5026200000002
 31
0.0
  0
LINE
  5
4CC63
330
4CAF8
100
AcDbEntity
  8
0
 62
     0
100
AcDbLine
 10
21.76123700000007
 20
280.0251600000001
 30
0.0
 11
22.27516000000005
 21
279.5112370000002
 31
0.0
  0
LINE
  5
4CC64
330
4CAF8
100
AcDbEntity
  8
0
 62
     0
100
AcDbLine
 10
21.81602199999988
 20
280.0410849999998
 30
0.0
 11
22.29108499999997
 21
279.566022
 31
0.0
  0
LINE
  5
4CC65
330
4CAF8
100
AcDbEntity
  8
0
 62
     0
100
AcDbLine
 10
21.87840099999985
 20
280.0494159999998
 30
0.0
 11
22.29941599999997
 21
279.6284009999999
 31
0.0
  0
LINE
  5
4CC66
330
4CAF8
100
AcDbEntity
  8
0
 62
     0
100
AcDbLine
 10
21.95191100000002
 20
280.046617
 30
0.0
 11
22.29661699999988
 21
279.7019110000001
 31
0.0
  0
LINE
  5
4CC67
330
4CAF8
100
AcDbEntity
  8
0
 62
     0
100
AcDbLine
 10
22.04737999999988
 20
280.0218589999999
 30
0.0
 11
22.27185899999986
 21
279.79738
 31
0.0
  0
LINE
  5
4CC68
330
4CAF8
100
AcDbEntity
  8
0
 62
     0
100
AcDbLine
 10
21.54733999999998
 20
279.838761
 30
0.0
 11
21.71123900000011
 21
280.0026600000001
 31
0.0
  0
LINE
  5
4CC69
330
4CAF8
100
AcDbEntity
  8
0
 62
     0
100
AcDbLine
 10
21.54733999999998
 20
279.4612390000002
 30
0.0
 11
21.71123900000011
 21
279.2973400000001
 31
0.0
  0
LINE
  5
4CC6A
330
4CAF8
100
AcDbEntity
  8
0
 62
     0
100
AcDbLine
 10
21.49999999999991
 20
279.6500000000001
 30
0.0
 11
21.9
 21
280.0500000000002
 31
0.0
  0
LINE
  5
4CC6B
330
4CAF8
100
AcDbEntity
  8
0
 62
     0
100
AcDbLine
 10
21.50777600000006
 20
279.728486
 30
0.0
 11
21.82151400000011
 21
280.0422239999998
 31
0.0
  0
LINE
  5
4CC6C
330
4CAF8
100
AcDbEntity
  8
0
 62
     0
100
AcDbLine
 10
21.50537199999999
 20
279.5846620000002
 30
0.0
 11
21.96533799999988
 21
280.0446280000001
 31
0.0
  0
LINE
  5
4CC6D
330
4CAF8
100
AcDbEntity
  8
0
 62
     0
100
AcDbLine
 10
21.51914699999988
 20
279.5277259999998
 30
0.0
 11
22.02227400000006
 21
280.0308530000002
 31
0.0
  0
LINE
  5
4CC6E
330
4CAF8
100
AcDbEntity
  8
0
 62
     0
100
AcDbLine
 10
21.53927699999999
 20
279.4771449999998
 30
0.0
 11
22.07285500000003
 21
280.0107229999999
 31
0.0
  0
LINE
  5
4CC6F
330
4CAF8
100
AcDbEntity
  8
0
 62
     0
100
AcDbLine
 10
21.5647109999999
 20
279.4318680000001
 30
0.0
 11
22.11813199999997
 21
279.9852890000002
 31
0.0
  0
LINE
  5
4CC70
330
4CAF8
100
AcDbEntity
  8
0
 62
     0
100
AcDbLine
 10
21.59488899999987
 20
279.3913360000001
 30
0.0
 11
22.15866399999995
 21
279.9551110000002
 31
0.0
  0
LINE
  5
4CC71
330
4CAF8
100
AcDbEntity
  8
0
 62
     0
100
AcDbLine
 10
21.62955000000002
 20
279.355286
 30
0.0
 11
22.19471400000011
 21
279.9204500000001
 31
0.0
  0
LINE
  5
4CC72
330
4CAF8
100
AcDbEntity
  8
0
 62
     0
100
AcDbLine
 10
21.66865999999995
 20
279.3236849999998
 30
0.0
 11
22.22631500000002
 21
279.8813399999999
 31
0.0
  0
LINE
  5
4CC73
330
4CAF8
100
AcDbEntity
  8
0
 62
     0
100
AcDbLine
 10
21.71240400000001
 20
279.2967189999999
 30
0.0
 11
22.25328100000015
 21
279.8375959999998
 31
0.0
  0
LINE
  5
4CC74
330
4CAF8
100
AcDbEntity
  8
0
 62
     0
100
AcDbLine
 10
21.49999999999991
 20
279.6500000000001
 30
0.0
 11
21.9
 21
279.25
 31
0.0
  0
LINE
  5
4CC75
330
4CAF8
100
AcDbEntity
  8
0
 62
     0
100
AcDbLine
 10
21.50537199999999
 20
279.715338
 30
0.0
 11
21.96533799999988
 21
279.2553720000001
 31
0.0
  0
LINE
  5
4CC76
330
4CAF8
100
AcDbEntity
  8
0
 62
     0
100
AcDbLine
 10
21.51914699999988
 20
279.7722739999999
 30
0.0
 11
22.02227400000006
 21
279.269147
 31
0.0
  0
LINE
  5
4CC77
330
4CAF8
100
AcDbEntity
  8
0
 62
     0
100
AcDbLine
 10
21.53927699999999
 20
279.8228549999999
 30
0.0
 11
22.07285500000003
 21
279.2892769999999
 31
0.0
  0
LINE
  5
4CC78
330
4CAF8
100
AcDbEntity
  8
0
 62
     0
100
AcDbLine
 10
21.5647109999999
 20
279.8681320000001
 30
0.0
 11
22.11813199999997
 21
279.314711
 31
0.0
  0
LINE
  5
4CC79
330
4CAF8
100
AcDbEntity
  8
0
 62
     0
100
AcDbLine
 10
21.59488899999987
 20
279.908664
 30
0.0
 11
22.15866399999995
 21
279.344889
 31
0.0
  0
LINE
  5
4CC7A
330
4CAF8
100
AcDbEntity
  8
0
 62
     0
100
AcDbLine
 10
21.62955000000002
 20
279.9447140000002
 30
0.0
 11
22.19471400000011
 21
279.3795500000001
 31
0.0
  0
LINE
  5
4CC7B
330
4CAF8
100
AcDbEntity
  8
0
 62
     0
100
AcDbLine
 10
21.66865999999995
 20
279.9763149999999
 30
0.0
 11
22.22631500000002
 21
279.4186599999998
 31
0.0
  0
LINE
  5
4CC7C
330
4CAF8
100
AcDbEntity
  8
0
 62
     0
100
AcDbLine
 10
21.71240400000001
 20
280.0032810000002
 30
0.0
 11
22.25328100000015
 21
279.4624039999999
 31
0.0
  0
LINE
  5
4CC7D
330
4CAF8
100
AcDbEntity
  8
0
 62
     0
100
AcDbLine
 10
21.50777600000006
 20
279.5715140000002
 30
0.0
 11
21.82151400000011
 21
279.2577759999999
 31
0.0
  0
LINE
  5
4CC7E
330
4CAF8
100
AcDbEntity
  8
0
 62
     0
100
AcDbLine
 10
21.76123700000007
 20
273.27484
 30
0.0
 11
22.27516000000005
 21
273.788763
 31
0.0
  0
LINE
  5
4CC7F
330
4CAF8
100
AcDbEntity
  8
0
 62
     0
100
AcDbLine
 10
21.81602199999988
 20
273.2589149999999
 30
0.0
 11
22.29108499999997
 21
273.7339780000002
 31
0.0
  0
LINE
  5
4CC80
330
4CAF8
100
AcDbEntity
  8
0
 62
     0
100
AcDbLine
 10
21.87840099999985
 20
273.2505839999999
 30
0.0
 11
22.29941599999997
 21
273.6715989999998
 31
0.0
  0
LINE
  5
4CC81
330
4CAF8
100
AcDbEntity
  8
0
 62
     0
100
AcDbLine
 10
21.95191100000002
 20
273.2533830000002
 30
0.0
 11
22.29661699999988
 21
273.5980890000001
 31
0.0
  0
LINE
  5
4CC82
330
4CAF8
100
AcDbEntity
  8
0
 62
     0
100
AcDbLine
 10
22.04737999999988
 20
273.2781409999998
 30
0.0
 11
22.27185899999986
 21
273.5026200000002
 31
0.0
  0
LINE
  5
4CC83
330
4CAF8
100
AcDbEntity
  8
0
 62
     0
100
AcDbLine
 10
21.76123700000007
 20
274.0251600000001
 30
0.0
 11
22.27516000000005
 21
273.5112370000002
 31
0.0
  0
LINE
  5
4CC84
330
4CAF8
100
AcDbEntity
  8
0
 62
     0
100
AcDbLine
 10
21.81602199999988
 20
274.0410849999998
 30
0.0
 11
22.29108499999997
 21
273.566022
 31
0.0
  0
LINE
  5
4CC85
330
4CAF8
100
AcDbEntity
  8
0
 62
     0
100
AcDbLine
 10
21.87840099999985
 20
274.0494159999998
 30
0.0
 11
22.29941599999997
 21
273.6284009999999
 31
0.0
  0
LINE
  5
4CC86
330
4CAF8
100
AcDbEntity
  8
0
 62
     0
100
AcDbLine
 10
21.95191100000002
 20
274.046617
 30
0.0
 11
22.29661699999988
 21
273.7019110000001
 31
0.0
  0
LINE
  5
4CC87
330
4CAF8
100
AcDbEntity
  8
0
 62
     0
100
AcDbLine
 10
22.04737999999988
 20
274.0218589999999
 30
0.0
 11
22.27185899999986
 21
273.79738
 31
0.0
  0
LINE
  5
4CC88
330
4CAF8
100
AcDbEntity
  8
0
 62
     0
100
AcDbLine
 10
21.76123700000007
 20
267.27484
 30
0.0
 11
22.27516000000005
 21
267.788763
 31
0.0
  0
LINE
  5
4CC89
330
4CAF8
100
AcDbEntity
  8
0
 62
     0
100
AcDbLine
 10
21.81602199999988
 20
267.2589149999999
 30
0.0
 11
22.29108499999997
 21
267.7339780000002
 31
0.0
  0
LINE
  5
4CC8A
330
4CAF8
100
AcDbEntity
  8
0
 62
     0
100
AcDbLine
 10
21.87840099999985
 20
267.2505839999999
 30
0.0
 11
22.29941599999997
 21
267.6715989999998
 31
0.0
  0
LINE
  5
4CC8B
330
4CAF8
100
AcDbEntity
  8
0
 62
     0
100
AcDbLine
 10
21.95191100000002
 20
267.2533830000002
 30
0.0
 11
22.29661699999988
 21
267.5980890000001
 31
0.0
  0
LINE
  5
4CC8C
330
4CAF8
100
AcDbEntity
  8
0
 62
     0
100
AcDbLine
 10
22.04737999999988
 20
267.2781409999998
 30
0.0
 11
22.27185899999986
 21
267.5026200000002
 31
0.0
  0
LINE
  5
4CC8D
330
4CAF8
100
AcDbEntity
  8
0
 62
     0
100
AcDbLine
 10
21.76123700000007
 20
268.0251600000001
 30
0.0
 11
22.27516000000005
 21
267.5112370000002
 31
0.0
  0
LINE
  5
4CC8E
330
4CAF8
100
AcDbEntity
  8
0
 62
     0
100
AcDbLine
 10
21.81602199999988
 20
268.0410849999998
 30
0.0
 11
22.29108499999997
 21
267.566022
 31
0.0
  0
LINE
  5
4CC8F
330
4CAF8
100
AcDbEntity
  8
0
 62
     0
100
AcDbLine
 10
21.87840099999985
 20
268.0494159999998
 30
0.0
 11
22.29941599999997
 21
267.6284009999999
 31
0.0
  0
LINE
  5
4CC90
330
4CAF8
100
AcDbEntity
  8
0
 62
     0
100
AcDbLine
 10
21.95191100000002
 20
268.046617
 30
0.0
 11
22.29661699999988
 21
267.7019110000001
 31
0.0
  0
LINE
  5
4CC91
330
4CAF8
100
AcDbEntity
  8
0
 62
     0
100
AcDbLine
 10
22.04737999999988
 20
268.0218589999999
 30
0.0
 11
22.27185899999986
 21
267.79738
 31
0.0
  0
LINE
  5
4CC92
330
4CAF8
100
AcDbEntity
  8
0
 62
     0
100
AcDbLine
 10
21.54733999999998
 20
273.838761
 30
0.0
 11
21.71123900000011
 21
274.0026600000001
 31
0.0
  0
LINE
  5
4CC93
330
4CAF8
100
AcDbEntity
  8
0
 62
     0
100
AcDbLine
 10
21.54733999999998
 20
273.4612390000002
 30
0.0
 11
21.71123900000011
 21
273.2973400000001
 31
0.0
  0
LINE
  5
4CC94
330
4CAF8
100
AcDbEntity
  8
0
 62
     0
100
AcDbLine
 10
21.54733999999998
 20
267.838761
 30
0.0
 11
21.71123900000011
 21
268.0026600000001
 31
0.0
  0
LINE
  5
4CC95
330
4CAF8
100
AcDbEntity
  8
0
 62
     0
100
AcDbLine
 10
21.54733999999998
 20
267.4612390000002
 30
0.0
 11
21.71123900000011
 21
267.2973400000001
 31
0.0
  0
LINE
  5
4CC96
330
4CAF8
100
AcDbEntity
  8
0
 62
     0
100
AcDbLine
 10
21.49999999999991
 20
273.6500000000001
 30
0.0
 11
21.9
 21
274.0500000000002
 31
0.0
  0
LINE
  5
4CC97
330
4CAF8
100
AcDbEntity
  8
0
 62
     0
100
AcDbLine
 10
21.50777600000006
 20
273.728486
 30
0.0
 11
21.82151400000011
 21
274.0422239999998
 31
0.0
  0
LINE
  5
4CC98
330
4CAF8
100
AcDbEntity
  8
0
 62
     0
100
AcDbLine
 10
21.50537199999999
 20
273.5846620000002
 30
0.0
 11
21.96533799999988
 21
274.0446280000001
 31
0.0
  0
LINE
  5
4CC99
330
4CAF8
100
AcDbEntity
  8
0
 62
     0
100
AcDbLine
 10
21.51914699999988
 20
273.5277259999998
 30
0.0
 11
22.02227400000006
 21
274.0308530000002
 31
0.0
  0
LINE
  5
4CC9A
330
4CAF8
100
AcDbEntity
  8
0
 62
     0
100
AcDbLine
 10
21.53927699999999
 20
273.4771449999998
 30
0.0
 11
22.07285500000003
 21
274.0107229999999
 31
0.0
  0
LINE
  5
4CC9B
330
4CAF8
100
AcDbEntity
  8
0
 62
     0
100
AcDbLine
 10
21.5647109999999
 20
273.4318680000001
 30
0.0
 11
22.11813199999997
 21
273.9852890000002
 31
0.0
  0
LINE
  5
4CC9C
330
4CAF8
100
AcDbEntity
  8
0
 62
     0
100
AcDbLine
 10
21.59488899999987
 20
273.3913360000001
 30
0.0
 11
22.15866399999995
 21
273.9551110000002
 31
0.0
  0
LINE
  5
4CC9D
330
4CAF8
100
AcDbEntity
  8
0
 62
     0
100
AcDbLine
 10
21.62955000000002
 20
273.355286
 30
0.0
 11
22.19471400000011
 21
273.9204500000001
 31
0.0
  0
LINE
  5
4CC9E
330
4CAF8
100
AcDbEntity
  8
0
 62
     0
100
AcDbLine
 10
21.66865999999995
 20
273.3236849999998
 30
0.0
 11
22.22631500000002
 21
273.8813399999999
 31
0.0
  0
LINE
  5
4CC9F
330
4CAF8
100
AcDbEntity
  8
0
 62
     0
100
AcDbLine
 10
21.71240400000001
 20
273.2967189999999
 30
0.0
 11
22.25328100000015
 21
273.8375959999998
 31
0.0
  0
LINE
  5
4CCA0
330
4CAF8
100
AcDbEntity
  8
0
 62
     0
100
AcDbLine
 10
21.49999999999991
 20
273.6500000000001
 30
0.0
 11
21.9
 21
273.25
 31
0.0
  0
LINE
  5
4CCA1
330
4CAF8
100
AcDbEntity
  8
0
 62
     0
100
AcDbLine
 10
21.50537199999999
 20
273.715338
 30
0.0
 11
21.96533799999988
 21
273.2553720000001
 31
0.0
  0
LINE
  5
4CCA2
330
4CAF8
100
AcDbEntity
  8
0
 62
     0
100
AcDbLine
 10
21.51914699999988
 20
273.7722739999999
 30
0.0
 11
22.02227400000006
 21
273.269147
 31
0.0
  0
LINE
  5
4CCA3
330
4CAF8
100
AcDbEntity
  8
0
 62
     0
100
AcDbLine
 10
21.53927699999999
 20
273.8228549999999
 30
0.0
 11
22.07285500000003
 21
273.2892769999999
 31
0.0
  0
LINE
  5
4CCA4
330
4CAF8
100
AcDbEntity
  8
0
 62
     0
100
AcDbLine
 10
21.5647109999999
 20
273.8681320000001
 30
0.0
 11
22.11813199999997
 21
273.314711
 31
0.0
  0
LINE
  5
4CCA5
330
4CAF8
100
AcDbEntity
  8
0
 62
     0
100
AcDbLine
 10
21.59488899999987
 20
273.908664
 30
0.0
 11
22.15866399999995
 21
273.344889
 31
0.0
  0
LINE
  5
4CCA6
330
4CAF8
100
AcDbEntity
  8
0
 62
     0
100
AcDbLine
 10
21.62955000000002
 20
273.9447140000002
 30
0.0
 11
22.19471400000011
 21
273.3795500000001
 31
0.0
  0
LINE
  5
4CCA7
330
4CAF8
100
AcDbEntity
  8
0
 62
     0
100
AcDbLine
 10
21.66865999999995
 20
273.9763149999999
 30
0.0
 11
22.22631500000002
 21
273.4186599999998
 31
0.0
  0
LINE
  5
4CCA8
330
4CAF8
100
AcDbEntity
  8
0
 62
     0
100
AcDbLine
 10
21.71240400000001
 20
274.0032809999998
 30
0.0
 11
22.25328100000015
 21
273.4624039999999
 31
0.0
  0
LINE
  5
4CCA9
330
4CAF8
100
AcDbEntity
  8
0
 62
     0
100
AcDbLine
 10
21.50777600000006
 20
273.5715140000002
 30
0.0
 11
21.82151400000011
 21
273.2577759999999
 31
0.0
  0
LINE
  5
4CCAA
330
4CAF8
100
AcDbEntity
  8
0
 62
     0
100
AcDbLine
 10
21.49999999999991
 20
267.6500000000001
 30
0.0
 11
21.9
 21
268.0500000000002
 31
0.0
  0
LINE
  5
4CCAB
330
4CAF8
100
AcDbEntity
  8
0
 62
     0
100
AcDbLine
 10
21.50777600000006
 20
267.728486
 30
0.0
 11
21.82151400000011
 21
268.0422239999998
 31
0.0
  0
LINE
  5
4CCAC
330
4CAF8
100
AcDbEntity
  8
0
 62
     0
100
AcDbLine
 10
21.50537199999999
 20
267.5846620000002
 30
0.0
 11
21.96533799999988
 21
268.0446280000001
 31
0.0
  0
LINE
  5
4CCAD
330
4CAF8
100
AcDbEntity
  8
0
 62
     0
100
AcDbLine
 10
21.51914699999988
 20
267.5277259999998
 30
0.0
 11
22.02227400000006
 21
268.0308530000002
 31
0.0
  0
LINE
  5
4CCAE
330
4CAF8
100
AcDbEntity
  8
0
 62
     0
100
AcDbLine
 10
21.53927699999999
 20
267.4771449999998
 30
0.0
 11
22.07285500000003
 21
268.0107229999999
 31
0.0
  0
LINE
  5
4CCAF
330
4CAF8
100
AcDbEntity
  8
0
 62
     0
100
AcDbLine
 10
21.5647109999999
 20
267.4318680000001
 30
0.0
 11
22.11813199999997
 21
267.9852890000002
 31
0.0
  0
LINE
  5
4CCB0
330
4CAF8
100
AcDbEntity
  8
0
 62
     0
100
AcDbLine
 10
21.59488899999987
 20
267.3913360000001
 30
0.0
 11
22.15866399999995
 21
267.9551110000002
 31
0.0
  0
LINE
  5
4CCB1
330
4CAF8
100
AcDbEntity
  8
0
 62
     0
100
AcDbLine
 10
21.62955000000002
 20
267.355286
 30
0.0
 11
22.19471400000011
 21
267.9204500000001
 31
0.0
  0
LINE
  5
4CCB2
330
4CAF8
100
AcDbEntity
  8
0
 62
     0
100
AcDbLine
 10
21.66865999999995
 20
267.3236849999998
 30
0.0
 11
22.22631500000002
 21
267.8813399999999
 31
0.0
  0
LINE
  5
4CCB3
330
4CAF8
100
AcDbEntity
  8
0
 62
     0
100
AcDbLine
 10
21.71240400000001
 20
267.2967189999999
 30
0.0
 11
22.25328100000015
 21
267.8375959999998
 31
0.0
  0
LINE
  5
4CCB4
330
4CAF8
100
AcDbEntity
  8
0
 62
     0
100
AcDbLine
 10
21.49999999999991
 20
267.6500000000001
 30
0.0
 11
21.9
 21
267.25
 31
0.0
  0
LINE
  5
4CCB5
330
4CAF8
100
AcDbEntity
  8
0
 62
     0
100
AcDbLine
 10
21.50537199999999
 20
267.715338
 30
0.0
 11
21.96533799999988
 21
267.2553720000001
 31
0.0
  0
LINE
  5
4CCB6
330
4CAF8
100
AcDbEntity
  8
0
 62
     0
100
AcDbLine
 10
21.51914699999988
 20
267.7722739999999
 30
0.0
 11
22.02227400000006
 21
267.269147
 31
0.0
  0
LINE
  5
4CCB7
330
4CAF8
100
AcDbEntity
  8
0
 62
     0
100
AcDbLine
 10
21.53927699999999
 20
267.8228549999999
 30
0.0
 11
22.07285500000003
 21
267.2892769999999
 31
0.0
  0
LINE
  5
4CCB8
330
4CAF8
100
AcDbEntity
  8
0
 62
     0
100
AcDbLine
 10
21.5647109999999
 20
267.8681320000001
 30
0.0
 11
22.11813199999997
 21
267.314711
 31
0.0
  0
LINE
  5
4CCB9
330
4CAF8
100
AcDbEntity
  8
0
 62
     0
100
AcDbLine
 10
21.59488899999987
 20
267.908664
 30
0.0
 11
22.15866399999995
 21
267.344889
 31
0.0
  0
LINE
  5
4CCBA
330
4CAF8
100
AcDbEntity
  8
0
 62
     0
100
AcDbLine
 10
21.62955000000002
 20
267.9447140000002
 30
0.0
 11
22.19471400000011
 21
267.3795500000001
 31
0.0
  0
LINE
  5
4CCBB
330
4CAF8
100
AcDbEntity
  8
0
 62
     0
100
AcDbLine
 10
21.66865999999995
 20
267.9763149999999
 30
0.0
 11
22.22631500000002
 21
267.4186599999998
 31
0.0
  0
LINE
  5
4CCBC
330
4CAF8
100
AcDbEntity
  8
0
 62
     0
100
AcDbLine
 10
21.71240400000001
 20
268.0032809999998
 30
0.0
 11
22.25328100000015
 21
267.4624039999999
 31
0.0
  0
LINE
  5
4CCBD
330
4CAF8
100
AcDbEntity
  8
0
 62
     0
100
AcDbLine
 10
21.50777600000006
 20
267.5715140000002
 30
0.0
 11
21.82151400000011
 21
267.2577759999999
 31
0.0
  0
LINE
  5
4CCBE
330
4CAF8
100
AcDbEntity
  8
0
 62
     0
100
AcDbLine
 10
21.76123700000007
 20
261.27484
 30
0.0
 11
22.27516000000005
 21
261.788763
 31
0.0
  0
LINE
  5
4CCBF
330
4CAF8
100
AcDbEntity
  8
0
 62
     0
100
AcDbLine
 10
21.81602199999988
 20
261.2589149999999
 30
0.0
 11
22.29108499999997
 21
261.7339780000002
 31
0.0
  0
LINE
  5
4CCC0
330
4CAF8
100
AcDbEntity
  8
0
 62
     0
100
AcDbLine
 10
21.87840099999985
 20
261.2505839999999
 30
0.0
 11
22.29941599999997
 21
261.6715989999998
 31
0.0
  0
LINE
  5
4CCC1
330
4CAF8
100
AcDbEntity
  8
0
 62
     0
100
AcDbLine
 10
21.95191100000002
 20
261.2533830000002
 30
0.0
 11
22.29661699999988
 21
261.5980890000001
 31
0.0
  0
LINE
  5
4CCC2
330
4CAF8
100
AcDbEntity
  8
0
 62
     0
100
AcDbLine
 10
22.04737999999988
 20
261.2781409999998
 30
0.0
 11
22.27185899999986
 21
261.5026200000002
 31
0.0
  0
LINE
  5
4CCC3
330
4CAF8
100
AcDbEntity
  8
0
 62
     0
100
AcDbLine
 10
21.76123700000007
 20
262.0251600000001
 30
0.0
 11
22.27516000000005
 21
261.5112370000002
 31
0.0
  0
LINE
  5
4CCC4
330
4CAF8
100
AcDbEntity
  8
0
 62
     0
100
AcDbLine
 10
21.81602199999988
 20
262.0410849999998
 30
0.0
 11
22.29108499999997
 21
261.566022
 31
0.0
  0
LINE
  5
4CCC5
330
4CAF8
100
AcDbEntity
  8
0
 62
     0
100
AcDbLine
 10
21.87840099999985
 20
262.0494159999998
 30
0.0
 11
22.29941599999997
 21
261.6284009999999
 31
0.0
  0
LINE
  5
4CCC6
330
4CAF8
100
AcDbEntity
  8
0
 62
     0
100
AcDbLine
 10
21.95191100000002
 20
262.046617
 30
0.0
 11
22.29661699999988
 21
261.7019110000001
 31
0.0
  0
LINE
  5
4CCC7
330
4CAF8
100
AcDbEntity
  8
0
 62
     0
100
AcDbLine
 10
22.04737999999988
 20
262.0218589999999
 30
0.0
 11
22.27185899999986
 21
261.79738
 31
0.0
  0
LINE
  5
4CCC8
330
4CAF8
100
AcDbEntity
  8
0
 62
     0
100
AcDbLine
 10
21.76123700000007
 20
255.27484
 30
0.0
 11
22.27516000000005
 21
255.788763
 31
0.0
  0
LINE
  5
4CCC9
330
4CAF8
100
AcDbEntity
  8
0
 62
     0
100
AcDbLine
 10
21.81602199999988
 20
255.2589149999999
 30
0.0
 11
22.29108499999997
 21
255.7339780000002
 31
0.0
  0
LINE
  5
4CCCA
330
4CAF8
100
AcDbEntity
  8
0
 62
     0
100
AcDbLine
 10
21.87840099999985
 20
255.2505839999999
 30
0.0
 11
22.29941599999997
 21
255.6715989999998
 31
0.0
  0
LINE
  5
4CCCB
330
4CAF8
100
AcDbEntity
  8
0
 62
     0
100
AcDbLine
 10
21.95191100000002
 20
255.2533830000002
 30
0.0
 11
22.29661699999988
 21
255.5980890000001
 31
0.0
  0
LINE
  5
4CCCC
330
4CAF8
100
AcDbEntity
  8
0
 62
     0
100
AcDbLine
 10
22.04737999999988
 20
255.2781409999998
 30
0.0
 11
22.27185899999986
 21
255.5026200000002
 31
0.0
  0
LINE
  5
4CCCD
330
4CAF8
100
AcDbEntity
  8
0
 62
     0
100
AcDbLine
 10
21.76123700000007
 20
256.0251600000001
 30
0.0
 11
22.27516000000005
 21
255.5112370000002
 31
0.0
  0
LINE
  5
4CCCE
330
4CAF8
100
AcDbEntity
  8
0
 62
     0
100
AcDbLine
 10
21.81602199999988
 20
256.0410849999998
 30
0.0
 11
22.29108499999997
 21
255.566022
 31
0.0
  0
LINE
  5
4CCCF
330
4CAF8
100
AcDbEntity
  8
0
 62
     0
100
AcDbLine
 10
21.87840099999985
 20
256.0494159999998
 30
0.0
 11
22.29941599999997
 21
255.6284009999999
 31
0.0
  0
LINE
  5
4CCD0
330
4CAF8
100
AcDbEntity
  8
0
 62
     0
100
AcDbLine
 10
21.95191100000002
 20
256.046617
 30
0.0
 11
22.29661699999988
 21
255.7019110000001
 31
0.0
  0
LINE
  5
4CCD1
330
4CAF8
100
AcDbEntity
  8
0
 62
     0
100
AcDbLine
 10
22.04737999999988
 20
256.0218589999999
 30
0.0
 11
22.27185899999986
 21
255.79738
 31
0.0
  0
LINE
  5
4CCD2
330
4CAF8
100
AcDbEntity
  8
0
 62
     0
100
AcDbLine
 10
21.54733999999998
 20
261.838761
 30
0.0
 11
21.71123900000011
 21
262.0026600000001
 31
0.0
  0
LINE
  5
4CCD3
330
4CAF8
100
AcDbEntity
  8
0
 62
     0
100
AcDbLine
 10
21.54733999999998
 20
261.4612390000002
 30
0.0
 11
21.71123900000011
 21
261.2973400000001
 31
0.0
  0
LINE
  5
4CCD4
330
4CAF8
100
AcDbEntity
  8
0
 62
     0
100
AcDbLine
 10
21.54733999999998
 20
255.838761
 30
0.0
 11
21.71123900000011
 21
256.0026600000001
 31
0.0
  0
LINE
  5
4CCD5
330
4CAF8
100
AcDbEntity
  8
0
 62
     0
100
AcDbLine
 10
21.54733999999998
 20
255.4612390000002
 30
0.0
 11
21.71123900000011
 21
255.2973400000001
 31
0.0
  0
LINE
  5
4CCD6
330
4CAF8
100
AcDbEntity
  8
0
 62
     0
100
AcDbLine
 10
21.49999999999991
 20
261.6500000000001
 30
0.0
 11
21.9
 21
262.0500000000002
 31
0.0
  0
LINE
  5
4CCD7
330
4CAF8
100
AcDbEntity
  8
0
 62
     0
100
AcDbLine
 10
21.50777600000006
 20
261.728486
 30
0.0
 11
21.82151400000011
 21
262.0422239999998
 31
0.0
  0
LINE
  5
4CCD8
330
4CAF8
100
AcDbEntity
  8
0
 62
     0
100
AcDbLine
 10
21.50537199999999
 20
261.5846620000002
 30
0.0
 11
21.96533799999988
 21
262.0446280000001
 31
0.0
  0
LINE
  5
4CCD9
330
4CAF8
100
AcDbEntity
  8
0
 62
     0
100
AcDbLine
 10
21.51914699999988
 20
261.5277259999998
 30
0.0
 11
22.02227400000006
 21
262.0308530000002
 31
0.0
  0
LINE
  5
4CCDA
330
4CAF8
100
AcDbEntity
  8
0
 62
     0
100
AcDbLine
 10
21.53927699999999
 20
261.4771449999998
 30
0.0
 11
22.07285500000003
 21
262.0107229999999
 31
0.0
  0
LINE
  5
4CCDB
330
4CAF8
100
AcDbEntity
  8
0
 62
     0
100
AcDbLine
 10
21.5647109999999
 20
261.4318680000001
 30
0.0
 11
22.11813199999997
 21
261.9852890000002
 31
0.0
  0
LINE
  5
4CCDC
330
4CAF8
100
AcDbEntity
  8
0
 62
     0
100
AcDbLine
 10
21.59488899999987
 20
261.3913360000001
 30
0.0
 11
22.15866399999995
 21
261.9551110000002
 31
0.0
  0
LINE
  5
4CCDD
330
4CAF8
100
AcDbEntity
  8
0
 62
     0
100
AcDbLine
 10
21.62955000000002
 20
261.355286
 30
0.0
 11
22.19471400000011
 21
261.9204500000001
 31
0.0
  0
LINE
  5
4CCDE
330
4CAF8
100
AcDbEntity
  8
0
 62
     0
100
AcDbLine
 10
21.66865999999995
 20
261.3236849999998
 30
0.0
 11
22.22631500000002
 21
261.8813399999999
 31
0.0
  0
LINE
  5
4CCDF
330
4CAF8
100
AcDbEntity
  8
0
 62
     0
100
AcDbLine
 10
21.71240400000001
 20
261.2967189999999
 30
0.0
 11
22.25328100000015
 21
261.8375959999998
 31
0.0
  0
LINE
  5
4CCE0
330
4CAF8
100
AcDbEntity
  8
0
 62
     0
100
AcDbLine
 10
21.49999999999991
 20
261.6500000000001
 30
0.0
 11
21.9
 21
261.25
 31
0.0
  0
LINE
  5
4CCE1
330
4CAF8
100
AcDbEntity
  8
0
 62
     0
100
AcDbLine
 10
21.50537199999999
 20
261.715338
 30
0.0
 11
21.96533799999988
 21
261.2553720000001
 31
0.0
  0
LINE
  5
4CCE2
330
4CAF8
100
AcDbEntity
  8
0
 62
     0
100
AcDbLine
 10
21.51914699999988
 20
261.7722739999999
 30
0.0
 11
22.02227400000006
 21
261.269147
 31
0.0
  0
LINE
  5
4CCE3
330
4CAF8
100
AcDbEntity
  8
0
 62
     0
100
AcDbLine
 10
21.53927699999999
 20
261.8228549999999
 30
0.0
 11
22.07285500000003
 21
261.2892769999999
 31
0.0
  0
LINE
  5
4CCE4
330
4CAF8
100
AcDbEntity
  8
0
 62
     0
100
AcDbLine
 10
21.5647109999999
 20
261.8681320000001
 30
0.0
 11
22.11813199999997
 21
261.314711
 31
0.0
  0
LINE
  5
4CCE5
330
4CAF8
100
AcDbEntity
  8
0
 62
     0
100
AcDbLine
 10
21.59488899999987
 20
261.908664
 30
0.0
 11
22.15866399999995
 21
261.344889
 31
0.0
  0
LINE
  5
4CCE6
330
4CAF8
100
AcDbEntity
  8
0
 62
     0
100
AcDbLine
 10
21.62955000000002
 20
261.9447140000002
 30
0.0
 11
22.19471400000011
 21
261.3795500000001
 31
0.0
  0
LINE
  5
4CCE7
330
4CAF8
100
AcDbEntity
  8
0
 62
     0
100
AcDbLine
 10
21.66865999999995
 20
261.9763149999999
 30
0.0
 11
22.22631500000002
 21
261.4186599999998
 31
0.0
  0
LINE
  5
4CCE8
330
4CAF8
100
AcDbEntity
  8
0
 62
     0
100
AcDbLine
 10
21.71240400000001
 20
262.0032809999998
 30
0.0
 11
22.25328100000015
 21
261.4624039999999
 31
0.0
  0
LINE
  5
4CCE9
330
4CAF8
100
AcDbEntity
  8
0
 62
     0
100
AcDbLine
 10
21.50777600000006
 20
261.5715140000002
 30
0.0
 11
21.82151400000011
 21
261.2577759999999
 31
0.0
  0
LINE
  5
4CCEA
330
4CAF8
100
AcDbEntity
  8
0
 62
     0
100
AcDbLine
 10
21.49999999999991
 20
255.6500000000001
 30
0.0
 11
21.9
 21
256.0500000000002
 31
0.0
  0
LINE
  5
4CCEB
330
4CAF8
100
AcDbEntity
  8
0
 62
     0
100
AcDbLine
 10
21.50777600000006
 20
255.728486
 30
0.0
 11
21.82151400000011
 21
256.0422239999998
 31
0.0
  0
LINE
  5
4CCEC
330
4CAF8
100
AcDbEntity
  8
0
 62
     0
100
AcDbLine
 10
21.50537199999999
 20
255.5846620000002
 30
0.0
 11
21.96533799999988
 21
256.0446280000001
 31
0.0
  0
LINE
  5
4CCED
330
4CAF8
100
AcDbEntity
  8
0
 62
     0
100
AcDbLine
 10
21.51914699999988
 20
255.5277259999998
 30
0.0
 11
22.02227400000006
 21
256.0308530000002
 31
0.0
  0
LINE
  5
4CCEE
330
4CAF8
100
AcDbEntity
  8
0
 62
     0
100
AcDbLine
 10
21.53927699999999
 20
255.4771449999998
 30
0.0
 11
22.07285500000003
 21
256.0107229999999
 31
0.0
  0
LINE
  5
4CCEF
330
4CAF8
100
AcDbEntity
  8
0
 62
     0
100
AcDbLine
 10
21.5647109999999
 20
255.4318680000001
 30
0.0
 11
22.11813199999997
 21
255.9852890000002
 31
0.0
  0
LINE
  5
4CCF0
330
4CAF8
100
AcDbEntity
  8
0
 62
     0
100
AcDbLine
 10
21.59488899999987
 20
255.3913360000001
 30
0.0
 11
22.15866399999995
 21
255.9551110000002
 31
0.0
  0
LINE
  5
4CCF1
330
4CAF8
100
AcDbEntity
  8
0
 62
     0
100
AcDbLine
 10
21.62955000000002
 20
255.355286
 30
0.0
 11
22.19471400000011
 21
255.9204500000001
 31
0.0
  0
LINE
  5
4CCF2
330
4CAF8
100
AcDbEntity
  8
0
 62
     0
100
AcDbLine
 10
21.66865999999995
 20
255.3236849999998
 30
0.0
 11
22.22631500000002
 21
255.8813399999999
 31
0.0
  0
LINE
  5
4CCF3
330
4CAF8
100
AcDbEntity
  8
0
 62
     0
100
AcDbLine
 10
21.71240400000001
 20
255.2967189999999
 30
0.0
 11
22.25328100000015
 21
255.8375959999998
 31
0.0
  0
LINE
  5
4CCF4
330
4CAF8
100
AcDbEntity
  8
0
 62
     0
100
AcDbLine
 10
21.49999999999991
 20
255.6500000000001
 30
0.0
 11
21.9
 21
255.25
 31
0.0
  0
LINE
  5
4CCF5
330
4CAF8
100
AcDbEntity
  8
0
 62
     0
100
AcDbLine
 10
21.50537199999999
 20
255.715338
 30
0.0
 11
21.96533799999988
 21
255.2553720000001
 31
0.0
  0
LINE
  5
4CCF6
330
4CAF8
100
AcDbEntity
  8
0
 62
     0
100
AcDbLine
 10
21.51914699999988
 20
255.7722739999999
 30
0.0
 11
22.02227400000006
 21
255.269147
 31
0.0
  0
LINE
  5
4CCF7
330
4CAF8
100
AcDbEntity
  8
0
 62
     0
100
AcDbLine
 10
21.53927699999999
 20
255.8228549999999
 30
0.0
 11
22.07285500000003
 21
255.2892769999999
 31
0.0
  0
LINE
  5
4CCF8
330
4CAF8
100
AcDbEntity
  8
0
 62
     0
100
AcDbLine
 10
21.5647109999999
 20
255.8681320000001
 30
0.0
 11
22.11813199999997
 21
255.314711
 31
0.0
  0
LINE
  5
4CCF9
330
4CAF8
100
AcDbEntity
  8
0
 62
     0
100
AcDbLine
 10
21.59488899999987
 20
255.908664
 30
0.0
 11
22.15866399999995
 21
255.344889
 31
0.0
  0
LINE
  5
4CCFA
330
4CAF8
100
AcDbEntity
  8
0
 62
     0
100
AcDbLine
 10
21.62955000000002
 20
255.9447140000002
 30
0.0
 11
22.19471400000011
 21
255.3795500000001
 31
0.0
  0
LINE
  5
4CCFB
330
4CAF8
100
AcDbEntity
  8
0
 62
     0
100
AcDbLine
 10
21.66865999999995
 20
255.9763149999999
 30
0.0
 11
22.22631500000002
 21
255.4186599999998
 31
0.0
  0
LINE
  5
4CCFC
330
4CAF8
100
AcDbEntity
  8
0
 62
     0
100
AcDbLine
 10
21.71240400000001
 20
256.0032809999998
 30
0.0
 11
22.25328100000015
 21
255.4624039999999
 31
0.0
  0
LINE
  5
4CCFD
330
4CAF8
100
AcDbEntity
  8
0
 62
     0
100
AcDbLine
 10
21.50777600000006
 20
255.5715140000002
 30
0.0
 11
21.82151400000011
 21
255.2577759999999
 31
0.0
  0
LINE
  5
4CCFE
330
4CAF8
100
AcDbEntity
  8
0
 62
     0
100
AcDbLine
 10
21.76123700000007
 20
249.27484
 30
0.0
 11
22.27516000000005
 21
249.788763
 31
0.0
  0
LINE
  5
4CCFF
330
4CAF8
100
AcDbEntity
  8
0
 62
     0
100
AcDbLine
 10
21.81602199999988
 20
249.2589149999999
 30
0.0
 11
22.29108499999997
 21
249.7339780000002
 31
0.0
  0
LINE
  5
4CD00
330
4CAF8
100
AcDbEntity
  8
0
 62
     0
100
AcDbLine
 10
21.87840099999985
 20
249.2505839999999
 30
0.0
 11
22.29941599999997
 21
249.6715989999998
 31
0.0
  0
LINE
  5
4CD01
330
4CAF8
100
AcDbEntity
  8
0
 62
     0
100
AcDbLine
 10
21.95191100000002
 20
249.2533830000002
 30
0.0
 11
22.29661699999988
 21
249.5980890000001
 31
0.0
  0
LINE
  5
4CD02
330
4CAF8
100
AcDbEntity
  8
0
 62
     0
100
AcDbLine
 10
22.04737999999988
 20
249.2781409999998
 30
0.0
 11
22.27185899999986
 21
249.5026200000002
 31
0.0
  0
LINE
  5
4CD03
330
4CAF8
100
AcDbEntity
  8
0
 62
     0
100
AcDbLine
 10
21.76123700000007
 20
250.0251600000001
 30
0.0
 11
22.27516000000005
 21
249.5112370000002
 31
0.0
  0
LINE
  5
4CD04
330
4CAF8
100
AcDbEntity
  8
0
 62
     0
100
AcDbLine
 10
21.81602199999988
 20
250.0410849999998
 30
0.0
 11
22.29108499999997
 21
249.566022
 31
0.0
  0
LINE
  5
4CD05
330
4CAF8
100
AcDbEntity
  8
0
 62
     0
100
AcDbLine
 10
21.87840099999985
 20
250.0494159999998
 30
0.0
 11
22.29941599999997
 21
249.6284009999999
 31
0.0
  0
LINE
  5
4CD06
330
4CAF8
100
AcDbEntity
  8
0
 62
     0
100
AcDbLine
 10
21.95191100000002
 20
250.046617
 30
0.0
 11
22.29661699999988
 21
249.7019110000001
 31
0.0
  0
LINE
  5
4CD07
330
4CAF8
100
AcDbEntity
  8
0
 62
     0
100
AcDbLine
 10
22.04737999999988
 20
250.0218589999999
 30
0.0
 11
22.27185899999986
 21
249.79738
 31
0.0
  0
LINE
  5
4CD08
330
4CAF8
100
AcDbEntity
  8
0
 62
     0
100
AcDbLine
 10
21.76123700000007
 20
243.27484
 30
0.0
 11
22.27516000000005
 21
243.788763
 31
0.0
  0
LINE
  5
4CD09
330
4CAF8
100
AcDbEntity
  8
0
 62
     0
100
AcDbLine
 10
21.81602199999988
 20
243.2589149999999
 30
0.0
 11
22.29108499999997
 21
243.7339780000002
 31
0.0
  0
LINE
  5
4CD0A
330
4CAF8
100
AcDbEntity
  8
0
 62
     0
100
AcDbLine
 10
21.87840099999985
 20
243.2505839999999
 30
0.0
 11
22.29941599999997
 21
243.6715989999998
 31
0.0
  0
LINE
  5
4CD0B
330
4CAF8
100
AcDbEntity
  8
0
 62
     0
100
AcDbLine
 10
21.95191100000002
 20
243.2533830000002
 30
0.0
 11
22.29661699999988
 21
243.5980890000001
 31
0.0
  0
LINE
  5
4CD0C
330
4CAF8
100
AcDbEntity
  8
0
 62
     0
100
AcDbLine
 10
22.04737999999988
 20
243.2781409999998
 30
0.0
 11
22.27185899999986
 21
243.5026200000002
 31
0.0
  0
LINE
  5
4CD0D
330
4CAF8
100
AcDbEntity
  8
0
 62
     0
100
AcDbLine
 10
21.76123700000007
 20
244.0251600000001
 30
0.0
 11
22.27516000000005
 21
243.5112370000002
 31
0.0
  0
LINE
  5
4CD0E
330
4CAF8
100
AcDbEntity
  8
0
 62
     0
100
AcDbLine
 10
21.81602199999988
 20
244.0410849999998
 30
0.0
 11
22.29108499999997
 21
243.566022
 31
0.0
  0
LINE
  5
4CD0F
330
4CAF8
100
AcDbEntity
  8
0
 62
     0
100
AcDbLine
 10
21.87840099999985
 20
244.0494159999998
 30
0.0
 11
22.29941599999997
 21
243.6284009999999
 31
0.0
  0
LINE
  5
4CD10
330
4CAF8
100
AcDbEntity
  8
0
 62
     0
100
AcDbLine
 10
21.95191100000002
 20
244.046617
 30
0.0
 11
22.29661699999988
 21
243.7019110000001
 31
0.0
  0
LINE
  5
4CD11
330
4CAF8
100
AcDbEntity
  8
0
 62
     0
100
AcDbLine
 10
22.04737999999988
 20
244.0218589999999
 30
0.0
 11
22.27185899999986
 21
243.79738
 31
0.0
  0
LINE
  5
4CD12
330
4CAF8
100
AcDbEntity
  8
0
 62
     0
100
AcDbLine
 10
21.54733999999998
 20
249.838761
 30
0.0
 11
21.71123900000011
 21
250.0026600000001
 31
0.0
  0
LINE
  5
4CD13
330
4CAF8
100
AcDbEntity
  8
0
 62
     0
100
AcDbLine
 10
21.54733999999998
 20
249.4612390000002
 30
0.0
 11
21.71123900000011
 21
249.2973400000001
 31
0.0
  0
LINE
  5
4CD14
330
4CAF8
100
AcDbEntity
  8
0
 62
     0
100
AcDbLine
 10
21.54733999999998
 20
243.838761
 30
0.0
 11
21.71123900000011
 21
244.0026600000001
 31
0.0
  0
LINE
  5
4CD15
330
4CAF8
100
AcDbEntity
  8
0
 62
     0
100
AcDbLine
 10
21.54733999999998
 20
243.4612390000002
 30
0.0
 11
21.71123900000011
 21
243.2973400000001
 31
0.0
  0
LINE
  5
4CD16
330
4CAF8
100
AcDbEntity
  8
0
 62
     0
100
AcDbLine
 10
21.49999999999991
 20
249.6500000000001
 30
0.0
 11
21.9
 21
250.0500000000002
 31
0.0
  0
LINE
  5
4CD17
330
4CAF8
100
AcDbEntity
  8
0
 62
     0
100
AcDbLine
 10
21.50777600000006
 20
249.728486
 30
0.0
 11
21.82151400000011
 21
250.0422239999998
 31
0.0
  0
LINE
  5
4CD18
330
4CAF8
100
AcDbEntity
  8
0
 62
     0
100
AcDbLine
 10
21.50537199999999
 20
249.5846620000002
 30
0.0
 11
21.96533799999988
 21
250.0446280000001
 31
0.0
  0
LINE
  5
4CD19
330
4CAF8
100
AcDbEntity
  8
0
 62
     0
100
AcDbLine
 10
21.51914699999988
 20
249.5277259999998
 30
0.0
 11
22.02227400000006
 21
250.0308530000002
 31
0.0
  0
LINE
  5
4CD1A
330
4CAF8
100
AcDbEntity
  8
0
 62
     0
100
AcDbLine
 10
21.53927699999999
 20
249.4771449999998
 30
0.0
 11
22.07285500000003
 21
250.0107229999999
 31
0.0
  0
LINE
  5
4CD1B
330
4CAF8
100
AcDbEntity
  8
0
 62
     0
100
AcDbLine
 10
21.5647109999999
 20
249.4318680000001
 30
0.0
 11
22.11813199999997
 21
249.9852890000002
 31
0.0
  0
LINE
  5
4CD1C
330
4CAF8
100
AcDbEntity
  8
0
 62
     0
100
AcDbLine
 10
21.59488899999987
 20
249.3913360000001
 30
0.0
 11
22.15866399999995
 21
249.9551110000002
 31
0.0
  0
LINE
  5
4CD1D
330
4CAF8
100
AcDbEntity
  8
0
 62
     0
100
AcDbLine
 10
21.62955000000002
 20
249.355286
 30
0.0
 11
22.19471400000011
 21
249.9204500000001
 31
0.0
  0
LINE
  5
4CD1E
330
4CAF8
100
AcDbEntity
  8
0
 62
     0
100
AcDbLine
 10
21.66865999999995
 20
249.3236849999998
 30
0.0
 11
22.22631500000002
 21
249.8813399999999
 31
0.0
  0
LINE
  5
4CD1F
330
4CAF8
100
AcDbEntity
  8
0
 62
     0
100
AcDbLine
 10
21.71240400000001
 20
249.2967189999999
 30
0.0
 11
22.25328100000015
 21
249.8375959999998
 31
0.0
  0
LINE
  5
4CD20
330
4CAF8
100
AcDbEntity
  8
0
 62
     0
100
AcDbLine
 10
21.49999999999991
 20
249.6500000000001
 30
0.0
 11
21.9
 21
249.25
 31
0.0
  0
LINE
  5
4CD21
330
4CAF8
100
AcDbEntity
  8
0
 62
     0
100
AcDbLine
 10
21.50537199999999
 20
249.715338
 30
0.0
 11
21.96533799999988
 21
249.2553720000001
 31
0.0
  0
LINE
  5
4CD22
330
4CAF8
100
AcDbEntity
  8
0
 62
     0
100
AcDbLine
 10
21.51914699999988
 20
249.7722739999999
 30
0.0
 11
22.02227400000006
 21
249.269147
 31
0.0
  0
LINE
  5
4CD23
330
4CAF8
100
AcDbEntity
  8
0
 62
     0
100
AcDbLine
 10
21.53927699999999
 20
249.8228549999999
 30
0.0
 11
22.07285500000003
 21
249.2892769999999
 31
0.0
  0
LINE
  5
4CD24
330
4CAF8
100
AcDbEntity
  8
0
 62
     0
100
AcDbLine
 10
21.5647109999999
 20
249.8681320000001
 30
0.0
 11
22.11813199999997
 21
249.314711
 31
0.0
  0
LINE
  5
4CD25
330
4CAF8
100
AcDbEntity
  8
0
 62
     0
100
AcDbLine
 10
21.59488899999987
 20
249.908664
 30
0.0
 11
22.15866399999995
 21
249.344889
 31
0.0
  0
LINE
  5
4CD26
330
4CAF8
100
AcDbEntity
  8
0
 62
     0
100
AcDbLine
 10
21.62955000000002
 20
249.9447140000002
 30
0.0
 11
22.19471400000011
 21
249.3795500000001
 31
0.0
  0
LINE
  5
4CD27
330
4CAF8
100
AcDbEntity
  8
0
 62
     0
100
AcDbLine
 10
21.66865999999995
 20
249.9763149999999
 30
0.0
 11
22.22631500000002
 21
249.4186599999998
 31
0.0
  0
LINE
  5
4CD28
330
4CAF8
100
AcDbEntity
  8
0
 62
     0
100
AcDbLine
 10
21.71240400000001
 20
250.0032809999998
 30
0.0
 11
22.25328100000015
 21
249.4624039999999
 31
0.0
  0
LINE
  5
4CD29
330
4CAF8
100
AcDbEntity
  8
0
 62
     0
100
AcDbLine
 10
21.50777600000006
 20
249.5715140000002
 30
0.0
 11
21.82151400000011
 21
249.2577759999999
 31
0.0
  0
LINE
  5
4CD2A
330
4CAF8
100
AcDbEntity
  8
0
 62
     0
100
AcDbLine
 10
21.49999999999991
 20
243.6500000000001
 30
0.0
 11
21.9
 21
244.0500000000002
 31
0.0
  0
LINE
  5
4CD2B
330
4CAF8
100
AcDbEntity
  8
0
 62
     0
100
AcDbLine
 10
21.50777600000006
 20
243.728486
 30
0.0
 11
21.82151400000011
 21
244.0422239999998
 31
0.0
  0
LINE
  5
4CD2C
330
4CAF8
100
AcDbEntity
  8
0
 62
     0
100
AcDbLine
 10
21.50537199999999
 20
243.5846620000002
 30
0.0
 11
21.96533799999988
 21
244.0446280000001
 31
0.0
  0
LINE
  5
4CD2D
330
4CAF8
100
AcDbEntity
  8
0
 62
     0
100
AcDbLine
 10
21.51914699999988
 20
243.5277259999998
 30
0.0
 11
22.02227400000006
 21
244.0308530000002
 31
0.0
  0
LINE
  5
4CD2E
330
4CAF8
100
AcDbEntity
  8
0
 62
     0
100
AcDbLine
 10
21.53927699999999
 20
243.4771449999998
 30
0.0
 11
22.07285500000003
 21
244.0107229999999
 31
0.0
  0
LINE
  5
4CD2F
330
4CAF8
100
AcDbEntity
  8
0
 62
     0
100
AcDbLine
 10
21.5647109999999
 20
243.4318680000001
 30
0.0
 11
22.11813199999997
 21
243.9852890000002
 31
0.0
  0
LINE
  5
4CD30
330
4CAF8
100
AcDbEntity
  8
0
 62
     0
100
AcDbLine
 10
21.59488899999987
 20
243.3913360000001
 30
0.0
 11
22.15866399999995
 21
243.9551110000002
 31
0.0
  0
LINE
  5
4CD31
330
4CAF8
100
AcDbEntity
  8
0
 62
     0
100
AcDbLine
 10
21.62955000000002
 20
243.355286
 30
0.0
 11
22.19471400000011
 21
243.9204500000001
 31
0.0
  0
LINE
  5
4CD32
330
4CAF8
100
AcDbEntity
  8
0
 62
     0
100
AcDbLine
 10
21.66865999999995
 20
243.3236849999998
 30
0.0
 11
22.22631500000002
 21
243.8813399999999
 31
0.0
  0
LINE
  5
4CD33
330
4CAF8
100
AcDbEntity
  8
0
 62
     0
100
AcDbLine
 10
21.71240400000001
 20
243.2967189999999
 30
0.0
 11
22.25328100000015
 21
243.8375959999998
 31
0.0
  0
LINE
  5
4CD34
330
4CAF8
100
AcDbEntity
  8
0
 62
     0
100
AcDbLine
 10
21.49999999999991
 20
243.6500000000001
 30
0.0
 11
21.9
 21
243.25
 31
0.0
  0
LINE
  5
4CD35
330
4CAF8
100
AcDbEntity
  8
0
 62
     0
100
AcDbLine
 10
21.50537199999999
 20
243.715338
 30
0.0
 11
21.96533799999988
 21
243.2553720000001
 31
0.0
  0
LINE
  5
4CD36
330
4CAF8
100
AcDbEntity
  8
0
 62
     0
100
AcDbLine
 10
21.51914699999988
 20
243.7722739999999
 30
0.0
 11
22.02227400000006
 21
243.269147
 31
0.0
  0
LINE
  5
4CD37
330
4CAF8
100
AcDbEntity
  8
0
 62
     0
100
AcDbLine
 10
21.53927699999999
 20
243.8228549999999
 30
0.0
 11
22.07285500000003
 21
243.2892769999999
 31
0.0
  0
LINE
  5
4CD38
330
4CAF8
100
AcDbEntity
  8
0
 62
     0
100
AcDbLine
 10
21.5647109999999
 20
243.8681320000001
 30
0.0
 11
22.11813199999997
 21
243.314711
 31
0.0
  0
LINE
  5
4CD39
330
4CAF8
100
AcDbEntity
  8
0
 62
     0
100
AcDbLine
 10
21.59488899999987
 20
243.908664
 30
0.0
 11
22.15866399999995
 21
243.344889
 31
0.0
  0
LINE
  5
4CD3A
330
4CAF8
100
AcDbEntity
  8
0
 62
     0
100
AcDbLine
 10
21.62955000000002
 20
243.9447140000002
 30
0.0
 11
22.19471400000011
 21
243.3795500000001
 31
0.0
  0
LINE
  5
4CD3B
330
4CAF8
100
AcDbEntity
  8
0
 62
     0
100
AcDbLine
 10
21.66865999999995
 20
243.9763149999999
 30
0.0
 11
22.22631500000002
 21
243.4186599999998
 31
0.0
  0
LINE
  5
4CD3C
330
4CAF8
100
AcDbEntity
  8
0
 62
     0
100
AcDbLine
 10
21.71240400000001
 20
244.0032809999998
 30
0.0
 11
22.25328100000015
 21
243.4624039999999
 31
0.0
  0
LINE
  5
4CD3D
330
4CAF8
100
AcDbEntity
  8
0
 62
     0
100
AcDbLine
 10
21.50777600000006
 20
243.5715140000002
 30
0.0
 11
21.82151400000011
 21
243.2577759999999
 31
0.0
  0
LINE
  5
4CD3E
330
4CAF8
100
AcDbEntity
  8
0
 62
     0
100
AcDbLine
 10
21.76123700000007
 20
237.27484
 30
0.0
 11
22.27516000000005
 21
237.788763
 31
0.0
  0
LINE
  5
4CD3F
330
4CAF8
100
AcDbEntity
  8
0
 62
     0
100
AcDbLine
 10
21.81602199999988
 20
237.2589149999999
 30
0.0
 11
22.29108499999997
 21
237.7339780000002
 31
0.0
  0
LINE
  5
4CD40
330
4CAF8
100
AcDbEntity
  8
0
 62
     0
100
AcDbLine
 10
21.87840099999985
 20
237.2505839999999
 30
0.0
 11
22.29941599999997
 21
237.6715989999998
 31
0.0
  0
LINE
  5
4CD41
330
4CAF8
100
AcDbEntity
  8
0
 62
     0
100
AcDbLine
 10
21.95191100000002
 20
237.2533830000002
 30
0.0
 11
22.29661699999988
 21
237.5980890000001
 31
0.0
  0
LINE
  5
4CD42
330
4CAF8
100
AcDbEntity
  8
0
 62
     0
100
AcDbLine
 10
22.04737999999988
 20
237.2781409999998
 30
0.0
 11
22.27185899999986
 21
237.5026200000002
 31
0.0
  0
LINE
  5
4CD43
330
4CAF8
100
AcDbEntity
  8
0
 62
     0
100
AcDbLine
 10
21.76123700000007
 20
238.0251600000001
 30
0.0
 11
22.27516000000005
 21
237.5112370000002
 31
0.0
  0
LINE
  5
4CD44
330
4CAF8
100
AcDbEntity
  8
0
 62
     0
100
AcDbLine
 10
21.81602199999988
 20
238.0410849999998
 30
0.0
 11
22.29108499999997
 21
237.566022
 31
0.0
  0
LINE
  5
4CD45
330
4CAF8
100
AcDbEntity
  8
0
 62
     0
100
AcDbLine
 10
21.87840099999985
 20
238.0494159999998
 30
0.0
 11
22.29941599999997
 21
237.6284009999999
 31
0.0
  0
LINE
  5
4CD46
330
4CAF8
100
AcDbEntity
  8
0
 62
     0
100
AcDbLine
 10
21.95191100000002
 20
238.046617
 30
0.0
 11
22.29661699999988
 21
237.7019110000001
 31
0.0
  0
LINE
  5
4CD47
330
4CAF8
100
AcDbEntity
  8
0
 62
     0
100
AcDbLine
 10
22.04737999999988
 20
238.0218589999999
 30
0.0
 11
22.27185899999986
 21
237.79738
 31
0.0
  0
LINE
  5
4CD48
330
4CAF8
100
AcDbEntity
  8
0
 62
     0
100
AcDbLine
 10
21.76123700000007
 20
231.27484
 30
0.0
 11
22.27516000000005
 21
231.788763
 31
0.0
  0
LINE
  5
4CD49
330
4CAF8
100
AcDbEntity
  8
0
 62
     0
100
AcDbLine
 10
21.81602199999988
 20
231.2589149999999
 30
0.0
 11
22.29108499999997
 21
231.7339780000002
 31
0.0
  0
LINE
  5
4CD4A
330
4CAF8
100
AcDbEntity
  8
0
 62
     0
100
AcDbLine
 10
21.87840099999985
 20
231.2505839999999
 30
0.0
 11
22.29941599999997
 21
231.6715989999998
 31
0.0
  0
LINE
  5
4CD4B
330
4CAF8
100
AcDbEntity
  8
0
 62
     0
100
AcDbLine
 10
21.95191100000002
 20
231.2533830000002
 30
0.0
 11
22.29661699999988
 21
231.5980890000001
 31
0.0
  0
LINE
  5
4CD4C
330
4CAF8
100
AcDbEntity
  8
0
 62
     0
100
AcDbLine
 10
22.04737999999988
 20
231.2781409999998
 30
0.0
 11
22.27185899999986
 21
231.5026200000002
 31
0.0
  0
LINE
  5
4CD4D
330
4CAF8
100
AcDbEntity
  8
0
 62
     0
100
AcDbLine
 10
21.76123700000007
 20
232.0251600000001
 30
0.0
 11
22.27516000000005
 21
231.5112370000002
 31
0.0
  0
LINE
  5
4CD4E
330
4CAF8
100
AcDbEntity
  8
0
 62
     0
100
AcDbLine
 10
21.81602199999988
 20
232.0410849999998
 30
0.0
 11
22.29108499999997
 21
231.566022
 31
0.0
  0
LINE
  5
4CD4F
330
4CAF8
100
AcDbEntity
  8
0
 62
     0
100
AcDbLine
 10
21.87840099999985
 20
232.0494159999998
 30
0.0
 11
22.29941599999997
 21
231.6284009999999
 31
0.0
  0
LINE
  5
4CD50
330
4CAF8
100
AcDbEntity
  8
0
 62
     0
100
AcDbLine
 10
21.95191100000002
 20
232.046617
 30
0.0
 11
22.29661699999988
 21
231.7019110000001
 31
0.0
  0
LINE
  5
4CD51
330
4CAF8
100
AcDbEntity
  8
0
 62
     0
100
AcDbLine
 10
22.04737999999988
 20
232.0218589999999
 30
0.0
 11
22.27185899999986
 21
231.79738
 31
0.0
  0
LINE
  5
4CD52
330
4CAF8
100
AcDbEntity
  8
0
 62
     0
100
AcDbLine
 10
21.54733999999998
 20
237.838761
 30
0.0
 11
21.71123900000011
 21
238.0026600000001
 31
0.0
  0
LINE
  5
4CD53
330
4CAF8
100
AcDbEntity
  8
0
 62
     0
100
AcDbLine
 10
21.54733999999998
 20
237.4612390000002
 30
0.0
 11
21.71123900000011
 21
237.2973400000001
 31
0.0
  0
LINE
  5
4CD54
330
4CAF8
100
AcDbEntity
  8
0
 62
     0
100
AcDbLine
 10
21.54733999999998
 20
231.838761
 30
0.0
 11
21.71123900000011
 21
232.0026600000001
 31
0.0
  0
LINE
  5
4CD55
330
4CAF8
100
AcDbEntity
  8
0
 62
     0
100
AcDbLine
 10
21.54733999999998
 20
231.4612390000002
 30
0.0
 11
21.71123900000011
 21
231.2973400000001
 31
0.0
  0
LINE
  5
4CD56
330
4CAF8
100
AcDbEntity
  8
0
 62
     0
100
AcDbLine
 10
21.49999999999991
 20
237.6500000000001
 30
0.0
 11
21.9
 21
238.0500000000002
 31
0.0
  0
LINE
  5
4CD57
330
4CAF8
100
AcDbEntity
  8
0
 62
     0
100
AcDbLine
 10
21.50777600000006
 20
237.728486
 30
0.0
 11
21.82151400000011
 21
238.0422239999998
 31
0.0
  0
LINE
  5
4CD58
330
4CAF8
100
AcDbEntity
  8
0
 62
     0
100
AcDbLine
 10
21.50537199999999
 20
237.5846620000002
 30
0.0
 11
21.96533799999988
 21
238.0446280000001
 31
0.0
  0
LINE
  5
4CD59
330
4CAF8
100
AcDbEntity
  8
0
 62
     0
100
AcDbLine
 10
21.51914699999988
 20
237.5277259999998
 30
0.0
 11
22.02227400000006
 21
238.0308530000002
 31
0.0
  0
LINE
  5
4CD5A
330
4CAF8
100
AcDbEntity
  8
0
 62
     0
100
AcDbLine
 10
21.53927699999999
 20
237.4771449999998
 30
0.0
 11
22.07285500000003
 21
238.0107229999999
 31
0.0
  0
LINE
  5
4CD5B
330
4CAF8
100
AcDbEntity
  8
0
 62
     0
100
AcDbLine
 10
21.5647109999999
 20
237.4318680000001
 30
0.0
 11
22.11813199999997
 21
237.9852890000002
 31
0.0
  0
LINE
  5
4CD5C
330
4CAF8
100
AcDbEntity
  8
0
 62
     0
100
AcDbLine
 10
21.59488899999987
 20
237.3913360000001
 30
0.0
 11
22.15866399999995
 21
237.9551110000002
 31
0.0
  0
LINE
  5
4CD5D
330
4CAF8
100
AcDbEntity
  8
0
 62
     0
100
AcDbLine
 10
21.62955000000002
 20
237.355286
 30
0.0
 11
22.19471400000011
 21
237.9204500000001
 31
0.0
  0
LINE
  5
4CD5E
330
4CAF8
100
AcDbEntity
  8
0
 62
     0
100
AcDbLine
 10
21.66865999999995
 20
237.3236849999998
 30
0.0
 11
22.22631500000002
 21
237.8813399999999
 31
0.0
  0
LINE
  5
4CD5F
330
4CAF8
100
AcDbEntity
  8
0
 62
     0
100
AcDbLine
 10
21.71240400000001
 20
237.2967189999999
 30
0.0
 11
22.25328100000015
 21
237.8375959999998
 31
0.0
  0
LINE
  5
4CD60
330
4CAF8
100
AcDbEntity
  8
0
 62
     0
100
AcDbLine
 10
21.49999999999991
 20
237.6500000000001
 30
0.0
 11
21.9
 21
237.25
 31
0.0
  0
LINE
  5
4CD61
330
4CAF8
100
AcDbEntity
  8
0
 62
     0
100
AcDbLine
 10
21.50537199999999
 20
237.715338
 30
0.0
 11
21.96533799999988
 21
237.2553720000001
 31
0.0
  0
LINE
  5
4CD62
330
4CAF8
100
AcDbEntity
  8
0
 62
     0
100
AcDbLine
 10
21.51914699999988
 20
237.7722739999999
 30
0.0
 11
22.02227400000006
 21
237.269147
 31
0.0
  0
LINE
  5
4CD63
330
4CAF8
100
AcDbEntity
  8
0
 62
     0
100
AcDbLine
 10
21.53927699999999
 20
237.8228549999999
 30
0.0
 11
22.07285500000003
 21
237.2892769999999
 31
0.0
  0
LINE
  5
4CD64
330
4CAF8
100
AcDbEntity
  8
0
 62
     0
100
AcDbLine
 10
21.5647109999999
 20
237.8681320000001
 30
0.0
 11
22.11813199999997
 21
237.314711
 31
0.0
  0
LINE
  5
4CD65
330
4CAF8
100
AcDbEntity
  8
0
 62
     0
100
AcDbLine
 10
21.59488899999987
 20
237.908664
 30
0.0
 11
22.15866399999995
 21
237.344889
 31
0.0
  0
LINE
  5
4CD66
330
4CAF8
100
AcDbEntity
  8
0
 62
     0
100
AcDbLine
 10
21.62955000000002
 20
237.9447140000002
 30
0.0
 11
22.19471400000011
 21
237.3795500000001
 31
0.0
  0
LINE
  5
4CD67
330
4CAF8
100
AcDbEntity
  8
0
 62
     0
100
AcDbLine
 10
21.66865999999995
 20
237.9763149999999
 30
0.0
 11
22.22631500000002
 21
237.4186599999998
 31
0.0
  0
LINE
  5
4CD68
330
4CAF8
100
AcDbEntity
  8
0
 62
     0
100
AcDbLine
 10
21.71240400000001
 20
238.0032809999998
 30
0.0
 11
22.25328100000015
 21
237.4624039999999
 31
0.0
  0
LINE
  5
4CD69
330
4CAF8
100
AcDbEntity
  8
0
 62
     0
100
AcDbLine
 10
21.50777600000006
 20
237.5715140000002
 30
0.0
 11
21.82151400000011
 21
237.2577759999999
 31
0.0
  0
LINE
  5
4CD6A
330
4CAF8
100
AcDbEntity
  8
0
 62
     0
100
AcDbLine
 10
21.49999999999991
 20
231.6500000000001
 30
0.0
 11
21.9
 21
232.0500000000002
 31
0.0
  0
LINE
  5
4CD6B
330
4CAF8
100
AcDbEntity
  8
0
 62
     0
100
AcDbLine
 10
21.50777600000006
 20
231.728486
 30
0.0
 11
21.82151400000011
 21
232.0422239999998
 31
0.0
  0
LINE
  5
4CD6C
330
4CAF8
100
AcDbEntity
  8
0
 62
     0
100
AcDbLine
 10
21.50537199999999
 20
231.5846620000002
 30
0.0
 11
21.96533799999988
 21
232.0446280000001
 31
0.0
  0
LINE
  5
4CD6D
330
4CAF8
100
AcDbEntity
  8
0
 62
     0
100
AcDbLine
 10
21.51914699999988
 20
231.5277259999998
 30
0.0
 11
22.02227400000006
 21
232.0308530000002
 31
0.0
  0
LINE
  5
4CD6E
330
4CAF8
100
AcDbEntity
  8
0
 62
     0
100
AcDbLine
 10
21.53927699999999
 20
231.4771449999998
 30
0.0
 11
22.07285500000003
 21
232.0107229999999
 31
0.0
  0
LINE
  5
4CD6F
330
4CAF8
100
AcDbEntity
  8
0
 62
     0
100
AcDbLine
 10
21.5647109999999
 20
231.4318680000001
 30
0.0
 11
22.11813199999997
 21
231.9852890000002
 31
0.0
  0
LINE
  5
4CD70
330
4CAF8
100
AcDbEntity
  8
0
 62
     0
100
AcDbLine
 10
21.59488899999987
 20
231.3913360000001
 30
0.0
 11
22.15866399999995
 21
231.9551110000002
 31
0.0
  0
LINE
  5
4CD71
330
4CAF8
100
AcDbEntity
  8
0
 62
     0
100
AcDbLine
 10
21.62955000000002
 20
231.355286
 30
0.0
 11
22.19471400000011
 21
231.9204500000001
 31
0.0
  0
LINE
  5
4CD72
330
4CAF8
100
AcDbEntity
  8
0
 62
     0
100
AcDbLine
 10
21.66865999999995
 20
231.3236849999998
 30
0.0
 11
22.22631500000002
 21
231.8813399999999
 31
0.0
  0
LINE
  5
4CD73
330
4CAF8
100
AcDbEntity
  8
0
 62
     0
100
AcDbLine
 10
21.71240400000001
 20
231.2967189999999
 30
0.0
 11
22.25328100000015
 21
231.8375959999998
 31
0.0
  0
LINE
  5
4CD74
330
4CAF8
100
AcDbEntity
  8
0
 62
     0
100
AcDbLine
 10
21.49999999999991
 20
231.6500000000001
 30
0.0
 11
21.9
 21
231.25
 31
0.0
  0
LINE
  5
4CD75
330
4CAF8
100
AcDbEntity
  8
0
 62
     0
100
AcDbLine
 10
21.50537199999999
 20
231.715338
 30
0.0
 11
21.96533799999988
 21
231.2553720000001
 31
0.0
  0
LINE
  5
4CD76
330
4CAF8
100
AcDbEntity
  8
0
 62
     0
100
AcDbLine
 10
21.51914699999988
 20
231.7722739999999
 30
0.0
 11
22.02227400000006
 21
231.269147
 31
0.0
  0
LINE
  5
4CD77
330
4CAF8
100
AcDbEntity
  8
0
 62
     0
100
AcDbLine
 10
21.53927699999999
 20
231.8228549999999
 30
0.0
 11
22.07285500000003
 21
231.2892769999999
 31
0.0
  0
LINE
  5
4CD78
330
4CAF8
100
AcDbEntity
  8
0
 62
     0
100
AcDbLine
 10
21.5647109999999
 20
231.8681320000001
 30
0.0
 11
22.11813199999997
 21
231.314711
 31
0.0
  0
LINE
  5
4CD79
330
4CAF8
100
AcDbEntity
  8
0
 62
     0
100
AcDbLine
 10
21.59488899999987
 20
231.908664
 30
0.0
 11
22.15866399999995
 21
231.344889
 31
0.0
  0
LINE
  5
4CD7A
330
4CAF8
100
AcDbEntity
  8
0
 62
     0
100
AcDbLine
 10
21.62955000000002
 20
231.9447140000002
 30
0.0
 11
22.19471400000011
 21
231.3795500000001
 31
0.0
  0
LINE
  5
4CD7B
330
4CAF8
100
AcDbEntity
  8
0
 62
     0
100
AcDbLine
 10
21.66865999999995
 20
231.9763149999999
 30
0.0
 11
22.22631500000002
 21
231.4186599999998
 31
0.0
  0
LINE
  5
4CD7C
330
4CAF8
100
AcDbEntity
  8
0
 62
     0
100
AcDbLine
 10
21.71240400000001
 20
232.0032809999998
 30
0.0
 11
22.25328100000015
 21
231.4624039999999
 31
0.0
  0
LINE
  5
4CD7D
330
4CAF8
100
AcDbEntity
  8
0
 62
     0
100
AcDbLine
 10
21.50777600000006
 20
231.5715140000002
 30
0.0
 11
21.82151400000011
 21
231.2577759999999
 31
0.0
  0
LINE
  5
4CD7E
330
4CAF8
100
AcDbEntity
  8
0
 62
     0
100
AcDbLine
 10
21.81602199999988
 20
226.0410849999998
 30
0.0
 11
22.29108499999997
 21
225.566022
 31
0.0
  0
LINE
  5
4CD7F
330
4CAF8
100
AcDbEntity
  8
0
 62
     0
100
AcDbLine
 10
21.87840099999985
 20
226.0494159999998
 30
0.0
 11
22.29941599999997
 21
225.6284009999999
 31
0.0
  0
LINE
  5
4CD80
330
4CAF8
100
AcDbEntity
  8
0
 62
     0
100
AcDbLine
 10
21.95191100000002
 20
226.046617
 30
0.0
 11
22.29661699999988
 21
225.7019110000001
 31
0.0
  0
LINE
  5
4CD81
330
4CAF8
100
AcDbEntity
  8
0
 62
     0
100
AcDbLine
 10
22.04737999999988
 20
226.0218589999999
 30
0.0
 11
22.27185899999986
 21
225.79738
 31
0.0
  0
LINE
  5
4CD82
330
4CAF8
100
AcDbEntity
  8
0
 62
     0
100
AcDbLine
 10
21.54733999999998
 20
225.838761
 30
0.0
 11
21.71123900000011
 21
226.0026600000001
 31
0.0
  0
LINE
  5
4CD83
330
4CAF8
100
AcDbEntity
  8
0
 62
     0
100
AcDbLine
 10
21.49999999999991
 20
225.6500000000001
 30
0.0
 11
21.9
 21
226.0500000000002
 31
0.0
  0
LINE
  5
4CD84
330
4CAF8
100
AcDbEntity
  8
0
 62
     0
100
AcDbLine
 10
21.50777600000006
 20
225.728486
 30
0.0
 11
21.82151400000011
 21
226.0422239999998
 31
0.0
  0
LINE
  5
4CD85
330
4CAF8
100
AcDbEntity
  8
0
 62
     0
100
AcDbLine
 10
21.50537199999999
 20
225.5846620000002
 30
0.0
 11
21.96533799999988
 21
226.0446280000001
 31
0.0
  0
LINE
  5
4CD86
330
4CAF8
100
AcDbEntity
  8
0
 62
     0
100
AcDbLine
 10
21.51914699999988
 20
225.5277259999998
 30
0.0
 11
22.02227400000006
 21
226.0308530000002
 31
0.0
  0
LINE
  5
4CD87
330
4CAF8
100
AcDbEntity
  8
0
 62
     0
100
AcDbLine
 10
22.04737999999988
 20
225.2781409999998
 30
0.0
 11
22.27185899999986
 21
225.5026200000002
 31
0.0
  0
LINE
  5
4CD88
330
4CAF8
100
AcDbEntity
  8
0
 62
     0
100
AcDbLine
 10
21.54733999999998
 20
225.4612390000002
 30
0.0
 11
21.71123900000011
 21
225.2973400000001
 31
0.0
  0
LINE
  5
4CD89
330
4CAF8
100
AcDbEntity
  8
0
 62
     0
100
AcDbLine
 10
21.76123700000007
 20
225.27484
 30
0.0
 11
22.27516000000005
 21
225.788763
 31
0.0
  0
LINE
  5
4CD8A
330
4CAF8
100
AcDbEntity
  8
0
 62
     0
100
AcDbLine
 10
21.81602199999988
 20
225.2589149999999
 30
0.0
 11
22.29108499999997
 21
225.7339780000002
 31
0.0
  0
LINE
  5
4CD8B
330
4CAF8
100
AcDbEntity
  8
0
 62
     0
100
AcDbLine
 10
21.87840099999985
 20
225.2505839999999
 30
0.0
 11
22.29941599999997
 21
225.6715989999998
 31
0.0
  0
LINE
  5
4CD8C
330
4CAF8
100
AcDbEntity
  8
0
 62
     0
100
AcDbLine
 10
21.95191100000002
 20
225.2533830000002
 30
0.0
 11
22.29661699999988
 21
225.5980890000001
 31
0.0
  0
LINE
  5
4CD8D
330
4CAF8
100
AcDbEntity
  8
0
 62
     0
100
AcDbLine
 10
21.76123700000007
 20
226.0251600000001
 30
0.0
 11
22.27516000000005
 21
225.5112370000002
 31
0.0
  0
LINE
  5
4CD8E
330
4CAF8
100
AcDbEntity
  8
0
 62
     0
100
AcDbLine
 10
21.53927699999999
 20
225.4771449999998
 30
0.0
 11
22.07285500000003
 21
226.0107229999999
 31
0.0
  0
LINE
  5
4CD8F
330
4CAF8
100
AcDbEntity
  8
0
 62
     0
100
AcDbLine
 10
21.5647109999999
 20
225.4318680000001
 30
0.0
 11
22.11813199999997
 21
225.9852890000002
 31
0.0
  0
LINE
  5
4CD90
330
4CAF8
100
AcDbEntity
  8
0
 62
     0
100
AcDbLine
 10
21.59488899999987
 20
225.3913360000001
 30
0.0
 11
22.15866399999995
 21
225.9551110000002
 31
0.0
  0
LINE
  5
4CD91
330
4CAF8
100
AcDbEntity
  8
0
 62
     0
100
AcDbLine
 10
21.62955000000002
 20
225.355286
 30
0.0
 11
22.19471400000011
 21
225.9204500000001
 31
0.0
  0
LINE
  5
4CD92
330
4CAF8
100
AcDbEntity
  8
0
 62
     0
100
AcDbLine
 10
21.66865999999995
 20
225.3236849999998
 30
0.0
 11
22.22631500000002
 21
225.8813399999999
 31
0.0
  0
LINE
  5
4CD93
330
4CAF8
100
AcDbEntity
  8
0
 62
     0
100
AcDbLine
 10
21.71240400000001
 20
225.2967189999999
 30
0.0
 11
22.25328100000015
 21
225.8375959999998
 31
0.0
  0
LINE
  5
4CD94
330
4CAF8
100
AcDbEntity
  8
0
 62
     0
100
AcDbLine
 10
21.49999999999991
 20
225.6500000000001
 30
0.0
 11
21.9
 21
225.25
 31
0.0
  0
LINE
  5
4CD95
330
4CAF8
100
AcDbEntity
  8
0
 62
     0
100
AcDbLine
 10
21.50537199999999
 20
225.715338
 30
0.0
 11
21.96533799999988
 21
225.2553720000001
 31
0.0
  0
LINE
  5
4CD96
330
4CAF8
100
AcDbEntity
  8
0
 62
     0
100
AcDbLine
 10
21.51914699999988
 20
225.7722739999999
 30
0.0
 11
22.02227400000006
 21
225.269147
 31
0.0
  0
LINE
  5
4CD97
330
4CAF8
100
AcDbEntity
  8
0
 62
     0
100
AcDbLine
 10
21.53927699999999
 20
225.8228549999999
 30
0.0
 11
22.07285500000003
 21
225.2892769999999
 31
0.0
  0
LINE
  5
4CD98
330
4CAF8
100
AcDbEntity
  8
0
 62
     0
100
AcDbLine
 10
21.5647109999999
 20
225.8681320000001
 30
0.0
 11
22.11813199999997
 21
225.314711
 31
0.0
  0
LINE
  5
4CD99
330
4CAF8
100
AcDbEntity
  8
0
 62
     0
100
AcDbLine
 10
21.59488899999987
 20
225.908664
 30
0.0
 11
22.15866399999995
 21
225.344889
 31
0.0
  0
LINE
  5
4CD9A
330
4CAF8
100
AcDbEntity
  8
0
 62
     0
100
AcDbLine
 10
21.62955000000002
 20
225.9447140000002
 30
0.0
 11
22.19471400000011
 21
225.3795500000001
 31
0.0
  0
LINE
  5
4CD9B
330
4CAF8
100
AcDbEntity
  8
0
 62
     0
100
AcDbLine
 10
21.66865999999995
 20
225.9763149999999
 30
0.0
 11
22.22631500000002
 21
225.4186599999998
 31
0.0
  0
LINE
  5
4CD9C
330
4CAF8
100
AcDbEntity
  8
0
 62
     0
100
AcDbLine
 10
21.71240400000001
 20
226.0032809999998
 30
0.0
 11
22.25328100000015
 21
225.4624039999999
 31
0.0
  0
LINE
  5
4CD9D
330
4CAF8
100
AcDbEntity
  8
0
 62
     0
100
AcDbLine
 10
21.50777600000006
 20
225.5715140000002
 30
0.0
 11
21.82151400000011
 21
225.2577759999999
 31
0.0
  0
LINE
  5
4CD9E
330
4CAF8
100
AcDbEntity
  8
0
 62
     0
100
AcDbLine
 10
214.1500001919297
 20
284.4000000000001
 30
0.0
 11
214.7500001919296
 21
283.8000000000002
 31
0.0
  0
LINE
  5
4CD9F
330
4CAF8
100
AcDbEntity
  8
0
 62
     0
100
AcDbLine
 10
214.1537481919296
 20
284.466962
 30
0.0
 11
214.8169621919295
 21
283.8037479999998
 31
0.0
  0
LINE
  5
4CDA0
330
4CAF8
100
AcDbEntity
  8
0
 62
     0
100
AcDbLine
 10
214.1637421919296
 20
284.5276789999998
 30
0.0
 11
214.8776791919296
 21
283.8137419999998
 31
0.0
  0
LINE
  5
4CDA1
330
4CAF8
100
AcDbEntity
  8
0
 62
     0
100
AcDbLine
 10
214.1787211919296
 20
284.5834110000001
 30
0.0
 11
214.9334111919296
 21
283.8287209999999
 31
0.0
  0
LINE
  5
4CDA2
330
4CAF8
100
AcDbEntity
  8
0
 62
     0
100
AcDbLine
 10
214.1979081919297
 20
284.634935
 30
0.0
 11
214.9849351919296
 21
283.8479080000002
 31
0.0
  0
LINE
  5
4CDA3
330
4CAF8
100
AcDbEntity
  8
0
 62
     0
100
AcDbLine
 10
214.2208011919296
 20
284.6827520000002
 30
0.0
 11
215.0327521919297
 21
283.870801
 31
0.0
  0
LINE
  5
4CDA4
330
4CAF8
100
AcDbEntity
  8
0
 62
     0
100
AcDbLine
 10
214.2470671919296
 20
284.7271970000002
 30
0.0
 11
215.0771971919297
 21
283.8970669999999
 31
0.0
  0
LINE
  5
4CDA5
330
4CAF8
100
AcDbEntity
  8
0
 62
     0
100
AcDbLine
 10
214.2764861919296
 20
284.768489
 30
0.0
 11
215.1184891919296
 21
283.9264859999998
 31
0.0
  0
LINE
  5
4CDA6
330
4CAF8
100
AcDbEntity
  8
0
 62
     0
100
AcDbLine
 10
214.3089261919298
 20
284.8067599999999
 30
0.0
 11
215.1567601919295
 21
283.9589259999998
 31
0.0
  0
LINE
  5
4CDA7
330
4CAF8
100
AcDbEntity
  8
0
 62
     0
100
AcDbLine
 10
214.3443241919298
 20
284.8420719999999
 30
0.0
 11
215.1920721919297
 21
283.9943240000002
 31
0.0
  0
LINE
  5
4CDA8
330
4CAF8
100
AcDbEntity
  8
0
 62
     0
100
AcDbLine
 10
214.3826831919297
 20
284.8744240000001
 30
0.0
 11
215.2244241919296
 21
284.0326829999999
 31
0.0
  0
LINE
  5
4CDA9
330
4CAF8
100
AcDbEntity
  8
0
 62
     0
100
AcDbLine
 10
214.1547661919297
 20
284.3245230000002
 30
0.0
 11
214.6745231919298
 21
283.8047660000002
 31
0.0
  0
LINE
  5
4CDAA
330
4CAF8
100
AcDbEntity
  8
0
 62
     0
100
AcDbLine
 10
214.1729561919295
 20
284.235623
 30
0.0
 11
214.5856231919296
 21
283.822956
 31
0.0
  0
LINE
  5
4CDAB
330
4CAF8
100
AcDbEntity
  8
0
 62
     0
100
AcDbLine
 10
214.2210101919296
 20
284.1168579999999
 30
0.0
 11
214.4668581919296
 21
283.8710099999998
 31
0.0
  0
LINE
  5
4CDAC
330
4CAF8
100
AcDbEntity
  8
0
 62
     0
100
AcDbLine
 10
214.1500001919297
 20
284.4000000000001
 30
0.0
 11
214.7500001919296
 21
285.0
 31
0.0
  0
LINE
  5
4CDAD
330
4CAF8
100
AcDbEntity
  8
0
 62
     0
100
AcDbLine
 10
214.1537481919296
 20
284.3330379999998
 30
0.0
 11
214.8169621919295
 21
284.9962519999999
 31
0.0
  0
LINE
  5
4CDAE
330
4CAF8
100
AcDbEntity
  8
0
 62
     0
100
AcDbLine
 10
214.1637421919296
 20
284.2723209999999
 30
0.0
 11
214.8776791919296
 21
284.9862579999999
 31
0.0
  0
LINE
  5
4CDAF
330
4CAF8
100
AcDbEntity
  8
0
 62
     0
100
AcDbLine
 10
214.1787211919296
 20
284.2165890000001
 30
0.0
 11
214.9334111919296
 21
284.9712789999999
 31
0.0
  0
LINE
  5
4CDB0
330
4CAF8
100
AcDbEntity
  8
0
 62
     0
100
AcDbLine
 10
214.1979081919297
 20
284.1650650000001
 30
0.0
 11
214.9849351919296
 21
284.952092
 31
0.0
  0
LINE
  5
4CDB1
330
4CAF8
100
AcDbEntity
  8
0
 62
     0
100
AcDbLine
 10
214.2208011919296
 20
284.117248
 30
0.0
 11
215.0327521919297
 21
284.9291990000002
 31
0.0
  0
LINE
  5
4CDB2
330
4CAF8
100
AcDbEntity
  8
0
 62
     0
100
AcDbLine
 10
214.2470671919296
 20
284.072803
 30
0.0
 11
215.0771971919297
 21
284.9029329999998
 31
0.0
  0
LINE
  5
4CDB3
330
4CAF8
100
AcDbEntity
  8
0
 62
     0
100
AcDbLine
 10
214.2764861919296
 20
284.0315110000001
 30
0.0
 11
215.1184891919296
 21
284.8735139999999
 31
0.0
  0
LINE
  5
4CDB4
330
4CAF8
100
AcDbEntity
  8
0
 62
     0
100
AcDbLine
 10
214.3089261919298
 20
283.9932399999998
 30
0.0
 11
215.1567601919295
 21
284.8410739999999
 31
0.0
  0
LINE
  5
4CDB5
330
4CAF8
100
AcDbEntity
  8
0
 62
     0
100
AcDbLine
 10
214.3443241919298
 20
283.9579279999998
 30
0.0
 11
215.1920721919297
 21
284.8056759999999
 31
0.0
  0
LINE
  5
4CDB6
330
4CAF8
100
AcDbEntity
  8
0
 62
     0
100
AcDbLine
 10
214.3826831919297
 20
283.9255760000001
 30
0.0
 11
215.2244241919296
 21
284.7673169999998
 31
0.0
  0
LINE
  5
4CDB7
330
4CAF8
100
AcDbEntity
  8
0
 62
     0
100
AcDbLine
 10
214.1547661919297
 20
284.475477
 30
0.0
 11
214.6745231919298
 21
284.995234
 31
0.0
  0
LINE
  5
4CDB8
330
4CAF8
100
AcDbEntity
  8
0
 62
     0
100
AcDbLine
 10
214.1729561919295
 20
284.5643770000001
 30
0.0
 11
214.5856231919296
 21
284.9770440000002
 31
0.0
  0
LINE
  5
4CDB9
330
4CAF8
100
AcDbEntity
  8
0
 62
     0
100
AcDbLine
 10
214.2210101919296
 20
284.6831419999999
 30
0.0
 11
214.4668581919296
 21
284.9289899999999
 31
0.0
  0
LINE
  5
4CDBA
330
4CAF8
100
AcDbEntity
  8
0
 62
     0
100
AcDbLine
 10
214.4240651919298
 20
284.9037520000002
 30
0.0
 11
215.2537521919297
 21
284.0740649999998
 31
0.0
  0
LINE
  5
4CDBB
330
4CAF8
100
AcDbEntity
  8
0
 62
     0
100
AcDbLine
 10
214.4686061919295
 20
284.9299219999998
 30
0.0
 11
215.2799221919298
 21
284.118606
 31
0.0
  0
LINE
  5
4CDBC
330
4CAF8
100
AcDbEntity
  8
0
 62
     0
100
AcDbLine
 10
214.5165271919296
 20
284.9527120000002
 30
0.0
 11
215.3027121919298
 21
284.1665269999999
 31
0.0
  0
LINE
  5
4CDBD
330
4CAF8
100
AcDbEntity
  8
0
 62
     0
100
AcDbLine
 10
214.5681661919296
 20
284.9717839999998
 30
0.0
 11
215.3217841919296
 21
284.2181660000001
 31
0.0
  0
LINE
  5
4CDBE
330
4CAF8
100
AcDbEntity
  8
0
 62
     0
100
AcDbLine
 10
214.6240321919298
 20
284.9866280000001
 30
0.0
 11
215.3366281919296
 21
284.2740319999998
 31
0.0
  0
LINE
  5
4CDBF
330
4CAF8
100
AcDbEntity
  8
0
 62
     0
100
AcDbLine
 10
214.6849121919298
 20
284.996459
 30
0.0
 11
215.3464591919295
 21
284.3349119999998
 31
0.0
  0
LINE
  5
4CDC0
330
4CAF8
100
AcDbEntity
  8
0
 62
     0
100
AcDbLine
 10
214.7520851919297
 20
284.999996
 30
0.0
 11
215.3499961919295
 21
284.4020850000002
 31
0.0
  0
LINE
  5
4CDC1
330
4CAF8
100
AcDbEntity
  8
0
 62
     0
100
AcDbLine
 10
214.8278661919297
 20
284.9949259999999
 30
0.0
 11
215.3449261919296
 21
284.4778660000002
 31
0.0
  0
LINE
  5
4CDC2
330
4CAF8
100
AcDbEntity
  8
0
 62
     0
100
AcDbLine
 10
214.9172991919296
 20
284.9762040000001
 30
0.0
 11
215.3262041919296
 21
284.5672989999998
 31
0.0
  0
LINE
  5
4CDC3
330
4CAF8
100
AcDbEntity
  8
0
 62
     0
100
AcDbLine
 10
215.0376741919298
 20
284.926539
 30
0.0
 11
215.2765391919296
 21
284.6876739999998
 31
0.0
  0
LINE
  5
4CDC4
330
4CAF8
100
AcDbEntity
  8
0
 62
     0
100
AcDbLine
 10
214.4240651919298
 20
283.896248
 30
0.0
 11
215.2537521919297
 21
284.7259349999999
 31
0.0
  0
LINE
  5
4CDC5
330
4CAF8
100
AcDbEntity
  8
0
 62
     0
100
AcDbLine
 10
214.4686061919295
 20
283.8700779999999
 30
0.0
 11
215.2799221919298
 21
284.6813940000002
 31
0.0
  0
LINE
  5
4CDC6
330
4CAF8
100
AcDbEntity
  8
0
 62
     0
100
AcDbLine
 10
214.5165271919296
 20
283.8472879999999
 30
0.0
 11
215.3027121919298
 21
284.6334729999999
 31
0.0
  0
LINE
  5
4CDC7
330
4CAF8
100
AcDbEntity
  8
0
 62
     0
100
AcDbLine
 10
214.5681661919296
 20
283.8282159999999
 30
0.0
 11
215.3217841919296
 21
284.5818340000001
 31
0.0
  0
LINE
  5
4CDC8
330
4CAF8
100
AcDbEntity
  8
0
 62
     0
100
AcDbLine
 10
214.6240321919298
 20
283.8133720000001
 30
0.0
 11
215.3366281919296
 21
284.5259679999999
 31
0.0
  0
LINE
  5
4CDC9
330
4CAF8
100
AcDbEntity
  8
0
 62
     0
100
AcDbLine
 10
214.6849121919298
 20
283.8035410000002
 30
0.0
 11
215.3464591919295
 21
284.4650879999999
 31
0.0
  0
LINE
  5
4CDCA
330
4CAF8
100
AcDbEntity
  8
0
 62
     0
100
AcDbLine
 10
214.7520851919297
 20
283.8000040000002
 30
0.0
 11
215.3499961919295
 21
284.397915
 31
0.0
  0
LINE
  5
4CDCB
330
4CAF8
100
AcDbEntity
  8
0
 62
     0
100
AcDbLine
 10
214.8278661919297
 20
283.8050739999999
 30
0.0
 11
215.3449261919296
 21
284.322134
 31
0.0
  0
LINE
  5
4CDCC
330
4CAF8
100
AcDbEntity
  8
0
 62
     0
100
AcDbLine
 10
214.9172991919296
 20
283.8237960000001
 30
0.0
 11
215.3262041919296
 21
284.2327009999999
 31
0.0
  0
LINE
  5
4CDCD
330
4CAF8
100
AcDbEntity
  8
0
 62
     0
100
AcDbLine
 10
215.0376741919298
 20
283.8734610000001
 30
0.0
 11
215.2765391919296
 21
284.1123259999999
 31
0.0
  0
LINE
  5
4CDCE
330
4CAF8
100
AcDbEntity
  8
0
 62
     0
100
AcDbLine
 10
406.8000003838565
 20
159.5499981125803
 30
0.0
 11
407.4000003838564
 21
158.9499981125804
 31
0.0
  0
LINE
  5
4CDCF
330
4CAF8
100
AcDbEntity
  8
0
 62
     0
100
AcDbLine
 10
406.8037483838564
 20
159.6169601125802
 30
0.0
 11
407.4669623838563
 21
158.9537461125805
 31
0.0
  0
LINE
  5
4CDD0
330
4CAF8
100
AcDbEntity
  8
0
 62
     0
100
AcDbLine
 10
406.8137423838564
 20
159.6776771125805
 30
0.0
 11
407.5276793838564
 21
158.9637401125805
 31
0.0
  0
LINE
  5
4CDD1
330
4CAF8
100
AcDbEntity
  8
0
 62
     0
100
AcDbLine
 10
406.8287213838564
 20
159.7334091125803
 30
0.0
 11
407.5834113838564
 21
158.9787191125805
 31
0.0
  0
LINE
  5
4CDD2
330
4CAF8
100
AcDbEntity
  8
0
 62
     0
100
AcDbLine
 10
406.8479083838565
 20
159.7849331125803
 30
0.0
 11
407.6349353838564
 21
158.9979061125804
 31
0.0
  0
LINE
  5
4CDD3
330
4CAF8
100
AcDbEntity
  8
0
 62
     0
100
AcDbLine
 10
406.8708013838564
 20
159.8327501125804
 30
0.0
 11
407.6827523838565
 21
159.0207991125802
 31
0.0
  0
LINE
  5
4CDD4
330
4CAF8
100
AcDbEntity
  8
0
 62
     0
100
AcDbLine
 10
406.8970673838564
 20
159.8771951125804
 30
0.0
 11
407.7271973838565
 21
159.0470651125801
 31
0.0
  0
LINE
  5
4CDD5
330
4CAF8
100
AcDbEntity
  8
0
 62
     0
100
AcDbLine
 10
406.9264863838564
 20
159.9184871125803
 30
0.0
 11
407.7684893838564
 21
159.0764841125805
 31
0.0
  0
LINE
  5
4CDD6
330
4CAF8
100
AcDbEntity
  8
0
 62
     0
100
AcDbLine
 10
406.9589263838566
 20
159.9567581125802
 30
0.0
 11
407.8067603838565
 21
159.1089241125805
 31
0.0
  0
LINE
  5
4CDD7
330
4CAF8
100
AcDbEntity
  8
0
 62
     0
100
AcDbLine
 10
406.9943243838566
 20
159.9920701125801
 30
0.0
 11
407.8420723838565
 21
159.1443221125805
 31
0.0
  0
LINE
  5
4CDD8
330
4CAF8
100
AcDbEntity
  8
0
 62
     0
100
AcDbLine
 10
407.0326833838565
 20
160.0244221125803
 30
0.0
 11
407.8744243838564
 21
159.1826811125801
 31
0.0
  0
LINE
  5
4CDD9
330
4CAF8
100
AcDbEntity
  8
0
 62
     0
100
AcDbLine
 10
407.0740653838564
 20
160.0537501125804
 30
0.0
 11
407.9037523838565
 21
159.2240631125805
 31
0.0
  0
LINE
  5
4CDDA
330
4CAF8
100
AcDbEntity
  8
0
 62
     0
100
AcDbLine
 10
407.1186063838563
 20
160.0799201125805
 30
0.0
 11
407.9299223838564
 21
159.2686041125802
 31
0.0
  0
LINE
  5
4CDDB
330
4CAF8
100
AcDbEntity
  8
0
 62
     0
100
AcDbLine
 10
407.1665273838564
 20
160.1027101125805
 30
0.0
 11
407.9527123838566
 21
159.3165251125805
 31
0.0
  0
LINE
  5
4CDDC
330
4CAF8
100
AcDbEntity
  8
0
 62
     0
100
AcDbLine
 10
407.2181663838564
 20
160.1217821125805
 30
0.0
 11
407.9717843838564
 21
159.3681641125803
 31
0.0
  0
LINE
  5
4CDDD
330
4CAF8
100
AcDbEntity
  8
0
 62
     0
100
AcDbLine
 10
407.2740323838564
 20
160.1366261125803
 30
0.0
 11
407.9866283838564
 21
159.4240301125805
 31
0.0
  0
LINE
  5
4CDDE
330
4CAF8
100
AcDbEntity
  8
0
 62
     0
100
AcDbLine
 10
407.3349123838564
 20
160.1464571125802
 30
0.0
 11
407.9964593838563
 21
159.4849101125805
 31
0.0
  0
LINE
  5
4CDDF
330
4CAF8
100
AcDbEntity
  8
0
 62
     0
100
AcDbLine
 10
407.4020853838565
 20
160.1499941125802
 30
0.0
 11
407.9999963838563
 21
159.5520831125804
 31
0.0
  0
LINE
  5
4CDE0
330
4CAF8
100
AcDbEntity
  8
0
 62
     0
100
AcDbLine
 10
407.4778663838565
 20
160.1449241125805
 30
0.0
 11
407.9949263838564
 21
159.6278641125804
 31
0.0
  0
LINE
  5
4CDE1
330
4CAF8
100
AcDbEntity
  8
0
 62
     0
100
AcDbLine
 10
407.5672993838564
 20
160.1262021125803
 30
0.0
 11
407.9762043838564
 21
159.7172971125805
 31
0.0
  0
LINE
  5
4CDE2
330
4CAF8
100
AcDbEntity
  8
0
 62
     0
100
AcDbLine
 10
407.6876743838566
 20
160.0765371125803
 30
0.0
 11
407.9265393838564
 21
159.8376721125805
 31
0.0
  0
LINE
  5
4CDE3
330
4CAF8
100
AcDbEntity
  8
0
 62
     0
100
AcDbLine
 10
406.8047663838565
 20
159.4745211125804
 30
0.0
 11
407.3245233838566
 21
158.9547641125804
 31
0.0
  0
LINE
  5
4CDE4
330
4CAF8
100
AcDbEntity
  8
0
 62
     0
100
AcDbLine
 10
406.8229563838563
 20
159.3856211125803
 30
0.0
 11
407.2356233838564
 21
158.9729541125802
 31
0.0
  0
LINE
  5
4CDE5
330
4CAF8
100
AcDbEntity
  8
0
 62
     0
100
AcDbLine
 10
406.8710103838564
 20
159.2668561125801
 30
0.0
 11
407.1168583838564
 21
159.0210081125805
 31
0.0
  0
LINE
  5
4CDE6
330
4CAF8
100
AcDbEntity
  8
0
 62
     0
100
AcDbLine
 10
406.8000003838565
 20
159.5499981125803
 30
0.0
 11
407.4000003838564
 21
160.1499981125802
 31
0.0
  0
LINE
  5
4CDE7
330
4CAF8
100
AcDbEntity
  8
0
 62
     0
100
AcDbLine
 10
406.8037483838564
 20
159.4830361125804
 30
0.0
 11
407.4669623838563
 21
160.1462501125801
 31
0.0
  0
LINE
  5
4CDE8
330
4CAF8
100
AcDbEntity
  8
0
 62
     0
100
AcDbLine
 10
406.8137423838564
 20
159.4223191125801
 30
0.0
 11
407.5276793838564
 21
160.1362561125801
 31
0.0
  0
LINE
  5
4CDE9
330
4CAF8
100
AcDbEntity
  8
0
 62
     0
100
AcDbLine
 10
406.8287213838564
 20
159.3665871125803
 30
0.0
 11
407.5834113838564
 21
160.1212771125801
 31
0.0
  0
LINE
  5
4CDEA
330
4CAF8
100
AcDbEntity
  8
0
 62
     0
100
AcDbLine
 10
406.8479083838565
 20
159.3150631125804
 30
0.0
 11
407.6349353838564
 21
160.1020901125802
 31
0.0
  0
LINE
  5
4CDEB
330
4CAF8
100
AcDbEntity
  8
0
 62
     0
100
AcDbLine
 10
406.8708013838564
 20
159.2672461125802
 30
0.0
 11
407.6827523838565
 21
160.0791971125804
 31
0.0
  0
LINE
  5
4CDEC
330
4CAF8
100
AcDbEntity
  8
0
 62
     0
100
AcDbLine
 10
406.8970673838564
 20
159.2228011125802
 30
0.0
 11
407.7271973838565
 21
160.0529311125805
 31
0.0
  0
LINE
  5
4CDED
330
4CAF8
100
AcDbEntity
  8
0
 62
     0
100
AcDbLine
 10
406.9264863838564
 20
159.1815091125804
 30
0.0
 11
407.7684893838564
 21
160.0235121125801
 31
0.0
  0
LINE
  5
4CDEE
330
4CAF8
100
AcDbEntity
  8
0
 62
     0
100
AcDbLine
 10
406.9589263838566
 20
159.1432381125805
 30
0.0
 11
407.8067603838565
 21
159.9910721125802
 31
0.0
  0
LINE
  5
4CDEF
330
4CAF8
100
AcDbEntity
  8
0
 62
     0
100
AcDbLine
 10
406.9943243838566
 20
159.1079261125805
 30
0.0
 11
407.8420723838565
 21
159.9556741125802
 31
0.0
  0
LINE
  5
4CDF0
330
4CAF8
100
AcDbEntity
  8
0
 62
     0
100
AcDbLine
 10
407.0326833838565
 20
159.0755741125803
 30
0.0
 11
407.8744243838564
 21
159.9173151125805
 31
0.0
  0
LINE
  5
4CDF1
330
4CAF8
100
AcDbEntity
  8
0
 62
     0
100
AcDbLine
 10
407.0740653838564
 20
159.0462461125802
 30
0.0
 11
407.9037523838565
 21
159.8759331125802
 31
0.0
  0
LINE
  5
4CDF2
330
4CAF8
100
AcDbEntity
  8
0
 62
     0
100
AcDbLine
 10
407.1186063838563
 20
159.0200761125801
 30
0.0
 11
407.9299223838564
 21
159.8313921125804
 31
0.0
  0
LINE
  5
4CDF3
330
4CAF8
100
AcDbEntity
  8
0
 62
     0
100
AcDbLine
 10
407.1665273838564
 20
158.9972861125802
 30
0.0
 11
407.9527123838566
 21
159.7834711125801
 31
0.0
  0
LINE
  5
4CDF4
330
4CAF8
100
AcDbEntity
  8
0
 62
     0
100
AcDbLine
 10
407.2181663838564
 20
158.9782141125801
 30
0.0
 11
407.9717843838564
 21
159.7318321125803
 31
0.0
  0
LINE
  5
4CDF5
330
4CAF8
100
AcDbEntity
  8
0
 62
     0
100
AcDbLine
 10
407.2740323838564
 20
158.9633701125803
 30
0.0
 11
407.9866283838564
 21
159.6759661125801
 31
0.0
  0
LINE
  5
4CDF6
330
4CAF8
100
AcDbEntity
  8
0
 62
     0
100
AcDbLine
 10
407.3349123838564
 20
158.9535391125804
 30
0.0
 11
407.9964593838563
 21
159.6150861125801
 31
0.0
  0
LINE
  5
4CDF7
330
4CAF8
100
AcDbEntity
  8
0
 62
     0
100
AcDbLine
 10
407.4020853838565
 20
158.9500021125804
 30
0.0
 11
407.9999963838563
 21
159.5479131125802
 31
0.0
  0
LINE
  5
4CDF8
330
4CAF8
100
AcDbEntity
  8
0
 62
     0
100
AcDbLine
 10
407.4778663838565
 20
158.9550721125801
 30
0.0
 11
407.9949263838564
 21
159.4721321125802
 31
0.0
  0
LINE
  5
4CDF9
330
4CAF8
100
AcDbEntity
  8
0
 62
     0
100
AcDbLine
 10
407.5672993838564
 20
158.9737941125804
 30
0.0
 11
407.9762043838564
 21
159.3826991125801
 31
0.0
  0
LINE
  5
4CDFA
330
4CAF8
100
AcDbEntity
  8
0
 62
     0
100
AcDbLine
 10
407.6876743838566
 20
159.0234591125804
 30
0.0
 11
407.9265393838564
 21
159.2623241125802
 31
0.0
  0
LINE
  5
4CDFB
330
4CAF8
100
AcDbEntity
  8
0
 62
     0
100
AcDbLine
 10
406.8047663838565
 20
159.6254751125802
 30
0.0
 11
407.3245233838566
 21
160.1452321125802
 31
0.0
  0
LINE
  5
4CDFC
330
4CAF8
100
AcDbEntity
  8
0
 62
     0
100
AcDbLine
 10
406.8229563838563
 20
159.7143751125804
 30
0.0
 11
407.2356233838564
 21
160.1270421125804
 31
0.0
  0
LINE
  5
4CDFD
330
4CAF8
100
AcDbEntity
  8
0
 62
     0
100
AcDbLine
 10
406.8710103838564
 20
159.8331401125805
 30
0.0
 11
407.1168583838564
 21
160.0789881125801
 31
0.0
  0
LINE
  5
4CDFE
330
4CAF8
100
AcDbEntity
  8
0
 62
     0
100
AcDbLine
 10
407.1999999999999
 20
279.6500000000001
 30
0.0
 11
407.6
 21
280.0500000000002
 31
0.0
  0
LINE
  5
4CDFF
330
4CAF8
100
AcDbEntity
  8
0
 62
     0
100
AcDbLine
 10
407.2077760000001
 20
279.728486
 30
0.0
 11
407.5215140000001
 21
280.0422239999998
 31
0.0
  0
LINE
  5
4CE00
330
4CAF8
100
AcDbEntity
  8
0
 62
     0
100
AcDbLine
 10
407.24734
 20
279.838761
 30
0.0
 11
407.4112390000001
 21
280.0026600000001
 31
0.0
  0
LINE
  5
4CE01
330
4CAF8
100
AcDbEntity
  8
0
 62
     0
100
AcDbLine
 10
407.205372
 20
279.5846620000002
 30
0.0
 11
407.6653379999999
 21
280.0446280000001
 31
0.0
  0
LINE
  5
4CE02
330
4CAF8
100
AcDbEntity
  8
0
 62
     0
100
AcDbLine
 10
407.2191469999999
 20
279.5277259999998
 30
0.0
 11
407.7222740000001
 21
280.0308530000002
 31
0.0
  0
LINE
  5
4CE03
330
4CAF8
100
AcDbEntity
  8
0
 62
     0
100
AcDbLine
 10
407.239277
 20
279.4771449999998
 30
0.0
 11
407.772855
 21
280.0107229999999
 31
0.0
  0
LINE
  5
4CE04
330
4CAF8
100
AcDbEntity
  8
0
 62
     0
100
AcDbLine
 10
407.2647109999999
 20
279.4318680000001
 30
0.0
 11
407.818132
 21
279.9852890000002
 31
0.0
  0
LINE
  5
4CE05
330
4CAF8
100
AcDbEntity
  8
0
 62
     0
100
AcDbLine
 10
407.2948889999999
 20
279.3913360000001
 30
0.0
 11
407.858664
 21
279.9551110000002
 31
0.0
  0
LINE
  5
4CE06
330
4CAF8
100
AcDbEntity
  8
0
 62
     0
100
AcDbLine
 10
407.32955
 20
279.355286
 30
0.0
 11
407.8947140000001
 21
279.9204500000001
 31
0.0
  0
LINE
  5
4CE07
330
4CAF8
100
AcDbEntity
  8
0
 62
     0
100
AcDbLine
 10
407.36866
 20
279.3236849999998
 30
0.0
 11
407.926315
 21
279.8813399999999
 31
0.0
  0
LINE
  5
4CE08
330
4CAF8
100
AcDbEntity
  8
0
 62
     0
100
AcDbLine
 10
407.412404
 20
279.2967189999999
 30
0.0
 11
407.9532810000002
 21
279.8375959999998
 31
0.0
  0
LINE
  5
4CE09
330
4CAF8
100
AcDbEntity
  8
0
 62
     0
100
AcDbLine
 10
407.4612370000001
 20
279.27484
 30
0.0
 11
407.9751600000001
 21
279.788763
 31
0.0
  0
LINE
  5
4CE0A
330
4CAF8
100
AcDbEntity
  8
0
 62
     0
100
AcDbLine
 10
407.5160219999999
 20
279.2589149999999
 30
0.0
 11
407.991085
 21
279.7339780000002
 31
0.0
  0
LINE
  5
4CE0B
330
4CAF8
100
AcDbEntity
  8
0
 62
     0
100
AcDbLine
 10
407.5784009999999
 20
279.2505839999999
 30
0.0
 11
407.999416
 21
279.6715989999998
 31
0.0
  0
LINE
  5
4CE0C
330
4CAF8
100
AcDbEntity
  8
0
 62
     0
100
AcDbLine
 10
407.651911
 20
279.2533830000002
 30
0.0
 11
407.9966169999999
 21
279.5980890000001
 31
0.0
  0
LINE
  5
4CE0D
330
4CAF8
100
AcDbEntity
  8
0
 62
     0
100
AcDbLine
 10
407.7473799999999
 20
279.2781409999998
 30
0.0
 11
407.9718589999999
 21
279.5026200000002
 31
0.0
  0
LINE
  5
4CE0E
330
4CAF8
100
AcDbEntity
  8
0
 62
     0
100
AcDbLine
 10
407.1999999999999
 20
279.6500000000001
 30
0.0
 11
407.6
 21
279.25
 31
0.0
  0
LINE
  5
4CE0F
330
4CAF8
100
AcDbEntity
  8
0
 62
     0
100
AcDbLine
 10
407.205372
 20
279.715338
 30
0.0
 11
407.6653379999999
 21
279.2553720000001
 31
0.0
  0
LINE
  5
4CE10
330
4CAF8
100
AcDbEntity
  8
0
 62
     0
100
AcDbLine
 10
407.2191469999999
 20
279.7722739999999
 30
0.0
 11
407.7222740000001
 21
279.269147
 31
0.0
  0
LINE
  5
4CE11
330
4CAF8
100
AcDbEntity
  8
0
 62
     0
100
AcDbLine
 10
407.239277
 20
279.8228549999999
 30
0.0
 11
407.772855
 21
279.2892769999999
 31
0.0
  0
LINE
  5
4CE12
330
4CAF8
100
AcDbEntity
  8
0
 62
     0
100
AcDbLine
 10
407.2647109999999
 20
279.8681320000001
 30
0.0
 11
407.818132
 21
279.314711
 31
0.0
  0
LINE
  5
4CE13
330
4CAF8
100
AcDbEntity
  8
0
 62
     0
100
AcDbLine
 10
407.2948889999999
 20
279.908664
 30
0.0
 11
407.858664
 21
279.344889
 31
0.0
  0
LINE
  5
4CE14
330
4CAF8
100
AcDbEntity
  8
0
 62
     0
100
AcDbLine
 10
407.32955
 20
279.9447140000002
 30
0.0
 11
407.8947140000001
 21
279.3795500000001
 31
0.0
  0
LINE
  5
4CE15
330
4CAF8
100
AcDbEntity
  8
0
 62
     0
100
AcDbLine
 10
407.36866
 20
279.9763149999999
 30
0.0
 11
407.926315
 21
279.4186599999998
 31
0.0
  0
LINE
  5
4CE16
330
4CAF8
100
AcDbEntity
  8
0
 62
     0
100
AcDbLine
 10
407.412404
 20
280.0032810000002
 30
0.0
 11
407.9532810000002
 21
279.4624039999999
 31
0.0
  0
LINE
  5
4CE17
330
4CAF8
100
AcDbEntity
  8
0
 62
     0
100
AcDbLine
 10
407.4612370000001
 20
280.0251600000001
 30
0.0
 11
407.9751600000001
 21
279.5112370000002
 31
0.0
  0
LINE
  5
4CE18
330
4CAF8
100
AcDbEntity
  8
0
 62
     0
100
AcDbLine
 10
407.5160219999999
 20
280.0410849999998
 30
0.0
 11
407.991085
 21
279.566022
 31
0.0
  0
LINE
  5
4CE19
330
4CAF8
100
AcDbEntity
  8
0
 62
     0
100
AcDbLine
 10
407.5784009999999
 20
280.0494159999998
 30
0.0
 11
407.999416
 21
279.6284009999999
 31
0.0
  0
LINE
  5
4CE1A
330
4CAF8
100
AcDbEntity
  8
0
 62
     0
100
AcDbLine
 10
407.651911
 20
280.046617
 30
0.0
 11
407.9966169999999
 21
279.7019110000001
 31
0.0
  0
LINE
  5
4CE1B
330
4CAF8
100
AcDbEntity
  8
0
 62
     0
100
AcDbLine
 10
407.7473799999999
 20
280.0218589999999
 30
0.0
 11
407.9718589999999
 21
279.79738
 31
0.0
  0
LINE
  5
4CE1C
330
4CAF8
100
AcDbEntity
  8
0
 62
     0
100
AcDbLine
 10
407.2077760000001
 20
279.5715140000002
 30
0.0
 11
407.5215140000001
 21
279.2577759999999
 31
0.0
  0
LINE
  5
4CE1D
330
4CAF8
100
AcDbEntity
  8
0
 62
     0
100
AcDbLine
 10
407.24734
 20
279.4612390000002
 30
0.0
 11
407.4112390000001
 21
279.2973400000001
 31
0.0
  0
LINE
  5
4CE1E
330
4CAF8
100
AcDbEntity
  8
0
 62
     0
100
AcDbLine
 10
407.1999999999999
 20
273.6500000000001
 30
0.0
 11
407.6
 21
274.0500000000002
 31
0.0
  0
LINE
  5
4CE1F
330
4CAF8
100
AcDbEntity
  8
0
 62
     0
100
AcDbLine
 10
407.2077760000001
 20
273.728486
 30
0.0
 11
407.5215140000001
 21
274.0422239999998
 31
0.0
  0
LINE
  5
4CE20
330
4CAF8
100
AcDbEntity
  8
0
 62
     0
100
AcDbLine
 10
407.24734
 20
273.838761
 30
0.0
 11
407.4112390000001
 21
274.0026600000001
 31
0.0
  0
LINE
  5
4CE21
330
4CAF8
100
AcDbEntity
  8
0
 62
     0
100
AcDbLine
 10
407.205372
 20
273.5846620000002
 30
0.0
 11
407.6653379999999
 21
274.0446280000001
 31
0.0
  0
LINE
  5
4CE22
330
4CAF8
100
AcDbEntity
  8
0
 62
     0
100
AcDbLine
 10
407.2191469999999
 20
273.5277259999998
 30
0.0
 11
407.7222740000001
 21
274.0308530000002
 31
0.0
  0
LINE
  5
4CE23
330
4CAF8
100
AcDbEntity
  8
0
 62
     0
100
AcDbLine
 10
407.239277
 20
273.4771449999998
 30
0.0
 11
407.772855
 21
274.0107229999999
 31
0.0
  0
LINE
  5
4CE24
330
4CAF8
100
AcDbEntity
  8
0
 62
     0
100
AcDbLine
 10
407.2647109999999
 20
273.4318680000001
 30
0.0
 11
407.818132
 21
273.9852890000002
 31
0.0
  0
LINE
  5
4CE25
330
4CAF8
100
AcDbEntity
  8
0
 62
     0
100
AcDbLine
 10
407.2948889999999
 20
273.3913360000001
 30
0.0
 11
407.858664
 21
273.9551110000002
 31
0.0
  0
LINE
  5
4CE26
330
4CAF8
100
AcDbEntity
  8
0
 62
     0
100
AcDbLine
 10
407.32955
 20
273.355286
 30
0.0
 11
407.8947140000001
 21
273.9204500000001
 31
0.0
  0
LINE
  5
4CE27
330
4CAF8
100
AcDbEntity
  8
0
 62
     0
100
AcDbLine
 10
407.36866
 20
273.3236849999998
 30
0.0
 11
407.926315
 21
273.8813399999999
 31
0.0
  0
LINE
  5
4CE28
330
4CAF8
100
AcDbEntity
  8
0
 62
     0
100
AcDbLine
 10
407.412404
 20
273.2967189999999
 30
0.0
 11
407.9532810000002
 21
273.8375959999998
 31
0.0
  0
LINE
  5
4CE29
330
4CAF8
100
AcDbEntity
  8
0
 62
     0
100
AcDbLine
 10
407.4612370000001
 20
273.27484
 30
0.0
 11
407.9751600000001
 21
273.788763
 31
0.0
  0
LINE
  5
4CE2A
330
4CAF8
100
AcDbEntity
  8
0
 62
     0
100
AcDbLine
 10
407.5160219999999
 20
273.2589149999999
 30
0.0
 11
407.991085
 21
273.7339780000002
 31
0.0
  0
LINE
  5
4CE2B
330
4CAF8
100
AcDbEntity
  8
0
 62
     0
100
AcDbLine
 10
407.5784009999999
 20
273.2505839999999
 30
0.0
 11
407.999416
 21
273.6715989999998
 31
0.0
  0
LINE
  5
4CE2C
330
4CAF8
100
AcDbEntity
  8
0
 62
     0
100
AcDbLine
 10
407.651911
 20
273.2533830000002
 30
0.0
 11
407.9966169999999
 21
273.5980890000001
 31
0.0
  0
LINE
  5
4CE2D
330
4CAF8
100
AcDbEntity
  8
0
 62
     0
100
AcDbLine
 10
407.7473799999999
 20
273.2781409999998
 30
0.0
 11
407.9718589999999
 21
273.5026200000002
 31
0.0
  0
LINE
  5
4CE2E
330
4CAF8
100
AcDbEntity
  8
0
 62
     0
100
AcDbLine
 10
407.1999999999999
 20
273.6500000000001
 30
0.0
 11
407.6
 21
273.25
 31
0.0
  0
LINE
  5
4CE2F
330
4CAF8
100
AcDbEntity
  8
0
 62
     0
100
AcDbLine
 10
407.205372
 20
273.715338
 30
0.0
 11
407.6653379999999
 21
273.2553720000001
 31
0.0
  0
LINE
  5
4CE30
330
4CAF8
100
AcDbEntity
  8
0
 62
     0
100
AcDbLine
 10
407.2191469999999
 20
273.7722739999999
 30
0.0
 11
407.7222740000001
 21
273.269147
 31
0.0
  0
LINE
  5
4CE31
330
4CAF8
100
AcDbEntity
  8
0
 62
     0
100
AcDbLine
 10
407.239277
 20
273.8228549999999
 30
0.0
 11
407.772855
 21
273.2892769999999
 31
0.0
  0
LINE
  5
4CE32
330
4CAF8
100
AcDbEntity
  8
0
 62
     0
100
AcDbLine
 10
407.2647109999999
 20
273.8681320000001
 30
0.0
 11
407.818132
 21
273.314711
 31
0.0
  0
LINE
  5
4CE33
330
4CAF8
100
AcDbEntity
  8
0
 62
     0
100
AcDbLine
 10
407.2948889999999
 20
273.908664
 30
0.0
 11
407.858664
 21
273.344889
 31
0.0
  0
LINE
  5
4CE34
330
4CAF8
100
AcDbEntity
  8
0
 62
     0
100
AcDbLine
 10
407.32955
 20
273.9447140000002
 30
0.0
 11
407.8947140000001
 21
273.3795500000001
 31
0.0
  0
LINE
  5
4CE35
330
4CAF8
100
AcDbEntity
  8
0
 62
     0
100
AcDbLine
 10
407.36866
 20
273.9763149999999
 30
0.0
 11
407.926315
 21
273.4186599999998
 31
0.0
  0
LINE
  5
4CE36
330
4CAF8
100
AcDbEntity
  8
0
 62
     0
100
AcDbLine
 10
407.412404
 20
274.0032809999998
 30
0.0
 11
407.9532810000002
 21
273.4624039999999
 31
0.0
  0
LINE
  5
4CE37
330
4CAF8
100
AcDbEntity
  8
0
 62
     0
100
AcDbLine
 10
407.4612370000001
 20
274.0251600000001
 30
0.0
 11
407.9751600000001
 21
273.5112370000002
 31
0.0
  0
LINE
  5
4CE38
330
4CAF8
100
AcDbEntity
  8
0
 62
     0
100
AcDbLine
 10
407.5160219999999
 20
274.0410849999998
 30
0.0
 11
407.991085
 21
273.566022
 31
0.0
  0
LINE
  5
4CE39
330
4CAF8
100
AcDbEntity
  8
0
 62
     0
100
AcDbLine
 10
407.5784009999999
 20
274.0494159999998
 30
0.0
 11
407.999416
 21
273.6284009999999
 31
0.0
  0
LINE
  5
4CE3A
330
4CAF8
100
AcDbEntity
  8
0
 62
     0
100
AcDbLine
 10
407.651911
 20
274.046617
 30
0.0
 11
407.9966169999999
 21
273.7019110000001
 31
0.0
  0
LINE
  5
4CE3B
330
4CAF8
100
AcDbEntity
  8
0
 62
     0
100
AcDbLine
 10
407.7473799999999
 20
274.0218589999999
 30
0.0
 11
407.9718589999999
 21
273.79738
 31
0.0
  0
LINE
  5
4CE3C
330
4CAF8
100
AcDbEntity
  8
0
 62
     0
100
AcDbLine
 10
407.2077760000001
 20
273.5715140000002
 30
0.0
 11
407.5215140000001
 21
273.2577759999999
 31
0.0
  0
LINE
  5
4CE3D
330
4CAF8
100
AcDbEntity
  8
0
 62
     0
100
AcDbLine
 10
407.24734
 20
273.4612390000002
 30
0.0
 11
407.4112390000001
 21
273.2973400000001
 31
0.0
  0
LINE
  5
4CE3E
330
4CAF8
100
AcDbEntity
  8
0
 62
     0
100
AcDbLine
 10
407.1999999999999
 20
267.6500000000001
 30
0.0
 11
407.6
 21
268.0500000000002
 31
0.0
  0
LINE
  5
4CE3F
330
4CAF8
100
AcDbEntity
  8
0
 62
     0
100
AcDbLine
 10
407.2077760000001
 20
267.728486
 30
0.0
 11
407.5215140000001
 21
268.0422239999998
 31
0.0
  0
LINE
  5
4CE40
330
4CAF8
100
AcDbEntity
  8
0
 62
     0
100
AcDbLine
 10
407.24734
 20
267.838761
 30
0.0
 11
407.4112390000001
 21
268.0026600000001
 31
0.0
  0
LINE
  5
4CE41
330
4CAF8
100
AcDbEntity
  8
0
 62
     0
100
AcDbLine
 10
407.205372
 20
267.5846620000002
 30
0.0
 11
407.6653379999999
 21
268.0446280000001
 31
0.0
  0
LINE
  5
4CE42
330
4CAF8
100
AcDbEntity
  8
0
 62
     0
100
AcDbLine
 10
407.2191469999999
 20
267.5277259999998
 30
0.0
 11
407.7222740000001
 21
268.0308530000002
 31
0.0
  0
LINE
  5
4CE43
330
4CAF8
100
AcDbEntity
  8
0
 62
     0
100
AcDbLine
 10
407.239277
 20
267.4771449999998
 30
0.0
 11
407.772855
 21
268.0107229999999
 31
0.0
  0
LINE
  5
4CE44
330
4CAF8
100
AcDbEntity
  8
0
 62
     0
100
AcDbLine
 10
407.2647109999999
 20
267.4318680000001
 30
0.0
 11
407.818132
 21
267.9852890000002
 31
0.0
  0
LINE
  5
4CE45
330
4CAF8
100
AcDbEntity
  8
0
 62
     0
100
AcDbLine
 10
407.2948889999999
 20
267.3913360000001
 30
0.0
 11
407.858664
 21
267.9551110000002
 31
0.0
  0
LINE
  5
4CE46
330
4CAF8
100
AcDbEntity
  8
0
 62
     0
100
AcDbLine
 10
407.32955
 20
267.355286
 30
0.0
 11
407.8947140000001
 21
267.9204500000001
 31
0.0
  0
LINE
  5
4CE47
330
4CAF8
100
AcDbEntity
  8
0
 62
     0
100
AcDbLine
 10
407.36866
 20
267.3236849999998
 30
0.0
 11
407.926315
 21
267.8813399999999
 31
0.0
  0
LINE
  5
4CE48
330
4CAF8
100
AcDbEntity
  8
0
 62
     0
100
AcDbLine
 10
407.412404
 20
267.2967189999999
 30
0.0
 11
407.9532810000002
 21
267.8375959999998
 31
0.0
  0
LINE
  5
4CE49
330
4CAF8
100
AcDbEntity
  8
0
 62
     0
100
AcDbLine
 10
407.4612370000001
 20
267.27484
 30
0.0
 11
407.9751600000001
 21
267.788763
 31
0.0
  0
LINE
  5
4CE4A
330
4CAF8
100
AcDbEntity
  8
0
 62
     0
100
AcDbLine
 10
407.5160219999999
 20
267.2589149999999
 30
0.0
 11
407.991085
 21
267.7339780000002
 31
0.0
  0
LINE
  5
4CE4B
330
4CAF8
100
AcDbEntity
  8
0
 62
     0
100
AcDbLine
 10
407.5784009999999
 20
267.2505839999999
 30
0.0
 11
407.999416
 21
267.6715989999998
 31
0.0
  0
LINE
  5
4CE4C
330
4CAF8
100
AcDbEntity
  8
0
 62
     0
100
AcDbLine
 10
407.651911
 20
267.2533830000002
 30
0.0
 11
407.9966169999999
 21
267.5980890000001
 31
0.0
  0
LINE
  5
4CE4D
330
4CAF8
100
AcDbEntity
  8
0
 62
     0
100
AcDbLine
 10
407.7473799999999
 20
267.2781409999998
 30
0.0
 11
407.9718589999999
 21
267.5026200000002
 31
0.0
  0
LINE
  5
4CE4E
330
4CAF8
100
AcDbEntity
  8
0
 62
     0
100
AcDbLine
 10
407.1999999999999
 20
267.6500000000001
 30
0.0
 11
407.6
 21
267.25
 31
0.0
  0
LINE
  5
4CE4F
330
4CAF8
100
AcDbEntity
  8
0
 62
     0
100
AcDbLine
 10
407.205372
 20
267.715338
 30
0.0
 11
407.6653379999999
 21
267.2553720000001
 31
0.0
  0
LINE
  5
4CE50
330
4CAF8
100
AcDbEntity
  8
0
 62
     0
100
AcDbLine
 10
407.2191469999999
 20
267.7722739999999
 30
0.0
 11
407.7222740000001
 21
267.269147
 31
0.0
  0
LINE
  5
4CE51
330
4CAF8
100
AcDbEntity
  8
0
 62
     0
100
AcDbLine
 10
407.239277
 20
267.8228549999999
 30
0.0
 11
407.772855
 21
267.2892769999999
 31
0.0
  0
LINE
  5
4CE52
330
4CAF8
100
AcDbEntity
  8
0
 62
     0
100
AcDbLine
 10
407.2647109999999
 20
267.8681320000001
 30
0.0
 11
407.818132
 21
267.314711
 31
0.0
  0
LINE
  5
4CE53
330
4CAF8
100
AcDbEntity
  8
0
 62
     0
100
AcDbLine
 10
407.2948889999999
 20
267.908664
 30
0.0
 11
407.858664
 21
267.344889
 31
0.0
  0
LINE
  5
4CE54
330
4CAF8
100
AcDbEntity
  8
0
 62
     0
100
AcDbLine
 10
407.32955
 20
267.9447140000002
 30
0.0
 11
407.8947140000001
 21
267.3795500000001
 31
0.0
  0
LINE
  5
4CE55
330
4CAF8
100
AcDbEntity
  8
0
 62
     0
100
AcDbLine
 10
407.36866
 20
267.9763149999999
 30
0.0
 11
407.926315
 21
267.4186599999998
 31
0.0
  0
LINE
  5
4CE56
330
4CAF8
100
AcDbEntity
  8
0
 62
     0
100
AcDbLine
 10
407.412404
 20
268.0032809999998
 30
0.0
 11
407.9532810000002
 21
267.4624039999999
 31
0.0
  0
LINE
  5
4CE57
330
4CAF8
100
AcDbEntity
  8
0
 62
     0
100
AcDbLine
 10
407.4612370000001
 20
268.0251600000001
 30
0.0
 11
407.9751600000001
 21
267.5112370000002
 31
0.0
  0
LINE
  5
4CE58
330
4CAF8
100
AcDbEntity
  8
0
 62
     0
100
AcDbLine
 10
407.5160219999999
 20
268.0410849999998
 30
0.0
 11
407.991085
 21
267.566022
 31
0.0
  0
LINE
  5
4CE59
330
4CAF8
100
AcDbEntity
  8
0
 62
     0
100
AcDbLine
 10
407.5784009999999
 20
268.0494159999998
 30
0.0
 11
407.999416
 21
267.6284009999999
 31
0.0
  0
LINE
  5
4CE5A
330
4CAF8
100
AcDbEntity
  8
0
 62
     0
100
AcDbLine
 10
407.651911
 20
268.046617
 30
0.0
 11
407.9966169999999
 21
267.7019110000001
 31
0.0
  0
LINE
  5
4CE5B
330
4CAF8
100
AcDbEntity
  8
0
 62
     0
100
AcDbLine
 10
407.7473799999999
 20
268.0218589999999
 30
0.0
 11
407.9718589999999
 21
267.79738
 31
0.0
  0
LINE
  5
4CE5C
330
4CAF8
100
AcDbEntity
  8
0
 62
     0
100
AcDbLine
 10
407.2077760000001
 20
267.5715140000002
 30
0.0
 11
407.5215140000001
 21
267.2577759999999
 31
0.0
  0
LINE
  5
4CE5D
330
4CAF8
100
AcDbEntity
  8
0
 62
     0
100
AcDbLine
 10
407.24734
 20
267.4612390000002
 30
0.0
 11
407.4112390000001
 21
267.2973400000001
 31
0.0
  0
LINE
  5
4CE5E
330
4CAF8
100
AcDbEntity
  8
0
 62
     0
100
AcDbLine
 10
407.1999999999999
 20
261.6500000000001
 30
0.0
 11
407.6
 21
262.0500000000002
 31
0.0
  0
LINE
  5
4CE5F
330
4CAF8
100
AcDbEntity
  8
0
 62
     0
100
AcDbLine
 10
407.2077760000001
 20
261.728486
 30
0.0
 11
407.5215140000001
 21
262.0422239999998
 31
0.0
  0
LINE
  5
4CE60
330
4CAF8
100
AcDbEntity
  8
0
 62
     0
100
AcDbLine
 10
407.24734
 20
261.838761
 30
0.0
 11
407.4112390000001
 21
262.0026600000001
 31
0.0
  0
LINE
  5
4CE61
330
4CAF8
100
AcDbEntity
  8
0
 62
     0
100
AcDbLine
 10
407.205372
 20
261.5846620000002
 30
0.0
 11
407.6653379999999
 21
262.0446280000001
 31
0.0
  0
LINE
  5
4CE62
330
4CAF8
100
AcDbEntity
  8
0
 62
     0
100
AcDbLine
 10
407.2191469999999
 20
261.5277259999998
 30
0.0
 11
407.7222740000001
 21
262.0308530000002
 31
0.0
  0
LINE
  5
4CE63
330
4CAF8
100
AcDbEntity
  8
0
 62
     0
100
AcDbLine
 10
407.239277
 20
261.4771449999998
 30
0.0
 11
407.772855
 21
262.0107229999999
 31
0.0
  0
LINE
  5
4CE64
330
4CAF8
100
AcDbEntity
  8
0
 62
     0
100
AcDbLine
 10
407.2647109999999
 20
261.4318680000001
 30
0.0
 11
407.818132
 21
261.9852890000002
 31
0.0
  0
LINE
  5
4CE65
330
4CAF8
100
AcDbEntity
  8
0
 62
     0
100
AcDbLine
 10
407.2948889999999
 20
261.3913360000001
 30
0.0
 11
407.858664
 21
261.9551110000002
 31
0.0
  0
LINE
  5
4CE66
330
4CAF8
100
AcDbEntity
  8
0
 62
     0
100
AcDbLine
 10
407.32955
 20
261.355286
 30
0.0
 11
407.8947140000001
 21
261.9204500000001
 31
0.0
  0
LINE
  5
4CE67
330
4CAF8
100
AcDbEntity
  8
0
 62
     0
100
AcDbLine
 10
407.36866
 20
261.3236849999998
 30
0.0
 11
407.926315
 21
261.8813399999999
 31
0.0
  0
LINE
  5
4CE68
330
4CAF8
100
AcDbEntity
  8
0
 62
     0
100
AcDbLine
 10
407.412404
 20
261.2967189999999
 30
0.0
 11
407.9532810000002
 21
261.8375959999998
 31
0.0
  0
LINE
  5
4CE69
330
4CAF8
100
AcDbEntity
  8
0
 62
     0
100
AcDbLine
 10
407.4612370000001
 20
261.27484
 30
0.0
 11
407.9751600000001
 21
261.788763
 31
0.0
  0
LINE
  5
4CE6A
330
4CAF8
100
AcDbEntity
  8
0
 62
     0
100
AcDbLine
 10
407.5160219999999
 20
261.2589149999999
 30
0.0
 11
407.991085
 21
261.7339780000002
 31
0.0
  0
LINE
  5
4CE6B
330
4CAF8
100
AcDbEntity
  8
0
 62
     0
100
AcDbLine
 10
407.5784009999999
 20
261.2505839999999
 30
0.0
 11
407.999416
 21
261.6715989999998
 31
0.0
  0
LINE
  5
4CE6C
330
4CAF8
100
AcDbEntity
  8
0
 62
     0
100
AcDbLine
 10
407.651911
 20
261.2533830000002
 30
0.0
 11
407.9966169999999
 21
261.5980890000001
 31
0.0
  0
LINE
  5
4CE6D
330
4CAF8
100
AcDbEntity
  8
0
 62
     0
100
AcDbLine
 10
407.7473799999999
 20
261.2781409999998
 30
0.0
 11
407.9718589999999
 21
261.5026200000002
 31
0.0
  0
LINE
  5
4CE6E
330
4CAF8
100
AcDbEntity
  8
0
 62
     0
100
AcDbLine
 10
407.1999999999999
 20
261.6500000000001
 30
0.0
 11
407.6
 21
261.25
 31
0.0
  0
LINE
  5
4CE6F
330
4CAF8
100
AcDbEntity
  8
0
 62
     0
100
AcDbLine
 10
407.205372
 20
261.715338
 30
0.0
 11
407.6653379999999
 21
261.2553720000001
 31
0.0
  0
LINE
  5
4CE70
330
4CAF8
100
AcDbEntity
  8
0
 62
     0
100
AcDbLine
 10
407.2191469999999
 20
261.7722739999999
 30
0.0
 11
407.7222740000001
 21
261.269147
 31
0.0
  0
LINE
  5
4CE71
330
4CAF8
100
AcDbEntity
  8
0
 62
     0
100
AcDbLine
 10
407.239277
 20
261.8228549999999
 30
0.0
 11
407.772855
 21
261.2892769999999
 31
0.0
  0
LINE
  5
4CE72
330
4CAF8
100
AcDbEntity
  8
0
 62
     0
100
AcDbLine
 10
407.2647109999999
 20
261.8681320000001
 30
0.0
 11
407.818132
 21
261.314711
 31
0.0
  0
LINE
  5
4CE73
330
4CAF8
100
AcDbEntity
  8
0
 62
     0
100
AcDbLine
 10
407.2948889999999
 20
261.908664
 30
0.0
 11
407.858664
 21
261.344889
 31
0.0
  0
LINE
  5
4CE74
330
4CAF8
100
AcDbEntity
  8
0
 62
     0
100
AcDbLine
 10
407.32955
 20
261.9447140000002
 30
0.0
 11
407.8947140000001
 21
261.3795500000001
 31
0.0
  0
LINE
  5
4CE75
330
4CAF8
100
AcDbEntity
  8
0
 62
     0
100
AcDbLine
 10
407.36866
 20
261.9763149999999
 30
0.0
 11
407.926315
 21
261.4186599999998
 31
0.0
  0
LINE
  5
4CE76
330
4CAF8
100
AcDbEntity
  8
0
 62
     0
100
AcDbLine
 10
407.412404
 20
262.0032809999998
 30
0.0
 11
407.9532810000002
 21
261.4624039999999
 31
0.0
  0
LINE
  5
4CE77
330
4CAF8
100
AcDbEntity
  8
0
 62
     0
100
AcDbLine
 10
407.4612370000001
 20
262.0251600000001
 30
0.0
 11
407.9751600000001
 21
261.5112370000002
 31
0.0
  0
LINE
  5
4CE78
330
4CAF8
100
AcDbEntity
  8
0
 62
     0
100
AcDbLine
 10
407.5160219999999
 20
262.0410849999998
 30
0.0
 11
407.991085
 21
261.566022
 31
0.0
  0
LINE
  5
4CE79
330
4CAF8
100
AcDbEntity
  8
0
 62
     0
100
AcDbLine
 10
407.5784009999999
 20
262.0494159999998
 30
0.0
 11
407.999416
 21
261.6284009999999
 31
0.0
  0
LINE
  5
4CE7A
330
4CAF8
100
AcDbEntity
  8
0
 62
     0
100
AcDbLine
 10
407.651911
 20
262.046617
 30
0.0
 11
407.9966169999999
 21
261.7019110000001
 31
0.0
  0
LINE
  5
4CE7B
330
4CAF8
100
AcDbEntity
  8
0
 62
     0
100
AcDbLine
 10
407.7473799999999
 20
262.0218589999999
 30
0.0
 11
407.9718589999999
 21
261.79738
 31
0.0
  0
LINE
  5
4CE7C
330
4CAF8
100
AcDbEntity
  8
0
 62
     0
100
AcDbLine
 10
407.2077760000001
 20
261.5715140000002
 30
0.0
 11
407.5215140000001
 21
261.2577759999999
 31
0.0
  0
LINE
  5
4CE7D
330
4CAF8
100
AcDbEntity
  8
0
 62
     0
100
AcDbLine
 10
407.24734
 20
261.4612390000002
 30
0.0
 11
407.4112390000001
 21
261.2973400000001
 31
0.0
  0
LINE
  5
4CE7E
330
4CAF8
100
AcDbEntity
  8
0
 62
     0
100
AcDbLine
 10
407.1999999999999
 20
255.6500000000001
 30
0.0
 11
407.6
 21
256.0500000000002
 31
0.0
  0
LINE
  5
4CE7F
330
4CAF8
100
AcDbEntity
  8
0
 62
     0
100
AcDbLine
 10
407.2077760000001
 20
255.728486
 30
0.0
 11
407.5215140000001
 21
256.0422239999998
 31
0.0
  0
LINE
  5
4CE80
330
4CAF8
100
AcDbEntity
  8
0
 62
     0
100
AcDbLine
 10
407.24734
 20
255.838761
 30
0.0
 11
407.4112390000001
 21
256.0026600000001
 31
0.0
  0
LINE
  5
4CE81
330
4CAF8
100
AcDbEntity
  8
0
 62
     0
100
AcDbLine
 10
407.205372
 20
255.5846620000002
 30
0.0
 11
407.6653379999999
 21
256.0446280000001
 31
0.0
  0
LINE
  5
4CE82
330
4CAF8
100
AcDbEntity
  8
0
 62
     0
100
AcDbLine
 10
407.2191469999999
 20
255.5277259999998
 30
0.0
 11
407.7222740000001
 21
256.0308530000002
 31
0.0
  0
LINE
  5
4CE83
330
4CAF8
100
AcDbEntity
  8
0
 62
     0
100
AcDbLine
 10
407.239277
 20
255.4771449999998
 30
0.0
 11
407.772855
 21
256.0107229999999
 31
0.0
  0
LINE
  5
4CE84
330
4CAF8
100
AcDbEntity
  8
0
 62
     0
100
AcDbLine
 10
407.2647109999999
 20
255.4318680000001
 30
0.0
 11
407.818132
 21
255.9852890000002
 31
0.0
  0
LINE
  5
4CE85
330
4CAF8
100
AcDbEntity
  8
0
 62
     0
100
AcDbLine
 10
407.2948889999999
 20
255.3913360000001
 30
0.0
 11
407.858664
 21
255.9551110000002
 31
0.0
  0
LINE
  5
4CE86
330
4CAF8
100
AcDbEntity
  8
0
 62
     0
100
AcDbLine
 10
407.32955
 20
255.355286
 30
0.0
 11
407.8947140000001
 21
255.9204500000001
 31
0.0
  0
LINE
  5
4CE87
330
4CAF8
100
AcDbEntity
  8
0
 62
     0
100
AcDbLine
 10
407.36866
 20
255.3236849999998
 30
0.0
 11
407.926315
 21
255.8813399999999
 31
0.0
  0
LINE
  5
4CE88
330
4CAF8
100
AcDbEntity
  8
0
 62
     0
100
AcDbLine
 10
407.412404
 20
255.2967189999999
 30
0.0
 11
407.9532810000002
 21
255.8375959999998
 31
0.0
  0
LINE
  5
4CE89
330
4CAF8
100
AcDbEntity
  8
0
 62
     0
100
AcDbLine
 10
407.4612370000001
 20
255.27484
 30
0.0
 11
407.9751600000001
 21
255.788763
 31
0.0
  0
LINE
  5
4CE8A
330
4CAF8
100
AcDbEntity
  8
0
 62
     0
100
AcDbLine
 10
407.5160219999999
 20
255.2589149999999
 30
0.0
 11
407.991085
 21
255.7339780000002
 31
0.0
  0
LINE
  5
4CE8B
330
4CAF8
100
AcDbEntity
  8
0
 62
     0
100
AcDbLine
 10
407.5784009999999
 20
255.2505839999999
 30
0.0
 11
407.999416
 21
255.6715989999998
 31
0.0
  0
LINE
  5
4CE8C
330
4CAF8
100
AcDbEntity
  8
0
 62
     0
100
AcDbLine
 10
407.651911
 20
255.2533830000002
 30
0.0
 11
407.9966169999999
 21
255.5980890000001
 31
0.0
  0
LINE
  5
4CE8D
330
4CAF8
100
AcDbEntity
  8
0
 62
     0
100
AcDbLine
 10
407.7473799999999
 20
255.2781409999998
 30
0.0
 11
407.9718589999999
 21
255.5026200000002
 31
0.0
  0
LINE
  5
4CE8E
330
4CAF8
100
AcDbEntity
  8
0
 62
     0
100
AcDbLine
 10
407.1999999999999
 20
255.6500000000001
 30
0.0
 11
407.6
 21
255.25
 31
0.0
  0
LINE
  5
4CE8F
330
4CAF8
100
AcDbEntity
  8
0
 62
     0
100
AcDbLine
 10
407.205372
 20
255.715338
 30
0.0
 11
407.6653379999999
 21
255.2553720000001
 31
0.0
  0
LINE
  5
4CE90
330
4CAF8
100
AcDbEntity
  8
0
 62
     0
100
AcDbLine
 10
407.2191469999999
 20
255.7722739999999
 30
0.0
 11
407.7222740000001
 21
255.269147
 31
0.0
  0
LINE
  5
4CE91
330
4CAF8
100
AcDbEntity
  8
0
 62
     0
100
AcDbLine
 10
407.239277
 20
255.8228549999999
 30
0.0
 11
407.772855
 21
255.2892769999999
 31
0.0
  0
LINE
  5
4CE92
330
4CAF8
100
AcDbEntity
  8
0
 62
     0
100
AcDbLine
 10
407.2647109999999
 20
255.8681320000001
 30
0.0
 11
407.818132
 21
255.314711
 31
0.0
  0
LINE
  5
4CE93
330
4CAF8
100
AcDbEntity
  8
0
 62
     0
100
AcDbLine
 10
407.2948889999999
 20
255.908664
 30
0.0
 11
407.858664
 21
255.344889
 31
0.0
  0
LINE
  5
4CE94
330
4CAF8
100
AcDbEntity
  8
0
 62
     0
100
AcDbLine
 10
407.32955
 20
255.9447140000002
 30
0.0
 11
407.8947140000001
 21
255.3795500000001
 31
0.0
  0
LINE
  5
4CE95
330
4CAF8
100
AcDbEntity
  8
0
 62
     0
100
AcDbLine
 10
407.36866
 20
255.9763149999999
 30
0.0
 11
407.926315
 21
255.4186599999998
 31
0.0
  0
LINE
  5
4CE96
330
4CAF8
100
AcDbEntity
  8
0
 62
     0
100
AcDbLine
 10
407.412404
 20
256.0032809999998
 30
0.0
 11
407.9532810000002
 21
255.4624039999999
 31
0.0
  0
LINE
  5
4CE97
330
4CAF8
100
AcDbEntity
  8
0
 62
     0
100
AcDbLine
 10
407.4612370000001
 20
256.0251600000001
 30
0.0
 11
407.9751600000001
 21
255.5112370000002
 31
0.0
  0
LINE
  5
4CE98
330
4CAF8
100
AcDbEntity
  8
0
 62
     0
100
AcDbLine
 10
407.5160219999999
 20
256.0410849999998
 30
0.0
 11
407.991085
 21
255.566022
 31
0.0
  0
LINE
  5
4CE99
330
4CAF8
100
AcDbEntity
  8
0
 62
     0
100
AcDbLine
 10
407.5784009999999
 20
256.0494159999998
 30
0.0
 11
407.999416
 21
255.6284009999999
 31
0.0
  0
LINE
  5
4CE9A
330
4CAF8
100
AcDbEntity
  8
0
 62
     0
100
AcDbLine
 10
407.651911
 20
256.046617
 30
0.0
 11
407.9966169999999
 21
255.7019110000001
 31
0.0
  0
LINE
  5
4CE9B
330
4CAF8
100
AcDbEntity
  8
0
 62
     0
100
AcDbLine
 10
407.7473799999999
 20
256.0218589999999
 30
0.0
 11
407.9718589999999
 21
255.79738
 31
0.0
  0
LINE
  5
4CE9C
330
4CAF8
100
AcDbEntity
  8
0
 62
     0
100
AcDbLine
 10
407.2077760000001
 20
255.5715140000002
 30
0.0
 11
407.5215140000001
 21
255.2577759999999
 31
0.0
  0
LINE
  5
4CE9D
330
4CAF8
100
AcDbEntity
  8
0
 62
     0
100
AcDbLine
 10
407.24734
 20
255.4612390000002
 30
0.0
 11
407.4112390000001
 21
255.2973400000001
 31
0.0
  0
LINE
  5
4CE9E
330
4CAF8
100
AcDbEntity
  8
0
 62
     0
100
AcDbLine
 10
407.1999999999999
 20
249.6500000000001
 30
0.0
 11
407.6
 21
250.0500000000002
 31
0.0
  0
LINE
  5
4CE9F
330
4CAF8
100
AcDbEntity
  8
0
 62
     0
100
AcDbLine
 10
407.2077760000001
 20
249.728486
 30
0.0
 11
407.5215140000001
 21
250.0422239999998
 31
0.0
  0
LINE
  5
4CEA0
330
4CAF8
100
AcDbEntity
  8
0
 62
     0
100
AcDbLine
 10
407.24734
 20
249.838761
 30
0.0
 11
407.4112390000001
 21
250.0026600000001
 31
0.0
  0
LINE
  5
4CEA1
330
4CAF8
100
AcDbEntity
  8
0
 62
     0
100
AcDbLine
 10
407.205372
 20
249.5846620000002
 30
0.0
 11
407.6653379999999
 21
250.0446280000001
 31
0.0
  0
LINE
  5
4CEA2
330
4CAF8
100
AcDbEntity
  8
0
 62
     0
100
AcDbLine
 10
407.2191469999999
 20
249.5277259999998
 30
0.0
 11
407.7222740000001
 21
250.0308530000002
 31
0.0
  0
LINE
  5
4CEA3
330
4CAF8
100
AcDbEntity
  8
0
 62
     0
100
AcDbLine
 10
407.239277
 20
249.4771449999998
 30
0.0
 11
407.772855
 21
250.0107229999999
 31
0.0
  0
LINE
  5
4CEA4
330
4CAF8
100
AcDbEntity
  8
0
 62
     0
100
AcDbLine
 10
407.2647109999999
 20
249.4318680000001
 30
0.0
 11
407.818132
 21
249.9852890000002
 31
0.0
  0
LINE
  5
4CEA5
330
4CAF8
100
AcDbEntity
  8
0
 62
     0
100
AcDbLine
 10
407.2948889999999
 20
249.3913360000001
 30
0.0
 11
407.858664
 21
249.9551110000002
 31
0.0
  0
LINE
  5
4CEA6
330
4CAF8
100
AcDbEntity
  8
0
 62
     0
100
AcDbLine
 10
407.32955
 20
249.355286
 30
0.0
 11
407.8947140000001
 21
249.9204500000001
 31
0.0
  0
LINE
  5
4CEA7
330
4CAF8
100
AcDbEntity
  8
0
 62
     0
100
AcDbLine
 10
407.36866
 20
249.3236849999998
 30
0.0
 11
407.926315
 21
249.8813399999999
 31
0.0
  0
LINE
  5
4CEA8
330
4CAF8
100
AcDbEntity
  8
0
 62
     0
100
AcDbLine
 10
407.412404
 20
249.2967189999999
 30
0.0
 11
407.9532810000002
 21
249.8375959999998
 31
0.0
  0
LINE
  5
4CEA9
330
4CAF8
100
AcDbEntity
  8
0
 62
     0
100
AcDbLine
 10
407.4612370000001
 20
249.27484
 30
0.0
 11
407.9751600000001
 21
249.788763
 31
0.0
  0
LINE
  5
4CEAA
330
4CAF8
100
AcDbEntity
  8
0
 62
     0
100
AcDbLine
 10
407.5160219999999
 20
249.2589149999999
 30
0.0
 11
407.991085
 21
249.7339780000002
 31
0.0
  0
LINE
  5
4CEAB
330
4CAF8
100
AcDbEntity
  8
0
 62
     0
100
AcDbLine
 10
407.5784009999999
 20
249.2505839999999
 30
0.0
 11
407.999416
 21
249.6715989999998
 31
0.0
  0
LINE
  5
4CEAC
330
4CAF8
100
AcDbEntity
  8
0
 62
     0
100
AcDbLine
 10
407.651911
 20
249.2533830000002
 30
0.0
 11
407.9966169999999
 21
249.5980890000001
 31
0.0
  0
LINE
  5
4CEAD
330
4CAF8
100
AcDbEntity
  8
0
 62
     0
100
AcDbLine
 10
407.7473799999999
 20
249.2781409999998
 30
0.0
 11
407.9718589999999
 21
249.5026200000002
 31
0.0
  0
LINE
  5
4CEAE
330
4CAF8
100
AcDbEntity
  8
0
 62
     0
100
AcDbLine
 10
407.1999999999999
 20
249.6500000000001
 30
0.0
 11
407.6
 21
249.25
 31
0.0
  0
LINE
  5
4CEAF
330
4CAF8
100
AcDbEntity
  8
0
 62
     0
100
AcDbLine
 10
407.205372
 20
249.715338
 30
0.0
 11
407.6653379999999
 21
249.2553720000001
 31
0.0
  0
LINE
  5
4CEB0
330
4CAF8
100
AcDbEntity
  8
0
 62
     0
100
AcDbLine
 10
407.2191469999999
 20
249.7722739999999
 30
0.0
 11
407.7222740000001
 21
249.269147
 31
0.0
  0
LINE
  5
4CEB1
330
4CAF8
100
AcDbEntity
  8
0
 62
     0
100
AcDbLine
 10
407.239277
 20
249.8228549999999
 30
0.0
 11
407.772855
 21
249.2892769999999
 31
0.0
  0
LINE
  5
4CEB2
330
4CAF8
100
AcDbEntity
  8
0
 62
     0
100
AcDbLine
 10
407.2647109999999
 20
249.8681320000001
 30
0.0
 11
407.818132
 21
249.314711
 31
0.0
  0
LINE
  5
4CEB3
330
4CAF8
100
AcDbEntity
  8
0
 62
     0
100
AcDbLine
 10
407.2948889999999
 20
249.908664
 30
0.0
 11
407.858664
 21
249.344889
 31
0.0
  0
LINE
  5
4CEB4
330
4CAF8
100
AcDbEntity
  8
0
 62
     0
100
AcDbLine
 10
407.32955
 20
249.9447140000002
 30
0.0
 11
407.8947140000001
 21
249.3795500000001
 31
0.0
  0
LINE
  5
4CEB5
330
4CAF8
100
AcDbEntity
  8
0
 62
     0
100
AcDbLine
 10
407.36866
 20
249.9763149999999
 30
0.0
 11
407.926315
 21
249.4186599999998
 31
0.0
  0
LINE
  5
4CEB6
330
4CAF8
100
AcDbEntity
  8
0
 62
     0
100
AcDbLine
 10
407.412404
 20
250.0032809999998
 30
0.0
 11
407.9532810000002
 21
249.4624039999999
 31
0.0
  0
LINE
  5
4CEB7
330
4CAF8
100
AcDbEntity
  8
0
 62
     0
100
AcDbLine
 10
407.4612370000001
 20
250.0251600000001
 30
0.0
 11
407.9751600000001
 21
249.5112370000002
 31
0.0
  0
LINE
  5
4CEB8
330
4CAF8
100
AcDbEntity
  8
0
 62
     0
100
AcDbLine
 10
407.5160219999999
 20
250.0410849999998
 30
0.0
 11
407.991085
 21
249.566022
 31
0.0
  0
LINE
  5
4CEB9
330
4CAF8
100
AcDbEntity
  8
0
 62
     0
100
AcDbLine
 10
407.5784009999999
 20
250.0494159999998
 30
0.0
 11
407.999416
 21
249.6284009999999
 31
0.0
  0
LINE
  5
4CEBA
330
4CAF8
100
AcDbEntity
  8
0
 62
     0
100
AcDbLine
 10
407.651911
 20
250.046617
 30
0.0
 11
407.9966169999999
 21
249.7019110000001
 31
0.0
  0
LINE
  5
4CEBB
330
4CAF8
100
AcDbEntity
  8
0
 62
     0
100
AcDbLine
 10
407.7473799999999
 20
250.0218589999999
 30
0.0
 11
407.9718589999999
 21
249.79738
 31
0.0
  0
LINE
  5
4CEBC
330
4CAF8
100
AcDbEntity
  8
0
 62
     0
100
AcDbLine
 10
407.2077760000001
 20
249.5715140000002
 30
0.0
 11
407.5215140000001
 21
249.2577759999999
 31
0.0
  0
LINE
  5
4CEBD
330
4CAF8
100
AcDbEntity
  8
0
 62
     0
100
AcDbLine
 10
407.24734
 20
249.4612390000002
 30
0.0
 11
407.4112390000001
 21
249.2973400000001
 31
0.0
  0
LINE
  5
4CEBE
330
4CAF8
100
AcDbEntity
  8
0
 62
     0
100
AcDbLine
 10
407.1999999999999
 20
243.6500000000001
 30
0.0
 11
407.6
 21
244.0500000000002
 31
0.0
  0
LINE
  5
4CEBF
330
4CAF8
100
AcDbEntity
  8
0
 62
     0
100
AcDbLine
 10
407.2077760000001
 20
243.728486
 30
0.0
 11
407.5215140000001
 21
244.0422239999998
 31
0.0
  0
LINE
  5
4CEC0
330
4CAF8
100
AcDbEntity
  8
0
 62
     0
100
AcDbLine
 10
407.24734
 20
243.838761
 30
0.0
 11
407.4112390000001
 21
244.0026600000001
 31
0.0
  0
LINE
  5
4CEC1
330
4CAF8
100
AcDbEntity
  8
0
 62
     0
100
AcDbLine
 10
407.205372
 20
243.5846620000002
 30
0.0
 11
407.6653379999999
 21
244.0446280000001
 31
0.0
  0
LINE
  5
4CEC2
330
4CAF8
100
AcDbEntity
  8
0
 62
     0
100
AcDbLine
 10
407.2191469999999
 20
243.5277259999998
 30
0.0
 11
407.7222740000001
 21
244.0308530000002
 31
0.0
  0
LINE
  5
4CEC3
330
4CAF8
100
AcDbEntity
  8
0
 62
     0
100
AcDbLine
 10
407.239277
 20
243.4771449999998
 30
0.0
 11
407.772855
 21
244.0107229999999
 31
0.0
  0
LINE
  5
4CEC4
330
4CAF8
100
AcDbEntity
  8
0
 62
     0
100
AcDbLine
 10
407.2647109999999
 20
243.4318680000001
 30
0.0
 11
407.818132
 21
243.9852890000002
 31
0.0
  0
LINE
  5
4CEC5
330
4CAF8
100
AcDbEntity
  8
0
 62
     0
100
AcDbLine
 10
407.2948889999999
 20
243.3913360000001
 30
0.0
 11
407.858664
 21
243.9551110000002
 31
0.0
  0
LINE
  5
4CEC6
330
4CAF8
100
AcDbEntity
  8
0
 62
     0
100
AcDbLine
 10
407.32955
 20
243.355286
 30
0.0
 11
407.8947140000001
 21
243.9204500000001
 31
0.0
  0
LINE
  5
4CEC7
330
4CAF8
100
AcDbEntity
  8
0
 62
     0
100
AcDbLine
 10
407.36866
 20
243.3236849999998
 30
0.0
 11
407.926315
 21
243.8813399999999
 31
0.0
  0
LINE
  5
4CEC8
330
4CAF8
100
AcDbEntity
  8
0
 62
     0
100
AcDbLine
 10
407.412404
 20
243.2967189999999
 30
0.0
 11
407.9532810000002
 21
243.8375959999998
 31
0.0
  0
LINE
  5
4CEC9
330
4CAF8
100
AcDbEntity
  8
0
 62
     0
100
AcDbLine
 10
407.4612370000001
 20
243.27484
 30
0.0
 11
407.9751600000001
 21
243.788763
 31
0.0
  0
LINE
  5
4CECA
330
4CAF8
100
AcDbEntity
  8
0
 62
     0
100
AcDbLine
 10
407.5160219999999
 20
243.2589149999999
 30
0.0
 11
407.991085
 21
243.7339780000002
 31
0.0
  0
LINE
  5
4CECB
330
4CAF8
100
AcDbEntity
  8
0
 62
     0
100
AcDbLine
 10
407.5784009999999
 20
243.2505839999999
 30
0.0
 11
407.999416
 21
243.6715989999998
 31
0.0
  0
LINE
  5
4CECC
330
4CAF8
100
AcDbEntity
  8
0
 62
     0
100
AcDbLine
 10
407.651911
 20
243.2533830000002
 30
0.0
 11
407.9966169999999
 21
243.5980890000001
 31
0.0
  0
LINE
  5
4CECD
330
4CAF8
100
AcDbEntity
  8
0
 62
     0
100
AcDbLine
 10
407.7473799999999
 20
243.2781409999998
 30
0.0
 11
407.9718589999999
 21
243.5026200000002
 31
0.0
  0
LINE
  5
4CECE
330
4CAF8
100
AcDbEntity
  8
0
 62
     0
100
AcDbLine
 10
407.1999999999999
 20
243.6500000000001
 30
0.0
 11
407.6
 21
243.25
 31
0.0
  0
LINE
  5
4CECF
330
4CAF8
100
AcDbEntity
  8
0
 62
     0
100
AcDbLine
 10
407.205372
 20
243.715338
 30
0.0
 11
407.6653379999999
 21
243.2553720000001
 31
0.0
  0
LINE
  5
4CED0
330
4CAF8
100
AcDbEntity
  8
0
 62
     0
100
AcDbLine
 10
407.2191469999999
 20
243.7722739999999
 30
0.0
 11
407.7222740000001
 21
243.269147
 31
0.0
  0
LINE
  5
4CED1
330
4CAF8
100
AcDbEntity
  8
0
 62
     0
100
AcDbLine
 10
407.239277
 20
243.8228549999999
 30
0.0
 11
407.772855
 21
243.2892769999999
 31
0.0
  0
LINE
  5
4CED2
330
4CAF8
100
AcDbEntity
  8
0
 62
     0
100
AcDbLine
 10
407.2647109999999
 20
243.8681320000001
 30
0.0
 11
407.818132
 21
243.314711
 31
0.0
  0
LINE
  5
4CED3
330
4CAF8
100
AcDbEntity
  8
0
 62
     0
100
AcDbLine
 10
407.2948889999999
 20
243.908664
 30
0.0
 11
407.858664
 21
243.344889
 31
0.0
  0
LINE
  5
4CED4
330
4CAF8
100
AcDbEntity
  8
0
 62
     0
100
AcDbLine
 10
407.32955
 20
243.9447140000002
 30
0.0
 11
407.8947140000001
 21
243.3795500000001
 31
0.0
  0
LINE
  5
4CED5
330
4CAF8
100
AcDbEntity
  8
0
 62
     0
100
AcDbLine
 10
407.36866
 20
243.9763149999999
 30
0.0
 11
407.926315
 21
243.4186599999998
 31
0.0
  0
LINE
  5
4CED6
330
4CAF8
100
AcDbEntity
  8
0
 62
     0
100
AcDbLine
 10
407.412404
 20
244.0032809999998
 30
0.0
 11
407.9532810000002
 21
243.4624039999999
 31
0.0
  0
LINE
  5
4CED7
330
4CAF8
100
AcDbEntity
  8
0
 62
     0
100
AcDbLine
 10
407.4612370000001
 20
244.0251600000001
 30
0.0
 11
407.9751600000001
 21
243.5112370000002
 31
0.0
  0
LINE
  5
4CED8
330
4CAF8
100
AcDbEntity
  8
0
 62
     0
100
AcDbLine
 10
407.5160219999999
 20
244.0410849999998
 30
0.0
 11
407.991085
 21
243.566022
 31
0.0
  0
LINE
  5
4CED9
330
4CAF8
100
AcDbEntity
  8
0
 62
     0
100
AcDbLine
 10
407.5784009999999
 20
244.0494159999998
 30
0.0
 11
407.999416
 21
243.6284009999999
 31
0.0
  0
LINE
  5
4CEDA
330
4CAF8
100
AcDbEntity
  8
0
 62
     0
100
AcDbLine
 10
407.651911
 20
244.046617
 30
0.0
 11
407.9966169999999
 21
243.7019110000001
 31
0.0
  0
LINE
  5
4CEDB
330
4CAF8
100
AcDbEntity
  8
0
 62
     0
100
AcDbLine
 10
407.7473799999999
 20
244.0218589999999
 30
0.0
 11
407.9718589999999
 21
243.79738
 31
0.0
  0
LINE
  5
4CEDC
330
4CAF8
100
AcDbEntity
  8
0
 62
     0
100
AcDbLine
 10
407.2077760000001
 20
243.5715140000002
 30
0.0
 11
407.5215140000001
 21
243.2577759999999
 31
0.0
  0
LINE
  5
4CEDD
330
4CAF8
100
AcDbEntity
  8
0
 62
     0
100
AcDbLine
 10
407.24734
 20
243.4612390000002
 30
0.0
 11
407.4112390000001
 21
243.2973400000001
 31
0.0
  0
LINE
  5
4CEDE
330
4CAF8
100
AcDbEntity
  8
0
 62
     0
100
AcDbLine
 10
407.1999999999999
 20
237.6500000000001
 30
0.0
 11
407.6
 21
238.0500000000002
 31
0.0
  0
LINE
  5
4CEDF
330
4CAF8
100
AcDbEntity
  8
0
 62
     0
100
AcDbLine
 10
407.2077760000001
 20
237.728486
 30
0.0
 11
407.5215140000001
 21
238.0422239999998
 31
0.0
  0
LINE
  5
4CEE0
330
4CAF8
100
AcDbEntity
  8
0
 62
     0
100
AcDbLine
 10
407.24734
 20
237.838761
 30
0.0
 11
407.4112390000001
 21
238.0026600000001
 31
0.0
  0
LINE
  5
4CEE1
330
4CAF8
100
AcDbEntity
  8
0
 62
     0
100
AcDbLine
 10
407.205372
 20
237.5846620000002
 30
0.0
 11
407.6653379999999
 21
238.0446280000001
 31
0.0
  0
LINE
  5
4CEE2
330
4CAF8
100
AcDbEntity
  8
0
 62
     0
100
AcDbLine
 10
407.2191469999999
 20
237.5277259999998
 30
0.0
 11
407.7222740000001
 21
238.0308530000002
 31
0.0
  0
LINE
  5
4CEE3
330
4CAF8
100
AcDbEntity
  8
0
 62
     0
100
AcDbLine
 10
407.239277
 20
237.4771449999998
 30
0.0
 11
407.772855
 21
238.0107229999999
 31
0.0
  0
LINE
  5
4CEE4
330
4CAF8
100
AcDbEntity
  8
0
 62
     0
100
AcDbLine
 10
407.2647109999999
 20
237.4318680000001
 30
0.0
 11
407.818132
 21
237.9852890000002
 31
0.0
  0
LINE
  5
4CEE5
330
4CAF8
100
AcDbEntity
  8
0
 62
     0
100
AcDbLine
 10
407.2948889999999
 20
237.3913360000001
 30
0.0
 11
407.858664
 21
237.9551110000002
 31
0.0
  0
LINE
  5
4CEE6
330
4CAF8
100
AcDbEntity
  8
0
 62
     0
100
AcDbLine
 10
407.32955
 20
237.355286
 30
0.0
 11
407.8947140000001
 21
237.9204500000001
 31
0.0
  0
LINE
  5
4CEE7
330
4CAF8
100
AcDbEntity
  8
0
 62
     0
100
AcDbLine
 10
407.36866
 20
237.3236849999998
 30
0.0
 11
407.926315
 21
237.8813399999999
 31
0.0
  0
LINE
  5
4CEE8
330
4CAF8
100
AcDbEntity
  8
0
 62
     0
100
AcDbLine
 10
407.412404
 20
237.2967189999999
 30
0.0
 11
407.9532810000002
 21
237.8375959999998
 31
0.0
  0
LINE
  5
4CEE9
330
4CAF8
100
AcDbEntity
  8
0
 62
     0
100
AcDbLine
 10
407.4612370000001
 20
237.27484
 30
0.0
 11
407.9751600000001
 21
237.788763
 31
0.0
  0
LINE
  5
4CEEA
330
4CAF8
100
AcDbEntity
  8
0
 62
     0
100
AcDbLine
 10
407.5160219999999
 20
237.2589149999999
 30
0.0
 11
407.991085
 21
237.7339780000002
 31
0.0
  0
LINE
  5
4CEEB
330
4CAF8
100
AcDbEntity
  8
0
 62
     0
100
AcDbLine
 10
407.5784009999999
 20
237.2505839999999
 30
0.0
 11
407.999416
 21
237.6715989999998
 31
0.0
  0
LINE
  5
4CEEC
330
4CAF8
100
AcDbEntity
  8
0
 62
     0
100
AcDbLine
 10
407.651911
 20
237.2533830000002
 30
0.0
 11
407.9966169999999
 21
237.5980890000001
 31
0.0
  0
LINE
  5
4CEED
330
4CAF8
100
AcDbEntity
  8
0
 62
     0
100
AcDbLine
 10
407.7473799999999
 20
237.2781409999998
 30
0.0
 11
407.9718589999999
 21
237.5026200000002
 31
0.0
  0
LINE
  5
4CEEE
330
4CAF8
100
AcDbEntity
  8
0
 62
     0
100
AcDbLine
 10
407.1999999999999
 20
237.6500000000001
 30
0.0
 11
407.6
 21
237.25
 31
0.0
  0
LINE
  5
4CEEF
330
4CAF8
100
AcDbEntity
  8
0
 62
     0
100
AcDbLine
 10
407.205372
 20
237.715338
 30
0.0
 11
407.6653379999999
 21
237.2553720000001
 31
0.0
  0
LINE
  5
4CEF0
330
4CAF8
100
AcDbEntity
  8
0
 62
     0
100
AcDbLine
 10
407.2191469999999
 20
237.7722739999999
 30
0.0
 11
407.7222740000001
 21
237.269147
 31
0.0
  0
LINE
  5
4CEF1
330
4CAF8
100
AcDbEntity
  8
0
 62
     0
100
AcDbLine
 10
407.239277
 20
237.8228549999999
 30
0.0
 11
407.772855
 21
237.2892769999999
 31
0.0
  0
LINE
  5
4CEF2
330
4CAF8
100
AcDbEntity
  8
0
 62
     0
100
AcDbLine
 10
407.2647109999999
 20
237.8681320000001
 30
0.0
 11
407.818132
 21
237.314711
 31
0.0
  0
LINE
  5
4CEF3
330
4CAF8
100
AcDbEntity
  8
0
 62
     0
100
AcDbLine
 10
407.2948889999999
 20
237.908664
 30
0.0
 11
407.858664
 21
237.344889
 31
0.0
  0
LINE
  5
4CEF4
330
4CAF8
100
AcDbEntity
  8
0
 62
     0
100
AcDbLine
 10
407.32955
 20
237.9447140000002
 30
0.0
 11
407.8947140000001
 21
237.3795500000001
 31
0.0
  0
LINE
  5
4CEF5
330
4CAF8
100
AcDbEntity
  8
0
 62
     0
100
AcDbLine
 10
407.36866
 20
237.9763149999999
 30
0.0
 11
407.926315
 21
237.4186599999998
 31
0.0
  0
LINE
  5
4CEF6
330
4CAF8
100
AcDbEntity
  8
0
 62
     0
100
AcDbLine
 10
407.412404
 20
238.0032809999998
 30
0.0
 11
407.9532810000002
 21
237.4624039999999
 31
0.0
  0
LINE
  5
4CEF7
330
4CAF8
100
AcDbEntity
  8
0
 62
     0
100
AcDbLine
 10
407.4612370000001
 20
238.0251600000001
 30
0.0
 11
407.9751600000001
 21
237.5112370000002
 31
0.0
  0
LINE
  5
4CEF8
330
4CAF8
100
AcDbEntity
  8
0
 62
     0
100
AcDbLine
 10
407.5160219999999
 20
238.0410849999998
 30
0.0
 11
407.991085
 21
237.566022
 31
0.0
  0
LINE
  5
4CEF9
330
4CAF8
100
AcDbEntity
  8
0
 62
     0
100
AcDbLine
 10
407.5784009999999
 20
238.0494159999998
 30
0.0
 11
407.999416
 21
237.6284009999999
 31
0.0
  0
LINE
  5
4CEFA
330
4CAF8
100
AcDbEntity
  8
0
 62
     0
100
AcDbLine
 10
407.651911
 20
238.046617
 30
0.0
 11
407.9966169999999
 21
237.7019110000001
 31
0.0
  0
LINE
  5
4CEFB
330
4CAF8
100
AcDbEntity
  8
0
 62
     0
100
AcDbLine
 10
407.7473799999999
 20
238.0218589999999
 30
0.0
 11
407.9718589999999
 21
237.79738
 31
0.0
  0
LINE
  5
4CEFC
330
4CAF8
100
AcDbEntity
  8
0
 62
     0
100
AcDbLine
 10
407.2077760000001
 20
237.5715140000002
 30
0.0
 11
407.5215140000001
 21
237.2577759999999
 31
0.0
  0
LINE
  5
4CEFD
330
4CAF8
100
AcDbEntity
  8
0
 62
     0
100
AcDbLine
 10
407.24734
 20
237.4612390000002
 30
0.0
 11
407.4112390000001
 21
237.2973400000001
 31
0.0
  0
LINE
  5
4CEFE
330
4CAF8
100
AcDbEntity
  8
0
 62
     0
100
AcDbLine
 10
407.1999999999999
 20
231.6500000000001
 30
0.0
 11
407.6
 21
232.0500000000002
 31
0.0
  0
LINE
  5
4CEFF
330
4CAF8
100
AcDbEntity
  8
0
 62
     0
100
AcDbLine
 10
407.2077760000001
 20
231.728486
 30
0.0
 11
407.5215140000001
 21
232.0422239999998
 31
0.0
  0
LINE
  5
4CF00
330
4CAF8
100
AcDbEntity
  8
0
 62
     0
100
AcDbLine
 10
407.24734
 20
231.838761
 30
0.0
 11
407.4112390000001
 21
232.0026600000001
 31
0.0
  0
LINE
  5
4CF01
330
4CAF8
100
AcDbEntity
  8
0
 62
     0
100
AcDbLine
 10
407.205372
 20
231.5846620000002
 30
0.0
 11
407.6653379999999
 21
232.0446280000001
 31
0.0
  0
LINE
  5
4CF02
330
4CAF8
100
AcDbEntity
  8
0
 62
     0
100
AcDbLine
 10
407.2191469999999
 20
231.5277259999998
 30
0.0
 11
407.7222740000001
 21
232.0308530000002
 31
0.0
  0
LINE
  5
4CF03
330
4CAF8
100
AcDbEntity
  8
0
 62
     0
100
AcDbLine
 10
407.239277
 20
231.4771449999998
 30
0.0
 11
407.772855
 21
232.0107229999999
 31
0.0
  0
LINE
  5
4CF04
330
4CAF8
100
AcDbEntity
  8
0
 62
     0
100
AcDbLine
 10
407.2647109999999
 20
231.4318680000001
 30
0.0
 11
407.818132
 21
231.9852890000002
 31
0.0
  0
LINE
  5
4CF05
330
4CAF8
100
AcDbEntity
  8
0
 62
     0
100
AcDbLine
 10
407.2948889999999
 20
231.3913360000001
 30
0.0
 11
407.858664
 21
231.9551110000002
 31
0.0
  0
LINE
  5
4CF06
330
4CAF8
100
AcDbEntity
  8
0
 62
     0
100
AcDbLine
 10
407.32955
 20
231.355286
 30
0.0
 11
407.8947140000001
 21
231.9204500000001
 31
0.0
  0
LINE
  5
4CF07
330
4CAF8
100
AcDbEntity
  8
0
 62
     0
100
AcDbLine
 10
407.36866
 20
231.3236849999998
 30
0.0
 11
407.926315
 21
231.8813399999999
 31
0.0
  0
LINE
  5
4CF08
330
4CAF8
100
AcDbEntity
  8
0
 62
     0
100
AcDbLine
 10
407.412404
 20
231.2967189999999
 30
0.0
 11
407.9532810000002
 21
231.8375959999998
 31
0.0
  0
LINE
  5
4CF09
330
4CAF8
100
AcDbEntity
  8
0
 62
     0
100
AcDbLine
 10
407.4612370000001
 20
231.27484
 30
0.0
 11
407.9751600000001
 21
231.788763
 31
0.0
  0
LINE
  5
4CF0A
330
4CAF8
100
AcDbEntity
  8
0
 62
     0
100
AcDbLine
 10
407.5160219999999
 20
231.2589149999999
 30
0.0
 11
407.991085
 21
231.7339780000002
 31
0.0
  0
LINE
  5
4CF0B
330
4CAF8
100
AcDbEntity
  8
0
 62
     0
100
AcDbLine
 10
407.5784009999999
 20
231.2505839999999
 30
0.0
 11
407.999416
 21
231.6715989999998
 31
0.0
  0
LINE
  5
4CF0C
330
4CAF8
100
AcDbEntity
  8
0
 62
     0
100
AcDbLine
 10
407.651911
 20
231.2533830000002
 30
0.0
 11
407.9966169999999
 21
231.5980890000001
 31
0.0
  0
LINE
  5
4CF0D
330
4CAF8
100
AcDbEntity
  8
0
 62
     0
100
AcDbLine
 10
407.7473799999999
 20
231.2781409999998
 30
0.0
 11
407.9718589999999
 21
231.5026200000002
 31
0.0
  0
LINE
  5
4CF0E
330
4CAF8
100
AcDbEntity
  8
0
 62
     0
100
AcDbLine
 10
407.1999999999999
 20
231.6500000000001
 30
0.0
 11
407.6
 21
231.25
 31
0.0
  0
LINE
  5
4CF0F
330
4CAF8
100
AcDbEntity
  8
0
 62
     0
100
AcDbLine
 10
407.205372
 20
231.715338
 30
0.0
 11
407.6653379999999
 21
231.2553720000001
 31
0.0
  0
LINE
  5
4CF10
330
4CAF8
100
AcDbEntity
  8
0
 62
     0
100
AcDbLine
 10
407.2191469999999
 20
231.7722739999999
 30
0.0
 11
407.7222740000001
 21
231.269147
 31
0.0
  0
LINE
  5
4CF11
330
4CAF8
100
AcDbEntity
  8
0
 62
     0
100
AcDbLine
 10
407.239277
 20
231.8228549999999
 30
0.0
 11
407.772855
 21
231.2892769999999
 31
0.0
  0
LINE
  5
4CF12
330
4CAF8
100
AcDbEntity
  8
0
 62
     0
100
AcDbLine
 10
407.2647109999999
 20
231.8681320000001
 30
0.0
 11
407.818132
 21
231.314711
 31
0.0
  0
LINE
  5
4CF13
330
4CAF8
100
AcDbEntity
  8
0
 62
     0
100
AcDbLine
 10
407.2948889999999
 20
231.908664
 30
0.0
 11
407.858664
 21
231.344889
 31
0.0
  0
LINE
  5
4CF14
330
4CAF8
100
AcDbEntity
  8
0
 62
     0
100
AcDbLine
 10
407.32955
 20
231.9447140000002
 30
0.0
 11
407.8947140000001
 21
231.3795500000001
 31
0.0
  0
LINE
  5
4CF15
330
4CAF8
100
AcDbEntity
  8
0
 62
     0
100
AcDbLine
 10
407.36866
 20
231.9763149999999
 30
0.0
 11
407.926315
 21
231.4186599999998
 31
0.0
  0
LINE
  5
4CF16
330
4CAF8
100
AcDbEntity
  8
0
 62
     0
100
AcDbLine
 10
407.412404
 20
232.0032809999998
 30
0.0
 11
407.9532810000002
 21
231.4624039999999
 31
0.0
  0
LINE
  5
4CF17
330
4CAF8
100
AcDbEntity
  8
0
 62
     0
100
AcDbLine
 10
407.4612370000001
 20
232.0251600000001
 30
0.0
 11
407.9751600000001
 21
231.5112370000002
 31
0.0
  0
LINE
  5
4CF18
330
4CAF8
100
AcDbEntity
  8
0
 62
     0
100
AcDbLine
 10
407.5160219999999
 20
232.0410849999998
 30
0.0
 11
407.991085
 21
231.566022
 31
0.0
  0
LINE
  5
4CF19
330
4CAF8
100
AcDbEntity
  8
0
 62
     0
100
AcDbLine
 10
407.5784009999999
 20
232.0494159999998
 30
0.0
 11
407.999416
 21
231.6284009999999
 31
0.0
  0
LINE
  5
4CF1A
330
4CAF8
100
AcDbEntity
  8
0
 62
     0
100
AcDbLine
 10
407.651911
 20
232.046617
 30
0.0
 11
407.9966169999999
 21
231.7019110000001
 31
0.0
  0
LINE
  5
4CF1B
330
4CAF8
100
AcDbEntity
  8
0
 62
     0
100
AcDbLine
 10
407.7473799999999
 20
232.0218589999999
 30
0.0
 11
407.9718589999999
 21
231.79738
 31
0.0
  0
LINE
  5
4CF1C
330
4CAF8
100
AcDbEntity
  8
0
 62
     0
100
AcDbLine
 10
407.2077760000001
 20
231.5715140000002
 30
0.0
 11
407.5215140000001
 21
231.2577759999999
 31
0.0
  0
LINE
  5
4CF1D
330
4CAF8
100
AcDbEntity
  8
0
 62
     0
100
AcDbLine
 10
407.24734
 20
231.4612390000002
 30
0.0
 11
407.4112390000001
 21
231.2973400000001
 31
0.0
  0
LINE
  5
4CF1E
330
4CAF8
100
AcDbEntity
  8
0
 62
     0
100
AcDbLine
 10
407.1999999999999
 20
225.6500000000001
 30
0.0
 11
407.6
 21
226.0500000000002
 31
0.0
  0
LINE
  5
4CF1F
330
4CAF8
100
AcDbEntity
  8
0
 62
     0
100
AcDbLine
 10
407.2077760000001
 20
225.728486
 30
0.0
 11
407.5215140000001
 21
226.0422239999998
 31
0.0
  0
LINE
  5
4CF20
330
4CAF8
100
AcDbEntity
  8
0
 62
     0
100
AcDbLine
 10
407.24734
 20
225.838761
 30
0.0
 11
407.4112390000001
 21
226.0026600000001
 31
0.0
  0
LINE
  5
4CF21
330
4CAF8
100
AcDbEntity
  8
0
 62
     0
100
AcDbLine
 10
407.205372
 20
225.5846620000002
 30
0.0
 11
407.6653379999999
 21
226.0446280000001
 31
0.0
  0
LINE
  5
4CF22
330
4CAF8
100
AcDbEntity
  8
0
 62
     0
100
AcDbLine
 10
407.2191469999999
 20
225.5277259999998
 30
0.0
 11
407.7222740000001
 21
226.0308530000002
 31
0.0
  0
LINE
  5
4CF23
330
4CAF8
100
AcDbEntity
  8
0
 62
     0
100
AcDbLine
 10
407.5160219999999
 20
226.0410849999998
 30
0.0
 11
407.991085
 21
225.566022
 31
0.0
  0
LINE
  5
4CF24
330
4CAF8
100
AcDbEntity
  8
0
 62
     0
100
AcDbLine
 10
407.5784009999999
 20
226.0494159999998
 30
0.0
 11
407.999416
 21
225.6284009999999
 31
0.0
  0
LINE
  5
4CF25
330
4CAF8
100
AcDbEntity
  8
0
 62
     0
100
AcDbLine
 10
407.651911
 20
226.046617
 30
0.0
 11
407.9966169999999
 21
225.7019110000001
 31
0.0
  0
LINE
  5
4CF26
330
4CAF8
100
AcDbEntity
  8
0
 62
     0
100
AcDbLine
 10
407.7473799999999
 20
226.0218589999999
 30
0.0
 11
407.9718589999999
 21
225.79738
 31
0.0
  0
LINE
  5
4CF27
330
4CAF8
100
AcDbEntity
  8
0
 62
     0
100
AcDbLine
 10
407.7473799999999
 20
225.2781409999998
 30
0.0
 11
407.9718589999999
 21
225.5026200000002
 31
0.0
  0
LINE
  5
4CF28
330
4CAF8
100
AcDbEntity
  8
0
 62
     0
100
AcDbLine
 10
407.24734
 20
225.4612390000002
 30
0.0
 11
407.4112390000001
 21
225.2973400000001
 31
0.0
  0
LINE
  5
4CF29
330
4CAF8
100
AcDbEntity
  8
0
 62
     0
100
AcDbLine
 10
407.239277
 20
225.4771449999998
 30
0.0
 11
407.772855
 21
226.0107229999999
 31
0.0
  0
LINE
  5
4CF2A
330
4CAF8
100
AcDbEntity
  8
0
 62
     0
100
AcDbLine
 10
407.2647109999999
 20
225.4318680000001
 30
0.0
 11
407.818132
 21
225.9852890000002
 31
0.0
  0
LINE
  5
4CF2B
330
4CAF8
100
AcDbEntity
  8
0
 62
     0
100
AcDbLine
 10
407.2948889999999
 20
225.3913360000001
 30
0.0
 11
407.858664
 21
225.9551110000002
 31
0.0
  0
LINE
  5
4CF2C
330
4CAF8
100
AcDbEntity
  8
0
 62
     0
100
AcDbLine
 10
407.32955
 20
225.355286
 30
0.0
 11
407.8947140000001
 21
225.9204500000001
 31
0.0
  0
LINE
  5
4CF2D
330
4CAF8
100
AcDbEntity
  8
0
 62
     0
100
AcDbLine
 10
407.36866
 20
225.3236849999998
 30
0.0
 11
407.926315
 21
225.8813399999999
 31
0.0
  0
LINE
  5
4CF2E
330
4CAF8
100
AcDbEntity
  8
0
 62
     0
100
AcDbLine
 10
407.412404
 20
225.2967189999999
 30
0.0
 11
407.9532810000002
 21
225.8375959999998
 31
0.0
  0
LINE
  5
4CF2F
330
4CAF8
100
AcDbEntity
  8
0
 62
     0
100
AcDbLine
 10
407.4612370000001
 20
225.27484
 30
0.0
 11
407.9751600000001
 21
225.788763
 31
0.0
  0
LINE
  5
4CF30
330
4CAF8
100
AcDbEntity
  8
0
 62
     0
100
AcDbLine
 10
407.5160219999999
 20
225.2589149999999
 30
0.0
 11
407.991085
 21
225.7339780000002
 31
0.0
  0
LINE
  5
4CF31
330
4CAF8
100
AcDbEntity
  8
0
 62
     0
100
AcDbLine
 10
407.5784009999999
 20
225.2505839999999
 30
0.0
 11
407.999416
 21
225.6715989999998
 31
0.0
  0
LINE
  5
4CF32
330
4CAF8
100
AcDbEntity
  8
0
 62
     0
100
AcDbLine
 10
407.651911
 20
225.2533830000002
 30
0.0
 11
407.9966169999999
 21
225.5980890000001
 31
0.0
  0
LINE
  5
4CF33
330
4CAF8
100
AcDbEntity
  8
0
 62
     0
100
AcDbLine
 10
407.1999999999999
 20
225.6500000000001
 30
0.0
 11
407.6
 21
225.25
 31
0.0
  0
LINE
  5
4CF34
330
4CAF8
100
AcDbEntity
  8
0
 62
     0
100
AcDbLine
 10
407.205372
 20
225.715338
 30
0.0
 11
407.6653379999999
 21
225.2553720000001
 31
0.0
  0
LINE
  5
4CF35
330
4CAF8
100
AcDbEntity
  8
0
 62
     0
100
AcDbLine
 10
407.2191469999999
 20
225.7722739999999
 30
0.0
 11
407.7222740000001
 21
225.269147
 31
0.0
  0
LINE
  5
4CF36
330
4CAF8
100
AcDbEntity
  8
0
 62
     0
100
AcDbLine
 10
407.239277
 20
225.8228549999999
 30
0.0
 11
407.772855
 21
225.2892769999999
 31
0.0
  0
LINE
  5
4CF37
330
4CAF8
100
AcDbEntity
  8
0
 62
     0
100
AcDbLine
 10
407.2647109999999
 20
225.8681320000001
 30
0.0
 11
407.818132
 21
225.314711
 31
0.0
  0
LINE
  5
4CF38
330
4CAF8
100
AcDbEntity
  8
0
 62
     0
100
AcDbLine
 10
407.2948889999999
 20
225.908664
 30
0.0
 11
407.858664
 21
225.344889
 31
0.0
  0
LINE
  5
4CF39
330
4CAF8
100
AcDbEntity
  8
0
 62
     0
100
AcDbLine
 10
407.32955
 20
225.9447140000002
 30
0.0
 11
407.8947140000001
 21
225.3795500000001
 31
0.0
  0
LINE
  5
4CF3A
330
4CAF8
100
AcDbEntity
  8
0
 62
     0
100
AcDbLine
 10
407.36866
 20
225.9763149999999
 30
0.0
 11
407.926315
 21
225.4186599999998
 31
0.0
  0
LINE
  5
4CF3B
330
4CAF8
100
AcDbEntity
  8
0
 62
     0
100
AcDbLine
 10
407.412404
 20
226.0032809999998
 30
0.0
 11
407.9532810000002
 21
225.4624039999999
 31
0.0
  0
LINE
  5
4CF3C
330
4CAF8
100
AcDbEntity
  8
0
 62
     0
100
AcDbLine
 10
407.4612370000001
 20
226.0251600000001
 30
0.0
 11
407.9751600000001
 21
225.5112370000002
 31
0.0
  0
LINE
  5
4CF3D
330
4CAF8
100
AcDbEntity
  8
0
 62
     0
100
AcDbLine
 10
407.2077760000001
 20
225.5715140000002
 30
0.0
 11
407.5215140000001
 21
225.2577759999999
 31
0.0
  0
HATCH
  5
4CF3E
330
4CAF8
100
AcDbEntity
  8
0
 62
     0
100
AcDbHatch
 10
0.0
 20
0.0
 30
0.0
210
0.0
220
0.0
230
1.0
  2
SOLID
 70
     1
 71
     1
 91
        2
 92
        7
 72
     1
 73
     1
 93
        9
 10
212.6219144128614
 20
13.53735916098692
 42
0.0
 10
212.8477623889827
 20
13.53735916098692
 42
0.0
 10
212.8477623889827
 20
14.83074211089974
 42
0.0
 10
213.7832587052317
 20
13.53735916098692
 42
0.0
 10
214.0592115736069
 20
13.53735916098692
 42
0.0
 10
213.1511404903222
 20
14.83074211089974
 42
0.0
 10
213.3857525899145
 20
14.83074211089973
 42
1.0
 10
213.3857525899145
 20
16.12412506081216
 42
0.0
 10
212.6219144128615
 20
16.12412506081216
 42
0.0
 97
        1
330
4CF40
 92
       22
 72
     1
 73
     1
 93
        4
 10
212.8477623889827
 20
15.89827708469125
 42
0.0
 10
213.3857525899145
 20
15.89827708469124
 42
-1.0
 10
213.3857525899144
 20
15.05658925708469
 42
0.0
 10
212.8477623889826
 20
15.05658925708481
 42
0.0
 97
        1
330
4CFBA
 75
     0
 76
     1
 47
0.0094553770012845
 98
        2
 10
212.7666279908292
 20
15.39441417871939
 10
212.7666279908292
 20
15.39441417871939
  0
HATCH
  5
4CF3F
330
4CAF8
100
AcDbEntity
  8
0
 62
    83
100
AcDbHatch
 10
0.0
 20
0.0
 30
0.0
210
0.0
220
0.0
230
1.0
  2
SOLID
 70
     1
 71
     1
 91
       20
 92
        7
 72
     0
 73
     1
 93
        4
 10
180.7771999999999
 20
29.65329999999994
 10
180.7771999999999
 20
18.64834950495063
 10
237.7772
 20
18.64834950495063
 10
237.7772
 20
29.65329999999994
 97
        1
330
4CF41
 92
       22
 72
     0
 73
     1
 93
        4
 10
204.1796504950495
 20
24.95080000000035
 10
204.1796504950495
 20
23.35084950495056
 10
202.5796999999999
 20
23.35084950495056
 10
202.5796999999999
 20
24.95080000000001
 97
        4
330
4CFA9
330
4CF66
330
4CF8F
330
4CF67
 92
       22
 72
     1
 73
     1
 93
        4
 10
207.4712594059405
 20
25.98498316831709
 42
0.0
 10
207.697001980198
 20
25.98498316831709
 42
-1.0
 10
207.697001980198
 20
22.31666633663386
 42
0.0
 10
207.4712594059405
 20
22.31666633663386
 42
-1.0
 97
        4
330
4CFA6
330
4CFA5
330
4CFA7
330
4CFA8
 92
        6
 72
     1
 73
     1
 93
        2
 10
208.9103683168316
 20
24.15082475247547
 42
-1.0
 10
206.2578930693068
 20
24.15082475247547
 42
-1.0
 97
        1
330
4CFA4
 92
       22
 72
     0
 73
     1
 93
        8
 10
201.2633386138613
 20
25.9849831683171
 10
201.2633386138613
 20
25.42062673267328
 10
200.2192792079208
 20
25.42062673267328
 10
200.2192792079208
 20
22.31666633663386
 10
199.4856158415841
 20
22.31666633663386
 10
199.4856158415841
 20
25.42062673267328
 10
198.4415564356435
 20
25.42062673267328
 10
198.4415564356435
 20
25.98498316831709
 97
        8
330
4CF8D
330
4CF8C
330
4CF8B
330
4CF8A
330
4CF89
330
4CF88
330
4CF87
330
4CF8E
 92
       22
 72
     1
 73
     1
 93
        2
 10
212.4028175742573
 20
24.15082475247547
 42
-1.0
 10
210.7228695544553
 20
24.15082475247547
 42
-1.0
 97
        1
330
4CFAA
 92
       22
 72
     0
 73
     1
 93
        3
 10
197.9543973209085
 20
23.40117101048351
 10
196.1069333721607
 20
23.40117101048351
 10
197.0306653465346
 20
25.00112150553295
 97
        3
330
4CF86
330
4CF85
330
4CF84
 92
       22
 72
     1
 73
     1
 93
        5
 10
213.5098732673266
 20
25.9849831683171
 42
0.0
 10
214.7937841584158
 20
25.98498316831709
 42
-0.8268396299405429
 10
215.132258940184
 20
24.21557239597574
 42
-0.9235794106673716
 10
214.9811397058823
 20
22.31666633663386
 42
0.0
 10
213.5098732673266
 20
22.31666633663386
 42
0.0
 97
        5
330
4CFC4
330
4CFC9
330
4CFCA
330
4CFC5
330
4CFC6
 92
       22
 72
     1
 73
     1
 93
        4
 10
193.0237346534653
 20
22.31666633663386
 42
0.0
 10
192.7979920792079
 20
22.31666633663386
 42
-1.0
 10
192.7979920792079
 20
25.98498316831709
 42
0.0
 10
193.0237346534653
 20
25.98498316831709
 42
-1.0
 97
        4
330
4CF61
330
4CF62
330
4CF60
330
4CF43
 92
        6
 72
     1
 73
     1
 93
        4
 10
214.1588831683168
 20
25.47706237623782
 42
0.0
 10
214.6385861386138
 20
25.47706237623782
 42
-1.0
 10
214.6385861386138
 20
24.46122079207927
 42
0.0
 10
214.1588831683168
 20
24.46122079207927
 42
0.0
 97
        4
330
4CFCE
330
4CFC8
330
4CFCC
330
4CFCB
 92
        6
 72
     1
 73
     1
 93
        4
 10
214.1588831683168
 20
23.98151782178226
 42
0.0
 10
214.7373485148514
 20
23.98151782178226
 42
-1.000000696587788
 10
214.7373485148514
 20
22.82458712871313
 42
0.0
 10
214.1588831683167
 20
22.82458712871313
 42
0.0
 97
        4
330
4CFCD
330
4CFC7
330
4CFCF
330
4CFD0
 92
        6
 72
     1
 73
     1
 93
        2
 10
194.237100990099
 20
24.15082475247547
 42
-1.0
 10
191.5846257425742
 20
24.15082475247547
 42
-1.0
 97
        1
330
4CF42
 92
       22
 72
     0
 73
     1
 93
        3
 10
216.8470323820617
 20
23.40117101048351
 10
217.7707643564355
 20
25.001121505533
 10
218.6944963308095
 20
23.40117101048351
 97
        3
330
4CFC2
330
4CFD8
330
4CFC3
 92
       22
 72
     1
 73
     1
 93
        2
 10
189.5181641089108
 20
24.15082475247547
 42
-1.0
 10
187.8382160891088
 20
24.15082475247547
 42
-1.0
 97
        1
330
4CF54
 92
       22
 72
     1
 73
     1
 93
       10
 10
219.7177940594059
 20
25.98498316831709
 42
0.0
 10
220.4514574257425
 20
25.98498316831709
 42
0.0
 10
220.4514574257425
 20
23.69933960396035
 42
1.000000186147331
 10
222.0880910891088
 20
23.69933960396035
 42
0.0
 10
222.0880910891088
 20
25.9849831683171
 42
0.0
 10
222.8217544554455
 20
25.98498316831709
 42
0.0
 10
222.8217544554455
 20
23.79810198019809
 42
-0.4142135623730698
 10
221.3403188118811
 20
22.31666633663386
 42
0.0
 10
221.1992297029703
 20
22.31666633663386
 42
-0.4142135623731069
 10
219.7177940594059
 20
23.79810198019822
 42
0.0
 97
       10
330
4CFD3
330
4CFD7
330
4CFD2
330
4CFD6
330
4CFB1
330
4CFF6
330
4CFB0
330
4CFD4
330
4CFD1
330
4CFD5
 92
       22
 72
     0
 73
     1
 93
       11
 10
187.0697742574257
 20
25.98498316831709
 10
185.8689092457776
 20
24.35977938264444
 10
187.267299009901
 20
22.31666633663386
 10
186.4772
 20
22.31666633663386
 10
185.2073980198019
 20
24.15082475247546
 10
185.2073980198019
 20
22.31666633663386
 10
184.5019524752474
 20
22.31666633663385
 10
184.5019524752474
 20
25.98498316831709
 10
185.2073980198019
 20
25.98498316831709
 10
185.2073980198019
 20
24.47750579499151
 10
186.3492172393709
 20
25.9849831683171
 97
       11
330
4CF5B
330
4CF5C
330
4CF57
330
4CF55
330
4CF5A
330
4CF5D
330
4CF5F
330
4CF5E
330
4CF59
330
4CF56
330
4CF58
 92
       22
 72
     0
 73
     1
 93
        4
 10
223.9970267326732
 20
24.95080000000002
 10
225.5969772277228
 20
24.95080000000001
 10
225.5969772277228
 20
23.35084950495056
 10
223.9970267326732
 20
23.35084950495056
 97
        4
330
4CFFB
330
4CFFA
330
4CFF9
330
4CFF8
 92
       22
 72
     0
 73
     1
 93
       11
 10
226.687596039604
 20
25.98498316831709
 10
227.3930415841584
 20
25.9849831683171
 10
227.3930415841584
 20
24.4775057949916
 10
228.5348608037275
 20
25.98498316831709
 10
229.2554178217821
 20
25.98498316831709
 10
228.0545528101339
 20
24.35977938264445
 10
229.4529425742574
 20
22.31666633663386
 10
228.6628435643564
 20
22.31666633663386
 10
227.3930415841584
 20
24.15082475247553
 10
227.3930415841584
 20
22.31666633663386
 10
226.6875960396039
 20
22.31666633663386
 97
       11
330
4CFF5
330
4CFFF
330
4CFFC
330
4CFFE
330
4D001
330
4D002
330
4CFFD
330
4D003
330
4D000
330
4CFF4
330
4CFF7
 92
       22
 72
     1
 73
     1
 93
        2
 10
231.7602433168317
 20
24.15082475247547
 42
-1.0
 10
230.0802952970297
 20
24.15082475247547
 42
-1.0
 97
        1
330
4D004
 92
       22
 72
     0
 73
     1
 93
        4
 10
233.4880910891088
 20
25.9849831683171
 10
234.1653188118812
 20
25.98498316831709
 10
234.1653188118811
 20
22.31666633663385
 10
233.4880910891088
 20
22.31666633663386
 97
        4
330
4D008
330
4D007
330
4D006
330
4D005
 75
     0
 76
     1
 47
0.0905417887396367
 98
       20
 10
204.3202003392414
 20
27.32291270836356
 10
204.3202003392414
 20
27.32291270836356
 10
204.3202003392414
 20
27.32291270836356
 10
204.3202003392414
 20
27.32291270836356
 10
204.3202003392414
 20
27.32291270836356
 10
204.3202003392414
 20
27.32291270836356
 10
204.3202003392414
 20
27.32291270836356
 10
204.3202003392414
 20
27.32291270836356
 10
204.3202003392414
 20
27.32291270836356
 10
204.3202003392414
 20
27.32291270836356
 10
204.3202003392414
 20
27.32291270836356
 10
204.3202003392414
 20
27.32291270836356
 10
204.3202003392414
 20
27.32291270836356
 10
204.3202003392414
 20
27.32291270836356
 10
204.3202003392414
 20
27.32291270836356
 10
204.3202003392414
 20
27.32291270836356
 10
204.3202003392414
 20
27.32291270836356
 10
204.3202003392414
 20
27.32291270836356
 10
204.3202003392414
 20
27.32291270836356
 10
204.3202003392414
 20
27.32291270836356
  0
LWPOLYLINE
  5
4CF40
102
{ACAD_REACTORS
330
4CF3E
102
}
330
4CAF8
100
AcDbEntity
  8
0
 62
     0
100
AcDbPolyline
 90
       10
 70
     0
 43
0.0
 10
212.6219144128614
 20
16.12412506081216
 10
213.3857525899145
 20
16.12412506081216
 42
-1.000000000000001
 10
213.3857525899145
 20
14.83074211089973
 10
213.1511404903222
 20
14.83074211089973
 10
214.0592115736069
 20
13.53735916098692
 10
213.7832587052318
 20
13.53735916098692
 10
212.8477623889827
 20
14.83074211089973
 10
212.8477623889827
 20
13.53735916098692
 10
212.6219144128614
 20
13.53735916098692
 10
212.6219144128614
 20
16.12412506081216
  0
LWPOLYLINE
  5
4CF41
102
{ACAD_REACTORS
330
4CF3F
102
}
330
4CAF8
100
AcDbEntity
  8
0
 62
    83
100
AcDbPolyline
 90
        4
 70
     1
 43
0.0
 10
180.7771999999999
 20
18.64834950495063
 10
237.7772
 20
18.64834950495063
 10
237.7772
 20
29.65329999999994
 10
180.7771999999999
 20
29.65329999999994
  0
CIRCLE
  5
4CF42
102
{ACAD_REACTORS
330
4CF3F
102
}
330
4CAF8
100
AcDbEntity
  8
0
 62
    83
100
AcDbCircle
 10
192.9108633663366
 20
24.15082475247547
 30
0.0
 40
1.326237623762377
  0
ARC
  5
4CF43
102
{ACAD_REACTORS
330
4CF3F
102
}
330
4CAF8
100
AcDbEntity
  8
0
 62
    83
100
AcDbCircle
 10
193.0237346534653
 20
24.15082475247547
 30
0.0
 40
1.834158415841585
100
AcDbArc
 50
270.0
 51
90.0
  0
HATCH
  5
4CF44
330
4CAF8
100
AcDbEntity
  8
0
 62
     0
100
AcDbHatch
 10
0.0
 20
0.0
 30
0.0
210
0.0
220
0.0
230
1.0
  2
SOLID
 70
     1
 71
     1
 91
        2
 92
        7
 72
     1
 73
     1
 93
        2
 10
190.6519715182779
 20
14.830738791156
 42
1.0
 10
193.2387307786157
 20
14.830738791156
 42
1.0
 97
        1
330
4CF4D
 92
       22
 72
     1
 73
     1
 93
        2
 10
193.0128836324305
 20
14.830738791156
 42
-1.00000013533277
 10
190.8778186644631
 20
14.830738791156
 42
-1.00000013533277
 97
        1
330
4CF4E
 75
     0
 76
     1
 47
0.0275451680087292
 98
        2
 10
191.9875879881659
 20
15.99707706072821
 10
191.9875879881659
 20
15.99707706072821
  0
HATCH
  5
4CF45
330
4CAF8
100
AcDbEntity
  8
0
 62
     0
100
AcDbHatch
 10
0.0
 20
0.0
 30
0.0
210
0.0
220
0.0
230
1.0
  2
SOLID
 70
     1
 71
     1
 91
        1
 92
        7
 72
     0
 73
     1
 93
       11
 10
188.8907171647544
 20
13.53735916098693
 10
189.1165651408755
 20
13.53735916098692
 10
189.1165651408755
 20
14.76717399791187
 10
190.2463262212482
 20
13.53735916098693
 10
190.4721733674334
 20
13.53735916098693
 10
189.1998782596873
 20
14.92233052091695
 10
190.3994002936616
 20
16.11713949004919
 10
190.1735531486242
 20
16.11713949004919
 10
189.1165651408755
 20
15.06430434153457
 10
189.1165651408755
 20
16.12412506081215
 10
188.8907171647544
 20
16.12412506081215
 97
       11
330
4CF53
330
4CF47
330
4CF4C
330
4CF50
330
4CF46
330
4CF4F
330
4CF4B
330
4CF48
330
4CF52
330
4CF49
330
4CF4A
 75
     0
 76
     1
 47
0.0275451680087292
 98
        1
 10
189.0117705821236
 20
14.9454843580849
  0
LINE
  5
4CF46
102
{ACAD_REACTORS
330
4CF45
102
}
330
4CAF8
100
AcDbEntity
  8
0
 62
     0
100
AcDbLine
 10
188.8907171647544
 20
13.53735916098692
 30
0.0
 11
188.8907171647544
 21
16.1241184213247
 31
0.0
  0
LINE
  5
4CF47
102
{ACAD_REACTORS
330
4CF45
102
}
330
4CAF8
100
AcDbEntity
  8
0
 62
     0
100
AcDbLine
 10
189.1165651408755
 20
15.06430434153457
 30
0.0
 11
190.1805596079692
 21
16.1241184213247
 31
0.0
  0
LINE
  5
4CF48
102
{ACAD_REACTORS
330
4CF45
102
}
330
4CAF8
100
AcDbEntity
  8
0
 62
     0
100
AcDbLine
 10
189.1165651408755
 20
14.76717399791187
 30
0.0
 11
190.2463262212482
 21
13.53735916098692
 31
0.0
  0
LINE
  5
4CF49
102
{ACAD_REACTORS
330
4CF45
102
}
330
4CAF8
100
AcDbEntity
  8
0
 62
     0
100
AcDbLine
 10
189.1998782596873
 20
14.92233052091694
 30
0.0
 11
190.4721733674335
 21
13.53735916098692
 31
0.0
  0
LINE
  5
4CF4A
102
{ACAD_REACTORS
330
4CF45
102
}
330
4CAF8
100
AcDbEntity
  8
0
 62
     0
100
AcDbLine
 10
189.1998782596873
 20
14.92233052091694
 30
0.0
 11
190.4064067541544
 21
16.1241184213247
 31
0.0
  0
LINE
  5
4CF4B
102
{ACAD_REACTORS
330
4CF45
102
}
330
4CAF8
100
AcDbEntity
  8
0
 62
     0
100
AcDbLine
 10
189.1165651408755
 20
13.53735916098692
 30
0.0
 11
189.1165651408755
 21
14.76717399791187
 31
0.0
  0
LINE
  5
4CF4C
102
{ACAD_REACTORS
330
4CF45
102
}
330
4CAF8
100
AcDbEntity
  8
0
 62
     0
100
AcDbLine
 10
189.1165651408755
 20
15.06430434153457
 30
0.0
 11
189.1165651408755
 21
16.1241184213247
 31
0.0
  0
CIRCLE
  5
4CF4D
102
{ACAD_REACTORS
330
4CF44
102
}
330
4CAF8
100
AcDbEntity
  8
0
 62
     0
100
AcDbCircle
 10
191.9453511484468
 20
14.830738791156
 30
0.0
 40
1.2933796301689
  0
CIRCLE
  5
4CF4E
102
{ACAD_REACTORS
330
4CF44
102
}
330
4CAF8
100
AcDbEntity
  8
0
 62
     0
100
AcDbCircle
 10
191.9453511484468
 20
14.830738791156
 30
0.0
 40
1.067532483983693
  0
LINE
  5
4CF4F
102
{ACAD_REACTORS
330
4CF45
102
}
330
4CAF8
100
AcDbEntity
  8
0
 62
     0
100
AcDbLine
 10
188.8907171647544
 20
13.53735916098692
 30
0.0
 11
189.1165651408755
 21
13.53735916098692
 31
0.0
  0
LINE
  5
4CF50
102
{ACAD_REACTORS
330
4CF45
102
}
330
4CAF8
100
AcDbEntity
  8
0
 62
     0
100
AcDbLine
 10
188.8907171647544
 20
16.12412506081215
 30
0.0
 11
189.1165651408755
 21
16.12412506081215
 31
0.0
  0
LINE
  5
4CF51
330
4CAF8
100
AcDbEntity
  8
0
 62
     0
100
AcDbLine
 10
190.1805662474568
 20
16.12412506081215
 30
0.0
 11
190.4064067541544
 21
16.12412506081215
 31
0.0
  0
LINE
  5
4CF52
102
{ACAD_REACTORS
330
4CF45
102
}
330
4CAF8
100
AcDbEntity
  8
0
 62
     0
100
AcDbLine
 10
190.2463262212482
 20
13.53735916098692
 30
0.0
 11
190.4721733674335
 21
13.53735916098692
 31
0.0
  0
LINE
  5
4CF53
102
{ACAD_REACTORS
330
4CF45
102
}
330
4CAF8
100
AcDbEntity
  8
0
 62
     0
100
AcDbLine
 10
190.3993937955056
 20
16.11713949004919
 30
0.0
 11
190.173552458872
 21
16.11713949004919
 31
0.0
  0
CIRCLE
  5
4CF54
102
{ACAD_REACTORS
330
4CF3F
102
}
330
4CAF8
100
AcDbEntity
  8
0
 62
    83
100
AcDbCircle
 10
188.6781900990098
 20
24.15082475247547
 30
0.0
 40
0.8399740099009905
  0
LINE
  5
4CF55
102
{ACAD_REACTORS
330
4CF3F
102
}
330
4CAF8
100
AcDbEntity
  8
0
 62
    83
100
AcDbLine
 10
185.2073980198019
 20
24.15082475247547
 30
0.0
 11
186.4772
 21
22.31666633663386
 31
0.0
  0
LINE
  5
4CF56
102
{ACAD_REACTORS
330
4CF3F
102
}
330
4CAF8
100
AcDbEntity
  8
0
 62
    83
100
AcDbLine
 10
186.3492172393709
 20
25.98498316831709
 30
0.0
 11
185.2073980198019
 21
24.47750579499154
 31
0.0
  0
LINE
  5
4CF57
102
{ACAD_REACTORS
330
4CF3F
102
}
330
4CAF8
100
AcDbEntity
  8
0
 62
    83
100
AcDbLine
 10
186.4772
 20
22.31666633663386
 30
0.0
 11
187.267299009901
 21
22.31666633663386
 31
0.0
  0
LINE
  5
4CF58
102
{ACAD_REACTORS
330
4CF3F
102
}
330
4CAF8
100
AcDbEntity
  8
0
 62
    83
100
AcDbLine
 10
186.3492172393709
 20
25.98498316831709
 30
0.0
 11
187.0697742574257
 21
25.98498316831709
 31
0.0
  0
LINE
  5
4CF59
102
{ACAD_REACTORS
330
4CF3F
102
}
330
4CAF8
100
AcDbEntity
  8
0
 62
    83
100
AcDbLine
 10
185.2073980198019
 20
24.47750579499154
 30
0.0
 11
185.2073980198019
 21
25.98498316831709
 31
0.0
  0
LINE
  5
4CF5A
102
{ACAD_REACTORS
330
4CF3F
102
}
330
4CAF8
100
AcDbEntity
  8
0
 62
    83
100
AcDbLine
 10
185.2073980198019
 20
22.31666633663386
 30
0.0
 11
185.2073980198019
 21
24.15082475247547
 31
0.0
  0
LINE
  5
4CF5B
102
{ACAD_REACTORS
330
4CF3F
102
}
330
4CAF8
100
AcDbEntity
  8
0
 62
    83
100
AcDbLine
 10
187.0697742574257
 20
25.98498316831709
 30
0.0
 11
185.8689092457775
 21
24.35977938264443
 31
0.0
  0
LINE
  5
4CF5C
102
{ACAD_REACTORS
330
4CF3F
102
}
330
4CAF8
100
AcDbEntity
  8
0
 62
    83
100
AcDbLine
 10
187.267299009901
 20
22.31666633663386
 30
0.0
 11
185.8689092457775
 21
24.35977938264443
 31
0.0
  0
LINE
  5
4CF5D
102
{ACAD_REACTORS
330
4CF3F
102
}
330
4CAF8
100
AcDbEntity
  8
0
 62
    83
100
AcDbLine
 10
184.5019524752474
 20
22.31666633663386
 30
0.0
 11
185.2073980198019
 21
22.31666633663386
 31
0.0
  0
LINE
  5
4CF5E
102
{ACAD_REACTORS
330
4CF3F
102
}
330
4CAF8
100
AcDbEntity
  8
0
 62
    83
100
AcDbLine
 10
184.5019524752474
 20
25.98498316831709
 30
0.0
 11
185.2073980198019
 21
25.98498316831709
 31
0.0
  0
LINE
  5
4CF5F
102
{ACAD_REACTORS
330
4CF3F
102
}
330
4CAF8
100
AcDbEntity
  8
0
 62
    83
100
AcDbLine
 10
184.5019524752474
 20
22.31666633663386
 30
0.0
 11
184.5019524752474
 21
25.98498316831709
 31
0.0
  0
LINE
  5
4CF60
102
{ACAD_REACTORS
330
4CF3F
102
}
330
4CAF8
100
AcDbEntity
  8
0
 62
    83
100
AcDbLine
 10
192.7979920792079
 20
25.98498316831709
 30
0.0
 11
193.0237346534653
 21
25.98498316831709
 31
0.0
  0
LINE
  5
4CF61
102
{ACAD_REACTORS
330
4CF3F
102
}
330
4CAF8
100
AcDbEntity
  8
0
 62
    83
100
AcDbLine
 10
192.7979920792079
 20
22.31666633663386
 30
0.0
 11
193.0237346534653
 21
22.31666633663386
 31
0.0
  0
ARC
  5
4CF62
102
{ACAD_REACTORS
330
4CF3F
102
}
330
4CAF8
100
AcDbEntity
  8
0
 62
    83
100
AcDbCircle
 10
192.7979920792079
 20
24.15082475247547
 30
0.0
 40
1.834158415841585
100
AcDbArc
 50
90.0
 51
270.0
  0
HATCH
  5
4CF63
330
4CAF8
100
AcDbEntity
  8
0
 62
     0
100
AcDbHatch
 10
0.0
 20
0.0
 30
0.0
210
0.0
220
0.0
230
1.0
  2
SOLID
 70
     1
 71
     1
 91
        2
 92
        7
 72
     0
 73
     1
 93
       11
 10
203.266972828703
 20
14.92233052091694
 10
204.4735004932343
 20
16.1241184213247
 10
204.247653347049
 20
16.1241184213247
 10
203.1836588799552
 20
15.06430434153459
 10
203.1836588799553
 20
16.1241184213247
 10
202.9712907232867
 20
16.1241184213247
 10
202.9712907232867
 20
13.53735916098692
 10
203.1836588799553
 20
13.53735916098692
 10
203.1836588799552
 20
14.76717399791191
 10
204.313419960328
 20
13.53735916098693
 10
204.5392679364492
 20
13.53735916098693
 97
       11
330
4CF94
330
4CF97
330
4CF9D
330
4CF9C
330
4CF64
330
4CF81
330
4CF65
330
4CF9B
330
4CF9E
330
4CF98
330
4CF93
 92
        7
 72
     0
 73
     1
 93
        4
 10
205.3050016871772
 20
16.1241184213247
 10
205.0791545409919
 20
16.1241184213247
 10
205.0791545409919
 20
13.53735916098692
 10
205.3050016871772
 20
13.53735916098692
 97
        4
330
4CF99
330
4CF95
330
4CF9A
330
4CF96
 75
     0
 76
     1
 47
0.0094553770012844
 98
        2
 10
203.1212752133203
 20
14.91542670013433
 10
205.211427414204
 20
14.90757915977372
  0
LINE
  5
4CF64
102
{ACAD_REACTORS
330
4CF63
102
}
330
4CAF8
100
AcDbEntity
  8
0
 62
     0
100
AcDbLine
 10
202.9712907232867
 20
16.1241184213247
 30
0.0
 11
203.1836588799553
 21
16.1241184213247
 31
0.0
  0
LINE
  5
4CF65
102
{ACAD_REACTORS
330
4CF63
102
}
330
4CAF8
100
AcDbEntity
  8
0
 62
     0
100
AcDbLine
 10
202.9712907232867
 20
13.53735916098692
 30
0.0
 11
203.1836588799553
 21
13.53735916098692
 31
0.0
  0
LINE
  5
4CF66
102
{ACAD_REACTORS
330
4CF3F
102
}
330
4CAF8
100
AcDbEntity
  8
0
 62
    83
100
AcDbLine
 10
204.1796504950495
 20
23.35084950495056
 30
0.0
 11
202.5796999999999
 21
23.35084950495056
 31
0.0
  0
LINE
  5
4CF67
102
{ACAD_REACTORS
330
4CF3F
102
}
330
4CAF8
100
AcDbEntity
  8
0
 62
    83
100
AcDbLine
 10
202.5796999999999
 20
24.95080000000002
 30
0.0
 11
204.1796504950495
 21
24.95080000000002
 31
0.0
  0
HATCH
  5
4CF68
330
4CAF8
100
AcDbEntity
  8
0
 62
     0
100
AcDbHatch
 10
0.0
 20
0.0
 30
0.0
210
0.0
220
0.0
230
1.0
  2
SOLID
 70
     1
 71
     1
 91
        2
 92
        7
 72
     1
 73
     1
 93
        2
 10
195.5607786528149
 20
14.830738791156
 42
1.0
 10
198.1475379131527
 20
14.830738791156
 42
1.0
 97
        1
330
4CF6E
 92
       22
 72
     1
 73
     1
 93
        2
 10
197.9216907669675
 20
14.830738791156
 42
-1.00000013533277
 10
195.7866257990001
 20
14.830738791156
 42
-1.00000013533277
 97
        1
330
4CF6F
 75
     0
 76
     1
 47
0.0275451680087292
 98
        2
 10
196.8633495180106
 20
16.01993842591023
 10
196.8633495180106
 20
16.01993842591023
  0
HATCH
  5
4CF69
330
4CAF8
100
AcDbEntity
  8
0
 62
     0
100
AcDbHatch
 10
0.0
 20
0.0
 30
0.0
210
0.0
220
0.0
230
1.0
  2
SOLID
 70
     1
 71
     1
 91
        1
 92
        7
 72
     0
 73
     1
 93
        8
 10
193.62009298013
 20
16.12870630717222
 10
193.6200929801299
 20
15.89827044520378
 10
194.2868303126868
 20
15.89827044520378
 10
194.2868303126868
 20
13.53735252149947
 10
194.5126782888079
 20
13.53735252149946
 10
194.5126782888079
 20
15.89827044520378
 10
195.1794156213647
 20
15.89827044520378
 10
195.1794156213646
 20
16.12870630717222
 97
        8
330
4CF73
330
4CF71
330
4CF72
330
4CF6A
330
4CF70
330
4CF6B
330
4CF6C
330
4CF6D
 75
     0
 76
     1
 47
0.0275451680087292
 98
        1
 10
194.4140225705166
 20
15.99707706072821
  0
LINE
  5
4CF6A
102
{ACAD_REACTORS
330
4CF69
102
}
330
4CAF8
100
AcDbEntity
  8
0
 62
     0
100
AcDbLine
 10
194.2868303126868
 20
15.89827044520378
 30
0.0
 11
194.2868303126868
 21
13.53735916098692
 31
0.0
  0
LINE
  5
4CF6B
102
{ACAD_REACTORS
330
4CF69
102
}
330
4CAF8
100
AcDbEntity
  8
0
 62
     0
100
AcDbLine
 10
194.5126782888079
 20
15.89827044520378
 30
0.0
 11
194.5126782888079
 21
13.53735916098692
 31
0.0
  0
LINE
  5
4CF6C
102
{ACAD_REACTORS
330
4CF69
102
}
330
4CAF8
100
AcDbEntity
  8
0
 62
     0
100
AcDbLine
 10
194.5126782888079
 20
15.89827044520378
 30
0.0
 11
195.1794156213647
 21
15.89827044520378
 31
0.0
  0
LINE
  5
4CF6D
102
{ACAD_REACTORS
330
4CF69
102
}
330
4CAF8
100
AcDbEntity
  8
0
 62
     0
100
AcDbLine
 10
195.1794156213647
 20
15.89827044520378
 30
0.0
 11
195.1794156213647
 21
16.1241184213247
 31
0.0
  0
CIRCLE
  5
4CF6E
102
{ACAD_REACTORS
330
4CF68
102
}
330
4CAF8
100
AcDbEntity
  8
0
 62
     0
100
AcDbCircle
 10
196.8541582829838
 20
14.830738791156
 30
0.0
 40
1.2933796301689
  0
CIRCLE
  5
4CF6F
102
{ACAD_REACTORS
330
4CF68
102
}
330
4CAF8
100
AcDbEntity
  8
0
 62
     0
100
AcDbCircle
 10
196.8541582829838
 20
14.830738791156
 30
0.0
 40
1.067532483983693
  0
LINE
  5
4CF70
102
{ACAD_REACTORS
330
4CF69
102
}
330
4CAF8
100
AcDbEntity
  8
0
 62
     0
100
AcDbLine
 10
194.2868303126868
 20
13.53735252149946
 30
0.0
 11
194.5126782888079
 21
13.53735252149946
 31
0.0
  0
LINE
  5
4CF71
102
{ACAD_REACTORS
330
4CF69
102
}
330
4CAF8
100
AcDbEntity
  8
0
 62
     0
100
AcDbLine
 10
193.6200929801299
 20
15.89827044520378
 30
0.0
 11
193.6200929801299
 21
16.1241184213247
 31
0.0
  0
LINE
  5
4CF72
102
{ACAD_REACTORS
330
4CF69
102
}
330
4CAF8
100
AcDbEntity
  8
0
 62
     0
100
AcDbLine
 10
193.6200929801299
 20
15.89827044520378
 30
0.0
 11
194.2868303126868
 21
15.89827044520378
 31
0.0
  0
LINE
  5
4CF73
102
{ACAD_REACTORS
330
4CF69
102
}
330
4CAF8
100
AcDbEntity
  8
0
 62
     0
100
AcDbLine
 10
195.1794156213647
 20
16.12870630717222
 30
0.0
 11
193.6200929801299
 21
16.12870630717222
 31
0.0
  0
HATCH
  5
4CF74
330
4CAF8
100
AcDbEntity
  8
0
 62
     0
100
AcDbHatch
 10
0.0
 20
0.0
 30
0.0
210
0.0
220
0.0
230
1.0
  2
SOLID
 70
     1
 71
     1
 91
        1
 92
        7
 72
     1
 73
     1
 93
        8
 10
200.7873865153659
 20
16.1241184213247
 42
0.0
 10
200.5615393691806
 20
16.1241184213247
 42
0.0
 10
200.5615393691806
 20
14.41141449004919
 42
0.9993112080576029
 10
202.3096508572413
 20
14.41020999000819
 42
0.0
 10
202.3096508572412
 20
16.1241184213247
 42
0.0
 10
202.0838037110561
 20
16.1241184213247
 42
0.0
 10
202.0838037110561
 20
14.41141449004919
 42
-1.0
 10
200.7873865153659
 20
14.41141449004919
 42
0.0
 97
        8
330
4CF82
330
4CF7B
330
4CF7D
330
4CF7C
330
4CF83
330
4CF80
330
4CF7A
330
4CF7E
 75
     0
 76
     1
 47
0.0094553774314989
 98
        1
 10
200.7091494683245
 20
15.45719352365653
  0
HATCH
  5
4CF75
330
4CAF8
100
AcDbEntity
  8
0
 62
     0
100
AcDbHatch
 10
0.0
 20
0.0
 30
0.0
210
0.0
220
0.0
230
1.0
  2
SOLID
 70
     1
 71
     1
 91
        3
 92
       16
 93
        4
 72
     1
 10
198.7944098991748
 20
15.89827044520379
 11
199.2657164076198
 21
15.89827127513954
 72
     2
 10
199.2657171527633
 20
15.47511681969394
 40
0.4231544554462469
 50
269.9998991063898
 51
450.0001008936102
 73
     0
 72
     1
 10
199.2657164076198
 20
15.05196236424835
 11
198.7944098991748
 21
15.05196236424835
 72
     1
 10
198.7944098991748
 20
15.05196236424835
 11
198.7944098991748
 21
15.89827044520379
 97
        1
330
4CF77
 92
       16
 93
        4
 72
     1
 10
198.7944098991748
 20
14.87128448131298
 11
199.2657164076198
 21
14.87128448131298
 72
     2
 10
199.2657164076198
 20
14.31724539424268
 40
0.5540390870702971
 50
270.0
 51
450.0
 73
     0
 72
     1
 10
199.2657164076198
 20
13.76320630717238
 11
198.7944098991748
 21
13.76320630717238
 72
     1
 10
198.7944098991748
 20
13.76320630717238
 11
198.7944098991748
 21
14.87128448131298
 97
        1
330
4CF76
 92
        1
 93
        5
 72
     1
 10
198.5685627529896
 20
16.1241184213247
 11
199.3334707174625
 21
16.1241184213247
 72
     2
 10
199.3334707174625
 20
15.54287112953676
 40
0.5812472917879354
 50
270.0
 51
450.0
 73
     0
 72
     2
 10
199.3334707174625
 20
14.24949149936813
 40
0.7121323383808971
 50
270.0
 51
450.0
 73
     0
 72
     1
 10
199.3334707174625
 20
13.53735916098724
 11
198.5685627529896
 21
13.53735916098692
 72
     1
 10
198.5685627529896
 20
13.53735916098692
 11
198.5685627529896
 21
16.1241184213247
 97
        2
330
4CF79
330
4CF78
 75
     0
 76
     1
 98
        1
 10
-72.12883341765698
 20
10.24415320912569
  0
LWPOLYLINE
  5
4CF76
102
{ACAD_REACTORS
330
4CF75
102
}
330
4CAF8
100
AcDbEntity
  8
0
 62
     0
100
AcDbPolyline
 90
        5
 70
     0
 43
0.0
 10
198.7944098991748
 20
14.87128448131298
 10
199.2657164076198
 20
14.87128448131298
 42
-1.0
 10
199.2657164076198
 20
13.76320630717238
 10
198.7944098991748
 20
13.76320630717238
 10
198.7944098991748
 20
14.87128448131298
  0
LWPOLYLINE
  5
4CF77
102
{ACAD_REACTORS
330
4CF75
102
}
330
4CAF8
100
AcDbEntity
  8
0
 62
     0
100
AcDbPolyline
 90
        5
 70
     0
 43
0.0
 10
198.7944098991748
 20
15.89827044520379
 10
199.2657164076198
 20
15.89827127513954
 42
-1.000001760927264
 10
199.2657164076198
 20
15.05196236424835
 10
198.7944098991748
 20
15.05196236424835
 10
198.7944098991748
 20
15.89827044520379
  0
LWPOLYLINE
  5
4CF78
102
{ACAD_REACTORS
330
4CF75
102
}
330
4CAF8
100
AcDbEntity
  8
0
 62
     0
100
AcDbPolyline
 90
        4
 70
     0
 43
0.0
 10
199.3334707174625
 20
14.96162383774903
 42
-1.0
 10
199.3334707174625
 20
13.53735916098724
 10
198.5685627529896
 20
13.53735916098692
 10
198.5685627529896
 20
16.1241184213247
  0
LWPOLYLINE
  5
4CF79
102
{ACAD_REACTORS
330
4CF75
102
}
330
4CAF8
100
AcDbEntity
  8
0
 62
     0
100
AcDbPolyline
 90
        3
 70
     0
 43
0.0
 10
198.5685627529896
 20
16.1241184213247
 10
199.3334707174625
 20
16.1241184213247
 42
-1.0
 10
199.3334707174625
 20
14.96162383774882
 42
-0.2926436946032611
  0
ARC
  5
4CF7A
102
{ACAD_REACTORS
330
4CF74
102
}
330
4CAF8
100
AcDbEntity
  8
0
 62
     0
100
AcDbCircle
 10
201.435595113211
 20
14.41141449004919
 30
0.0
 40
0.6482085978451059
100
AcDbArc
 50
180.0
 51
0.0
  0
LINE
  5
4CF7B
102
{ACAD_REACTORS
330
4CF74
102
}
330
4CAF8
100
AcDbEntity
  8
0
 62
     0
100
AcDbLine
 10
200.5615393691806
 20
16.1241184213247
 30
0.0
 11
200.5615393691806
 21
14.41141449004919
 31
0.0
  0
LINE
  5
4CF7C
102
{ACAD_REACTORS
330
4CF74
102
}
330
4CAF8
100
AcDbEntity
  8
0
 62
     0
100
AcDbLine
 10
202.3096508572413
 20
16.1241184213247
 30
0.0
 11
202.3096508572413
 21
14.41261899202532
 31
0.0
  0
ARC
  5
4CF7D
102
{ACAD_REACTORS
330
4CF74
102
}
330
4CAF8
100
AcDbEntity
  8
0
 62
     0
100
AcDbCircle
 10
201.4355955281789
 20
14.41141449004919
 30
0.0
 40
0.8740561589982532
100
AcDbArc
 50
180.0
 51
0.0789570564544175
  0
LINE
  5
4CF7E
102
{ACAD_REACTORS
330
4CF74
102
}
330
4CAF8
100
AcDbEntity
  8
0
 62
     0
100
AcDbLine
 10
200.7873865153659
 20
16.1241184213247
 30
0.0
 11
200.7873865153659
 21
14.41141449004919
 31
0.0
  0
ARC
  5
4CF7F
330
4CAF8
100
AcDbEntity
  8
0
 62
     0
100
AcDbCircle
 10
201.4355955281789
 20
14.41141449004919
 30
0.0
 40
0.6482081828771116
100
AcDbArc
 50
180.0
 51
0.0
  0
LINE
  5
4CF80
102
{ACAD_REACTORS
330
4CF74
102
}
330
4CAF8
100
AcDbEntity
  8
0
 62
     0
100
AcDbLine
 10
202.0838037110561
 20
14.41141449004919
 30
0.0
 11
202.0838037110561
 21
16.1241184213247
 31
0.0
  0
LINE
  5
4CF81
102
{ACAD_REACTORS
330
4CF63
102
}
330
4CAF8
100
AcDbEntity
  8
0
 62
     0
100
AcDbLine
 10
202.9712907232867
 20
13.53735916098692
 30
0.0
 11
202.9712907232867
 21
16.1241184213247
 31
0.0
  0
LINE
  5
4CF82
102
{ACAD_REACTORS
330
4CF74
102
}
330
4CAF8
100
AcDbEntity
  8
0
 62
     0
100
AcDbLine
 10
200.5615393691806
 20
16.1241184213247
 30
0.0
 11
200.7873865153659
 21
16.1241184213247
 31
0.0
  0
LINE
  5
4CF83
102
{ACAD_REACTORS
330
4CF74
102
}
330
4CAF8
100
AcDbEntity
  8
0
 62
     0
100
AcDbLine
 10
202.0838037110561
 20
16.1241184213247
 30
0.0
 11
202.3096508572413
 21
16.1241184213247
 31
0.0
  0
LINE
  5
4CF84
102
{ACAD_REACTORS
330
4CF3F
102
}
330
4CAF8
100
AcDbEntity
  8
0
 62
    83
100
AcDbLine
 10
197.0306653465346
 20
25.00112150553296
 30
0.0
 11
197.9543973209085
 21
23.40117101048351
 31
0.0
  0
LINE
  5
4CF85
102
{ACAD_REACTORS
330
4CF3F
102
}
330
4CAF8
100
AcDbEntity
  8
0
 62
    83
100
AcDbLine
 10
197.0306653465346
 20
25.00112150553296
 30
0.0
 11
196.1069333721607
 21
23.40117101048351
 31
0.0
  0
LINE
  5
4CF86
102
{ACAD_REACTORS
330
4CF3F
102
}
330
4CAF8
100
AcDbEntity
  8
0
 62
    83
100
AcDbLine
 10
196.1069333721607
 20
23.40117101048351
 30
0.0
 11
197.9543973209085
 21
23.40117101048351
 31
0.0
  0
LINE
  5
4CF87
102
{ACAD_REACTORS
330
4CF3F
102
}
330
4CAF8
100
AcDbEntity
  8
0
 62
    83
100
AcDbLine
 10
198.4415564356435
 20
25.42062673267328
 30
0.0
 11
198.4415564356435
 21
25.98498316831709
 31
0.0
  0
LINE
  5
4CF88
102
{ACAD_REACTORS
330
4CF3F
102
}
330
4CAF8
100
AcDbEntity
  8
0
 62
    83
100
AcDbLine
 10
199.4856158415841
 20
25.42062673267328
 30
0.0
 11
198.4415564356435
 21
25.42062673267328
 31
0.0
  0
LINE
  5
4CF89
102
{ACAD_REACTORS
330
4CF3F
102
}
330
4CAF8
100
AcDbEntity
  8
0
 62
    83
100
AcDbLine
 10
199.4856158415841
 20
22.31666633663386
 30
0.0
 11
199.4856158415841
 21
25.42062673267328
 31
0.0
  0
LINE
  5
4CF8A
102
{ACAD_REACTORS
330
4CF3F
102
}
330
4CAF8
100
AcDbEntity
  8
0
 62
    83
100
AcDbLine
 10
200.2192792079208
 20
22.31666633663386
 30
0.0
 11
199.4856158415841
 21
22.31666633663386
 31
0.0
  0
LINE
  5
4CF8B
102
{ACAD_REACTORS
330
4CF3F
102
}
330
4CAF8
100
AcDbEntity
  8
0
 62
    83
100
AcDbLine
 10
200.2192792079208
 20
25.42062673267328
 30
0.0
 11
200.2192792079208
 21
22.31666633663386
 31
0.0
  0
LINE
  5
4CF8C
102
{ACAD_REACTORS
330
4CF3F
102
}
330
4CAF8
100
AcDbEntity
  8
0
 62
    83
100
AcDbLine
 10
201.2633386138613
 20
25.42062673267328
 30
0.0
 11
200.2192792079208
 21
25.42062673267328
 31
0.0
  0
LINE
  5
4CF8D
102
{ACAD_REACTORS
330
4CF3F
102
}
330
4CAF8
100
AcDbEntity
  8
0
 62
    83
100
AcDbLine
 10
201.2633386138613
 20
25.98498316831709
 30
0.0
 11
201.2633386138613
 21
25.42062673267328
 31
0.0
  0
LINE
  5
4CF8E
102
{ACAD_REACTORS
330
4CF3F
102
}
330
4CAF8
100
AcDbEntity
  8
0
 62
    83
100
AcDbLine
 10
198.4415564356435
 20
25.98498316831709
 30
0.0
 11
201.2633386138613
 21
25.98498316831709
 31
0.0
  0
LINE
  5
4CF8F
102
{ACAD_REACTORS
330
4CF3F
102
}
330
4CAF8
100
AcDbEntity
  8
0
 62
    83
100
AcDbLine
 10
202.5796999999999
 20
23.35084950495056
 30
0.0
 11
202.5796999999999
 21
24.95080000000002
 31
0.0
  0
HATCH
  5
4CF90
330
4CAF8
100
AcDbEntity
  8
0
 62
     0
100
AcDbHatch
 10
0.0
 20
0.0
 30
0.0
210
0.0
220
0.0
230
1.0
  2
SOLID
 70
     1
 71
     1
 91
        1
 92
        7
 72
     1
 73
     1
 93
        4
 10
209.2881845934089
 20
13.81794368446969
 42
0.0
 10
209.2881845934089
 20
14.12892027475158
 42
-2.667269372855936
 10
209.2881845934089
 20
15.53256394704789
 42
0.0
 10
209.2881845934089
 20
15.84354053732978
 42
2.071285835562603
 97
        4
330
4CFA1
330
4CF91
330
4CFA0
330
4CF92
 75
     0
 76
     1
 47
0.0094553770012845
 98
        1
 10
207.2991312711954
 20
14.86083375439441
  0
ARC
  5
4CF91
102
{ACAD_REACTORS
330
4CF90
102
}
330
4CAF8
100
AcDbEntity
  8
0
 62
     0
100
AcDbCircle
 10
208.4837725083769
 20
14.83074211089973
 30
0.0
 40
1.293382949912639
100
AcDbArc
 50
51.54173800000001
 51
308.458262
  0
ARC
  5
4CF92
102
{ACAD_REACTORS
330
4CF90
102
}
330
4CAF8
100
AcDbEntity
  8
0
 62
     0
100
AcDbCircle
 10
208.4837725083769
 20
14.83074211089973
 30
0.0
 40
1.067535803727432
100
AcDbArc
 50
41.103548
 51
318.896452
  0
LINE
  5
4CF93
102
{ACAD_REACTORS
330
4CF63
102
}
330
4CAF8
100
AcDbEntity
  8
0
 62
     0
100
AcDbLine
 10
203.266972828703
 20
14.92233052091694
 30
0.0
 11
204.5392679364492
 21
13.53735916098692
 31
0.0
  0
LINE
  5
4CF94
102
{ACAD_REACTORS
330
4CF63
102
}
330
4CAF8
100
AcDbEntity
  8
0
 62
     0
100
AcDbLine
 10
203.266972828703
 20
14.92233052091694
 30
0.0
 11
204.4735004932343
 21
16.1241184213247
 31
0.0
  0
LINE
  5
4CF95
102
{ACAD_REACTORS
330
4CF63
102
}
330
4CAF8
100
AcDbEntity
  8
0
 62
     0
100
AcDbLine
 10
205.0791545409919
 20
13.53735916098692
 30
0.0
 11
205.0791545409919
 21
16.1241184213247
 31
0.0
  0
LINE
  5
4CF96
102
{ACAD_REACTORS
330
4CF63
102
}
330
4CAF8
100
AcDbEntity
  8
0
 62
     0
100
AcDbLine
 10
205.3050016871772
 20
13.53735916098692
 30
0.0
 11
205.3050016871772
 21
16.1241184213247
 31
0.0
  0
LINE
  5
4CF97
102
{ACAD_REACTORS
330
4CF63
102
}
330
4CAF8
100
AcDbEntity
  8
0
 62
     0
100
AcDbLine
 10
204.247653347049
 20
16.1241184213247
 30
0.0
 11
204.4735004932343
 21
16.1241184213247
 31
0.0
  0
LINE
  5
4CF98
102
{ACAD_REACTORS
330
4CF63
102
}
330
4CAF8
100
AcDbEntity
  8
0
 62
     0
100
AcDbLine
 10
204.313419960328
 20
13.53735916098692
 30
0.0
 11
204.5392679364492
 21
13.53735916098692
 31
0.0
  0
LINE
  5
4CF99
102
{ACAD_REACTORS
330
4CF63
102
}
330
4CAF8
100
AcDbEntity
  8
0
 62
     0
100
AcDbLine
 10
205.0791545409919
 20
16.1241184213247
 30
0.0
 11
205.3050016871772
 21
16.1241184213247
 31
0.0
  0
LINE
  5
4CF9A
102
{ACAD_REACTORS
330
4CF63
102
}
330
4CAF8
100
AcDbEntity
  8
0
 62
     0
100
AcDbLine
 10
205.0791545409919
 20
13.53735916098692
 30
0.0
 11
205.3050016871772
 21
13.53735916098692
 31
0.0
  0
LINE
  5
4CF9B
102
{ACAD_REACTORS
330
4CF63
102
}
330
4CAF8
100
AcDbEntity
  8
0
 62
     0
100
AcDbLine
 10
203.1836588799553
 20
13.53735916098692
 30
0.0
 11
203.1836588799553
 21
14.76717399791187
 31
0.0
  0
LINE
  5
4CF9C
102
{ACAD_REACTORS
330
4CF63
102
}
330
4CAF8
100
AcDbEntity
  8
0
 62
     0
100
AcDbLine
 10
203.1836588799553
 20
15.06430434153457
 30
0.0
 11
203.1836588799553
 21
16.1241184213247
 31
0.0
  0
LINE
  5
4CF9D
102
{ACAD_REACTORS
330
4CF63
102
}
330
4CAF8
100
AcDbEntity
  8
0
 62
     0
100
AcDbLine
 10
203.1836588799553
 20
15.06430434153457
 30
0.0
 11
204.247653347049
 21
16.1241184213247
 31
0.0
  0
LINE
  5
4CF9E
102
{ACAD_REACTORS
330
4CF63
102
}
330
4CAF8
100
AcDbEntity
  8
0
 62
     0
100
AcDbLine
 10
203.1836588799553
 20
14.76717399791187
 30
0.0
 11
204.313419960328
 21
13.53735916098692
 31
0.0
  0
HATCH
  5
4CF9F
330
4CAF8
100
AcDbEntity
  8
0
 62
     0
100
AcDbHatch
 10
0.0
 20
0.0
 30
0.0
210
0.0
220
0.0
230
1.0
  2
SOLID
 70
     1
 71
     1
 91
        2
 92
        7
 72
     1
 73
     1
 93
        2
 10
209.5578390779751
 20
14.83074211089973
 42
1.0
 10
212.1446049778004
 20
14.83074211089973
 42
1.0
 97
        1
330
4CFA2
 92
       22
 72
     1
 73
     1
 93
        2
 10
211.9187578316151
 20
14.83074211089973
 42
-1.000000127167677
 10
209.7836862241603
 20
14.83074211089973
 42
-1.000000127167677
 97
        1
330
4CFA3
 75
     0
 76
     1
 47
0.0094553770012845
 98
        2
 10
209.67216206495
 20
14.97854392596064
 10
209.67216206495
 20
14.97854392596064
  0
LINE
  5
4CFA0
102
{ACAD_REACTORS
330
4CF90
102
}
330
4CAF8
100
AcDbEntity
  8
0
 62
     0
100
AcDbLine
 10
209.2881845934089
 20
13.81794390181394
 30
0.0
 11
209.2881845934089
 21
14.12892089657249
 31
0.0
  0
LINE
  5
4CFA1
102
{ACAD_REACTORS
330
4CF90
102
}
330
4CAF8
100
AcDbEntity
  8
0
 62
     0
100
AcDbLine
 10
209.2881845934089
 20
15.53256332522697
 30
0.0
 11
209.2881845934089
 21
15.84354031998514
 31
0.0
  0
CIRCLE
  5
4CFA2
102
{ACAD_REACTORS
330
4CF9F
102
}
330
4CAF8
100
AcDbEntity
  8
0
 62
     0
100
AcDbCircle
 10
210.8512220278877
 20
14.83074211089973
 30
0.0
 40
1.293382949912639
  0
CIRCLE
  5
4CFA3
102
{ACAD_REACTORS
330
4CF9F
102
}
330
4CAF8
100
AcDbEntity
  8
0
 62
     0
100
AcDbCircle
 10
210.8512220278877
 20
14.83074211089973
 30
0.0
 40
1.067535803727432
  0
CIRCLE
  5
4CFA4
102
{ACAD_REACTORS
330
4CF3F
102
}
330
4CAF8
100
AcDbEntity
  8
0
 62
    83
100
AcDbCircle
 10
207.5841306930692
 20
24.15082475247547
 30
0.0
 40
1.326237623762377
  0
ARC
  5
4CFA5
102
{ACAD_REACTORS
330
4CF3F
102
}
330
4CAF8
100
AcDbEntity
  8
0
 62
    83
100
AcDbCircle
 10
207.697001980198
 20
24.15082475247547
 30
0.0
 40
1.834158415841585
100
AcDbArc
 50
270.0
 51
90.0
  0
LINE
  5
4CFA6
102
{ACAD_REACTORS
330
4CF3F
102
}
330
4CAF8
100
AcDbEntity
  8
0
 62
    83
100
AcDbLine
 10
207.4712594059405
 20
25.98498316831709
 30
0.0
 11
207.697001980198
 21
25.98498316831709
 31
0.0
  0
LINE
  5
4CFA7
102
{ACAD_REACTORS
330
4CF3F
102
}
330
4CAF8
100
AcDbEntity
  8
0
 62
    83
100
AcDbLine
 10
207.4712594059405
 20
22.31666633663386
 30
0.0
 11
207.697001980198
 21
22.31666633663386
 31
0.0
  0
ARC
  5
4CFA8
102
{ACAD_REACTORS
330
4CF3F
102
}
330
4CAF8
100
AcDbEntity
  8
0
 62
    83
100
AcDbCircle
 10
207.4712594059405
 20
24.15082475247547
 30
0.0
 40
1.834158415841585
100
AcDbArc
 50
90.0
 51
270.0
  0
LINE
  5
4CFA9
102
{ACAD_REACTORS
330
4CF3F
102
}
330
4CAF8
100
AcDbEntity
  8
0
 62
    83
100
AcDbLine
 10
204.1796504950495
 20
24.95080000000002
 30
0.0
 11
204.1796504950495
 21
23.35084950495056
 31
0.0
  0
CIRCLE
  5
4CFAA
102
{ACAD_REACTORS
330
4CF3F
102
}
330
4CAF8
100
AcDbEntity
  8
0
 62
    83
100
AcDbCircle
 10
211.5628435643563
 20
24.15082475247547
 30
0.0
 40
0.8399740099009905
  0
HATCH
  5
4CFAB
330
4CAF8
100
AcDbEntity
  8
0
 62
     0
100
AcDbHatch
 10
0.0
 20
0.0
 30
0.0
210
0.0
220
0.0
230
1.0
  2
SOLID
 70
     1
 71
     1
 91
        2
 92
        7
 72
     0
 73
     1
 93
        7
 10
222.2898978723839
 20
16.12412506081215
 10
221.2189402427974
 20
13.53735916098692
 10
221.4633787838575
 20
13.53735916098693
 10
221.7907669317899
 20
14.32812626931532
 10
222.7890279830421
 20
14.32812626931532
 10
223.1164161309745
 20
13.53735916098692
 10
223.3608546720345
 20
13.53735916098692
 97
        7
330
4CFBE
330
4CFC1
330
4CFBF
330
4CFAC
330
4CFDD
330
4CFE7
330
4CFAE
 92
       22
 72
     0
 73
     1
 93
        3
 10
222.2898978723839
 20
15.53371444636842
 10
222.6955232509512
 20
14.55397424543662
 10
221.8842716638807
 20
14.55397424543661
 97
        3
330
4CFAF
330
4CFAD
330
4CFC0
 75
     0
 76
     1
 47
0.0094553770012842
 98
        2
 10
222.3064000185615
 20
15.70820919685694
 10
222.3064000185615
 20
15.70820919685694
  0
LINE
  5
4CFAC
102
{ACAD_REACTORS
330
4CFAB
102
}
330
4CAF8
100
AcDbEntity
  8
0
 62
     0
100
AcDbLine
 10
222.789027983042
 20
14.32812626931532
 30
0.0
 11
221.7907669317899
 21
14.32812626931532
 31
0.0
  0
LINE
  5
4CFAD
102
{ACAD_REACTORS
330
4CFAB
102
}
330
4CAF8
100
AcDbEntity
  8
0
 62
     0
100
AcDbLine
 10
222.6955232509512
 20
14.55397424543661
 30
0.0
 11
221.8842716638807
 21
14.55397424543661
 31
0.0
  0
LINE
  5
4CFAE
102
{ACAD_REACTORS
330
4CFAB
102
}
330
4CAF8
100
AcDbEntity
  8
0
 62
     0
100
AcDbLine
 10
222.2898978723839
 20
16.12412506081215
 30
0.0
 11
223.3608546720345
 21
13.53735916098692
 31
0.0
  0
LINE
  5
4CFAF
102
{ACAD_REACTORS
330
4CFAB
102
}
330
4CAF8
100
AcDbEntity
  8
0
 62
     0
100
AcDbLine
 10
222.6955232509512
 20
14.55397424543661
 30
0.0
 11
222.2898978723839
 21
15.53371444636832
 31
0.0
  0
ARC
  5
4CFB0
102
{ACAD_REACTORS
330
4CF3F
102
}
330
4CAF8
100
AcDbEntity
  8
0
 62
    83
100
AcDbCircle
 10
221.3403188118812
 20
23.7981019801981
 30
0.0
 40
1.481435643564357
100
AcDbArc
 50
270.0
 51
0.0
  0
LINE
  5
4CFB1
102
{ACAD_REACTORS
330
4CF3F
102
}
330
4CAF8
100
AcDbEntity
  8
0
 62
    83
100
AcDbLine
 10
222.8217544554455
 20
25.98498316831709
 30
0.0
 11
222.0880910891088
 21
25.98498316831709
 31
0.0
  0
HATCH
  5
4CFB2
330
4CAF8
100
AcDbEntity
  8
0
 62
     0
100
AcDbHatch
 10
0.0
 20
0.0
 30
0.0
210
0.0
220
0.0
230
1.0
  2
SOLID
 70
     1
 71
     1
 91
        2
 92
        7
 72
     1
 73
     1
 93
        2
 10
216.1804215910794
 20
14.83074211089973
 42
1.0
 10
218.7671874909046
 20
14.83074211089973
 42
1.0
 97
        1
330
4CFB3
 92
       22
 72
     1
 73
     1
 93
        2
 10
218.5413403447194
 20
14.83074211089973
 42
-1.000000127167677
 10
216.4062687372646
 20
14.83074211089973
 42
-1.000000127167677
 97
        1
330
4CFB6
 75
     0
 76
     1
 47
0.0094553770012845
 98
        2
 10
217.4734007998717
 20
15.982966014498
 10
217.4734007998717
 20
15.982966014498
  0
CIRCLE
  5
4CFB3
102
{ACAD_REACTORS
330
4CFB2
102
}
330
4CAF8
100
AcDbEntity
  8
0
 62
     0
100
AcDbCircle
 10
217.473804540992
 20
14.83074211089973
 30
0.0
 40
1.293382949912639
  0
CIRCLE
  5
4CFB4
330
4CAF8
100
AcDbEntity
  8
0
 62
     0
100
AcDbCircle
 10
217.473804540992
 20
14.83074211089973
 30
0.0
 40
1.293382949912639
  0
CIRCLE
  5
4CFB5
330
4CAF8
100
AcDbEntity
  8
0
 62
     0
100
AcDbCircle
 10
217.473804540992
 20
14.83074211089973
 30
0.0
 40
1.293382949912639
  0
CIRCLE
  5
4CFB6
102
{ACAD_REACTORS
330
4CFB2
102
}
330
4CAF8
100
AcDbEntity
  8
0
 62
     0
100
AcDbCircle
 10
217.473804540992
 20
14.83074211089973
 30
0.0
 40
1.067535803727432
  0
HATCH
  5
4CFB7
330
4CAF8
100
AcDbEntity
  8
0
 62
     0
100
AcDbHatch
 10
0.0
 20
0.0
 30
0.0
210
0.0
220
0.0
230
1.0
  2
SOLID
 70
     1
 71
     1
 91
        2
 92
        1
 93
        6
 72
     1
 10
214.5233134082022
 20
16.12412506081216
 11
215.2871507553193
 21
16.12412423087619
 72
     2
 10
215.2871500526669
 20
15.47743317088784
 40
0.6466910599887343
 50
270.0000622538648
 51
449.9999377461352
 73
     0
 72
     1
 10
215.2871507553193
 20
14.83074211089949
 11
214.7491605543875
 21
14.83074211089949
 72
     1
 10
214.7491605543875
 20
14.83074211089949
 11
214.7491605543875
 21
13.53735916098692
 72
     1
 10
214.7491605543875
 20
13.53735916098692
 11
214.5233134082022
 21
13.53735916098692
 72
     1
 10
214.5233134082022
 20
13.53735916098692
 11
214.5233134082022
 21
16.12412506081216
 97
        1
330
4CFB9
 92
       16
 93
        4
 72
     1
 10
214.7491605543875
 20
15.89827708469124
 11
215.2871507553193
 21
15.89827708469124
 72
     2
 10
215.2871507553193
 20
15.47743317088803
 40
0.4208439138032176
 50
270.0
 51
450.0
 73
     0
 72
     1
 10
215.2871507553193
 20
15.05658925708481
 11
214.7491605543875
 21
15.05658925708481
 72
     1
 10
214.7491605543875
 20
15.05658925708481
 11
214.7491605543875
 21
15.89827708469124
 97
        1
330
4CFB8
 75
     0
 76
     1
 98
        1
 10
-72.12883341765698
 20
10.24415320912569
  0
LWPOLYLINE
  5
4CFB8
102
{ACAD_REACTORS
330
4CFB7
102
}
330
4CAF8
100
AcDbEntity
  8
0
 62
     0
100
AcDbPolyline
 90
        5
 70
     0
 43
0.0
 10
214.7491605543875
 20
15.89827708469124
 10
215.2871507553193
 20
15.89827708469124
 42
-1.0
 10
215.2871507553193
 20
15.05658925708481
 10
214.7491605543875
 20
15.05658925708481
 10
214.7491605543875
 20
15.89827708469124
  0
LWPOLYLINE
  5
4CFB9
102
{ACAD_REACTORS
330
4CFB7
102
}
330
4CAF8
100
AcDbEntity
  8
0
 62
     0
100
AcDbPolyline
 90
        7
 70
     0
 43
0.0
 10
214.5233134082022
 20
16.12412506081216
 10
215.2871507553193
 20
16.12412423087619
 42
-0.9999989134656457
 10
215.2871507553193
 20
14.83074211089949
 42
-0.0000005432674547
 10
214.7491605543875
 20
14.83074211089949
 10
214.7491605543875
 20
13.53735916098692
 10
214.5233134082022
 20
13.53735916098692
 10
214.5233134082022
 20
16.12412506081216
  0
LWPOLYLINE
  5
4CFBA
102
{ACAD_REACTORS
330
4CF3E
102
}
330
4CAF8
100
AcDbEntity
  8
0
 62
     0
100
AcDbPolyline
 90
        5
 70
     0
 43
0.0
 10
212.8477623889826
 20
15.89827708469124
 10
213.3857525899145
 20
15.89827708469124
 42
-1.0
 10
213.3857525899145
 20
15.05658925708469
 10
212.8477623889826
 20
15.05658925708481
 10
212.8477623889826
 20
15.89827708469124
  0
HATCH
  5
4CFBB
330
4CAF8
100
AcDbEntity
  8
0
 62
     0
100
AcDbHatch
 10
0.0
 20
0.0
 30
0.0
210
0.0
220
0.0
230
1.0
  2
SOLID
 70
     1
 71
     1
 91
        2
 92
        7
 72
     1
 73
     1
 93
        9
 10
220.0043738188021
 20
14.83074211089974
 42
0.0
 10
220.2389859183945
 20
14.83074211089973
 42
1.0
 10
220.2389859183945
 20
16.12412506081216
 42
0.0
 10
219.4751477413414
 20
16.12412506081216
 42
0.0
 10
219.4751477413414
 20
13.53735916098692
 42
0.0
 10
219.7009957174627
 20
13.53735916098692
 42
0.0
 10
219.7009957174627
 20
14.83074211089975
 42
0.0
 10
220.6364920337118
 20
13.53735916098692
 42
0.0
 10
220.9124449020869
 20
13.53735916098692
 42
0.0
 97
        1
330
4CFBD
 92
       22
 72
     1
 73
     1
 93
        4
 10
219.7009957174626
 20
15.05658925708481
 42
0.0
 10
219.7009957174626
 20
15.89827708469124
 42
0.0
 10
220.2389859183945
 20
15.89827708469124
 42
-1.0
 10
220.2389859183944
 20
15.05658925708469
 42
0.0
 97
        1
330
4CFBC
 75
     0
 76
     1
 47
0.0094553770012842
 98
        2
 10
219.8547926880178
 20
14.95486292529618
 10
219.8547926880178
 20
14.95486292529618
  0
LWPOLYLINE
  5
4CFBC
102
{ACAD_REACTORS
330
4CFBB
102
}
330
4CAF8
100
AcDbEntity
  8
0
 62
     0
100
AcDbPolyline
 90
        5
 70
     0
 43
0.0
 10
219.7009957174626
 20
15.89827708469124
 10
220.2389859183945
 20
15.89827708469124
 42
-1.0
 10
220.2389859183945
 20
15.05658925708469
 10
219.7009957174626
 20
15.05658925708481
 10
219.7009957174626
 20
15.89827708469124
  0
LWPOLYLINE
  5
4CFBD
102
{ACAD_REACTORS
330
4CFBB
102
}
330
4CAF8
100
AcDbEntity
  8
0
 62
     0
100
AcDbPolyline
 90
       10
 70
     0
 43
0.0
 10
219.4751477413414
 20
16.12412506081216
 10
220.2389859183945
 20
16.12412506081216
 42
-1.000000000000001
 10
220.2389859183945
 20
14.83074211089973
 10
220.0043738188021
 20
14.83074211089973
 10
220.9124449020869
 20
13.53735916098692
 10
220.6364920337118
 20
13.53735916098692
 10
219.7009957174627
 20
14.83074211089973
 10
219.7009957174627
 20
13.53735916098692
 10
219.4751477413414
 20
13.53735916098692
 10
219.4751477413414
 20
16.12412506081216
  0
LINE
  5
4CFBE
102
{ACAD_REACTORS
330
4CFAB
102
}
330
4CAF8
100
AcDbEntity
  8
0
 62
     0
100
AcDbLine
 10
222.2898978723839
 20
16.12412506081215
 30
0.0
 11
221.2189402427975
 21
13.53735916098692
 31
0.0
  0
LINE
  5
4CFBF
102
{ACAD_REACTORS
330
4CFAB
102
}
330
4CAF8
100
AcDbEntity
  8
0
 62
     0
100
AcDbLine
 10
221.4633787838575
 20
13.53735916098692
 30
0.0
 11
221.7907669317899
 21
14.32812626931532
 31
0.0
  0
LINE
  5
4CFC0
102
{ACAD_REACTORS
330
4CFAB
102
}
330
4CAF8
100
AcDbEntity
  8
0
 62
     0
100
AcDbLine
 10
221.8842716638807
 20
14.55397424543661
 30
0.0
 11
222.2898978723839
 21
15.53371444636832
 31
0.0
  0
LINE
  5
4CFC1
102
{ACAD_REACTORS
330
4CFAB
102
}
330
4CAF8
100
AcDbEntity
  8
0
 62
     0
100
AcDbLine
 10
221.2189402427975
 20
13.53735916098692
 30
0.0
 11
221.4633787838575
 21
13.53735916098692
 31
0.0
  0
LINE
  5
4CFC2
102
{ACAD_REACTORS
330
4CF3F
102
}
330
4CAF8
100
AcDbEntity
  8
0
 62
    83
100
AcDbLine
 10
217.7707643564356
 20
25.00112150553296
 30
0.0
 11
216.8470323820617
 21
23.40117101048351
 31
0.0
  0
LINE
  5
4CFC3
102
{ACAD_REACTORS
330
4CF3F
102
}
330
4CAF8
100
AcDbEntity
  8
0
 62
    83
100
AcDbLine
 10
216.8470323820617
 20
23.40117101048351
 30
0.0
 11
218.6944963308095
 21
23.40117101048351
 31
0.0
  0
LINE
  5
4CFC4
102
{ACAD_REACTORS
330
4CF3F
102
}
330
4CAF8
100
AcDbEntity
  8
0
 62
    83
100
AcDbLine
 10
214.7937841584158
 20
25.98498316831709
 30
0.0
 11
213.5098732673266
 21
25.98498316831709
 31
0.0
  0
LINE
  5
4CFC5
102
{ACAD_REACTORS
330
4CF3F
102
}
330
4CAF8
100
AcDbEntity
  8
0
 62
    83
100
AcDbLine
 10
214.9811397058823
 20
22.31666633663386
 30
0.0
 11
213.5098732673266
 21
22.31666633663386
 31
0.0
  0
LINE
  5
4CFC6
102
{ACAD_REACTORS
330
4CF3F
102
}
330
4CAF8
100
AcDbEntity
  8
0
 62
    83
100
AcDbLine
 10
213.5098732673266
 20
22.31666633663386
 30
0.0
 11
213.5098732673266
 21
25.98498316831709
 31
0.0
  0
ARC
  5
4CFC7
102
{ACAD_REACTORS
330
4CF3F
102
}
330
4CAF8
100
AcDbEntity
  8
0
 62
    83
100
AcDbCircle
 10
214.7373485148514
 20
23.40305247524751
 30
0.0
 40
0.5784653465346538
100
AcDbArc
 50
270.0
 51
90.0
  0
ARC
  5
4CFC8
102
{ACAD_REACTORS
330
4CF3F
102
}
330
4CAF8
100
AcDbEntity
  8
0
 62
    83
100
AcDbCircle
 10
214.6385861386138
 20
24.96914158415854
 30
0.0
 40
0.5079207920792081
100
AcDbArc
 50
270.0
 51
90.0
  0
ARC
  5
4CFC9
102
{ACAD_REACTORS
330
4CF3F
102
}
330
4CAF8
100
AcDbEntity
  8
0
 62
    83
100
AcDbCircle
 10
214.7937841584158
 20
25.06790396039629
 30
0.0
 40
0.9170792079207924
100
AcDbArc
 50
291.6588350860839
 51
90.0
  0
ARC
  5
4CFCA
102
{ACAD_REACTORS
330
4CF3F
102
}
330
4CAF8
100
AcDbEntity
  8
0
 62
    83
100
AcDbCircle
 10
214.9811397058823
 20
23.27213257134557
 30
0.0
 40
0.955466234711707
100
AcDbArc
 50
270.0
 51
80.8997242041225
  0
LINE
  5
4CFCB
102
{ACAD_REACTORS
330
4CF3F
102
}
330
4CAF8
100
AcDbEntity
  8
0
 62
    83
100
AcDbLine
 10
214.1588831683168
 20
24.46122079207927
 30
0.0
 11
214.1588831683168
 21
25.47706237623782
 31
0.0
  0
LINE
  5
4CFCC
102
{ACAD_REACTORS
330
4CF3F
102
}
330
4CAF8
100
AcDbEntity
  8
0
 62
    83
100
AcDbLine
 10
214.1588831683168
 20
24.46122079207927
 30
0.0
 11
214.6385861386138
 21
24.46122079207927
 31
0.0
  0
LINE
  5
4CFCD
102
{ACAD_REACTORS
330
4CF3F
102
}
330
4CAF8
100
AcDbEntity
  8
0
 62
    83
100
AcDbLine
 10
214.1588831683168
 20
23.98151782178226
 30
0.0
 11
214.7373485148514
 21
23.98151782178226
 31
0.0
  0
LINE
  5
4CFCE
102
{ACAD_REACTORS
330
4CF3F
102
}
330
4CAF8
100
AcDbEntity
  8
0
 62
    83
100
AcDbLine
 10
214.1588831683168
 20
25.47706237623782
 30
0.0
 11
214.6385861386138
 21
25.47706237623782
 31
0.0
  0
LINE
  5
4CFCF
102
{ACAD_REACTORS
330
4CF3F
102
}
330
4CAF8
100
AcDbEntity
  8
0
 62
    83
100
AcDbLine
 10
214.1588831683168
 20
22.82458712871313
 30
0.0
 11
214.7373485148514
 21
22.82458712871313
 31
0.0
  0
LINE
  5
4CFD0
102
{ACAD_REACTORS
330
4CF3F
102
}
330
4CAF8
100
AcDbEntity
  8
0
 62
    83
100
AcDbLine
 10
214.1588831683168
 20
23.98151782178226
 30
0.0
 11
214.1588831683168
 21
22.82458712871313
 31
0.0
  0
ARC
  5
4CFD1
102
{ACAD_REACTORS
330
4CF3F
102
}
330
4CAF8
100
AcDbEntity
  8
0
 62
    83
100
AcDbCircle
 10
221.1992297029703
 20
23.7981019801981
 30
0.0
 40
1.481435643564357
100
AcDbArc
 50
180.0
 51
270.0
  0
ARC
  5
4CFD2
102
{ACAD_REACTORS
330
4CF3F
102
}
330
4CAF8
100
AcDbEntity
  8
0
 62
    83
100
AcDbCircle
 10
221.2697742574257
 20
23.69933960396035
 30
0.0
 40
0.8183168316831687
100
AcDbArc
 50
180.0
 51
0.0
  0
LINE
  5
4CFD3
102
{ACAD_REACTORS
330
4CF3F
102
}
330
4CAF8
100
AcDbEntity
  8
0
 62
    83
100
AcDbLine
 10
219.7177940594059
 20
25.98498316831709
 30
0.0
 11
220.4514574257425
 21
25.98498316831709
 31
0.0
  0
LINE
  5
4CFD4
102
{ACAD_REACTORS
330
4CF3F
102
}
330
4CAF8
100
AcDbEntity
  8
0
 62
    83
100
AcDbLine
 10
221.1992297029703
 20
22.31666633663386
 30
0.0
 11
221.3403188118812
 21
22.31666633663386
 31
0.0
  0
LINE
  5
4CFD5
102
{ACAD_REACTORS
330
4CF3F
102
}
330
4CAF8
100
AcDbEntity
  8
0
 62
    83
100
AcDbLine
 10
219.7177940594059
 20
25.98498316831709
 30
0.0
 11
219.7177940594059
 21
23.7981019801981
 31
0.0
  0
LINE
  5
4CFD6
102
{ACAD_REACTORS
330
4CF3F
102
}
330
4CAF8
100
AcDbEntity
  8
0
 62
    83
100
AcDbLine
 10
222.0880910891088
 20
25.98498316831709
 30
0.0
 11
222.0880910891088
 21
23.69933960396035
 31
0.0
  0
LINE
  5
4CFD7
102
{ACAD_REACTORS
330
4CF3F
102
}
330
4CAF8
100
AcDbEntity
  8
0
 62
    83
100
AcDbLine
 10
220.4514574257425
 20
25.98498316831709
 30
0.0
 11
220.4514574257425
 21
23.69933960396035
 31
0.0
  0
LINE
  5
4CFD8
102
{ACAD_REACTORS
330
4CF3F
102
}
330
4CAF8
100
AcDbEntity
  8
0
 62
    83
100
AcDbLine
 10
217.7707643564356
 20
25.00112150553296
 30
0.0
 11
218.6944963308095
 21
23.40117101048351
 31
0.0
  0
HATCH
  5
4CFD9
330
4CAF8
100
AcDbEntity
  8
0
 62
     0
100
AcDbHatch
 10
0.0
 20
0.0
 30
0.0
210
0.0
220
0.0
230
1.0
  2
SOLID
 70
     1
 71
     1
 91
        4
 92
        7
 72
     0
 73
     1
 93
        4
 10
225.626012097777
 20
16.12412506081215
 10
225.4001649515919
 20
16.12412506081215
 10
225.4001649515919
 20
13.53735916098692
 10
225.626012097777
 20
13.53735916098692
 97
        4
330
4CFEA
330
4CFE5
330
4CFE9
330
4CFE6
 92
        7
 72
     1
 73
     1
 93
        2
 10
226.1408147186274
 20
14.83074211089973
 42
1.0
 10
228.7275806184527
 20
14.83074211089973
 42
1.0
 97
        1
330
4CFDA
 92
       22
 72
     1
 73
     1
 93
        2
 10
228.5017334722675
 20
14.83074211089973
 42
-1.000000127167677
 10
226.3666618648126
 20
14.83074211089973
 42
-1.000000127167677
 97
        1
330
4CFDB
 92
        7
 72
     0
 73
     1
 93
        8
 10
229.2785510174043
 20
13.53735916098692
 10
229.5043989935255
 20
13.53735916098692
 10
229.5043989935255
 20
15.57938333105119
 10
231.2173510756454
 20
13.53735916098695
 10
231.2173510756455
 20
16.12412506081215
 10
230.9915030995243
 20
16.12412506081215
 10
230.9915030995243
 20
14.0821008907483
 10
229.2785510174043
 20
16.12412506081215
 97
        8
330
4CFF1
330
4CFED
330
4CFF3
330
4CFEF
330
4CFF0
330
4CFEE
330
4CFF2
330
4CFEC
 75
     0
 76
     1
 47
0.0094553770012842
 98
        4
 10
225.5430116901033
 20
15.18251543079575
 10
226.3130678714966
 20
15.15897329868784
 10
226.3130678714966
 20
15.15897329868784
 10
229.3854354534623
 20
15.14327870694044
  0
CIRCLE
  5
4CFDA
102
{ACAD_REACTORS
330
4CFD9
102
}
330
4CAF8
100
AcDbEntity
  8
0
 62
     0
100
AcDbCircle
 10
227.43419766854
 20
14.83074211089973
 30
0.0
 40
1.293382949912639
  0
CIRCLE
  5
4CFDB
102
{ACAD_REACTORS
330
4CFD9
102
}
330
4CAF8
100
AcDbEntity
  8
0
 62
     0
100
AcDbCircle
 10
227.43419766854
 20
14.83074211089973
 30
0.0
 40
1.067535803727432
  0
HATCH
  5
4CFDC
330
4CAF8
100
AcDbEntity
  8
0
 62
     0
100
AcDbHatch
 10
0.0
 20
0.0
 30
0.0
210
0.0
220
0.0
230
1.0
  2
SOLID
 70
     1
 71
     1
 91
        1
 92
        7
 72
     0
 73
     1
 93
        8
 10
223.371153347049
 20
16.10296667409115
 10
223.371153347049
 20
15.87711952790606
 10
224.0378906796058
 20
15.87711952790607
 10
224.0378906796058
 20
13.51620741375338
 10
224.263738655727
 20
13.51620741375338
 10
224.263738655727
 20
15.87711952790607
 10
224.9304759882837
 20
15.87711952790607
 10
224.9304759882837
 20
16.10296667409115
 97
        8
330
4CFDE
330
4CFE3
330
4CFE1
330
4CFDF
330
4CFE8
330
4CFE0
330
4CFE2
330
4CFE4
 75
     0
 76
     1
 47
0.0094553770012842
 98
        1
 10
224.1608215889343
 20
15.99071380420533
  0
LINE
  5
4CFDD
102
{ACAD_REACTORS
330
4CFAB
102
}
330
4CAF8
100
AcDbEntity
  8
0
 62
     0
100
AcDbLine
 10
223.1164161309745
 20
13.53735916098692
 30
0.0
 11
222.789027983042
 21
14.32812626931532
 31
0.0
  0
LINE
  5
4CFDE
102
{ACAD_REACTORS
330
4CFDC
102
}
330
4CAF8
100
AcDbEntity
  8
0
 62
     0
100
AcDbLine
 10
224.9304759882837
 20
16.10296667409115
 30
0.0
 11
223.371153347049
 21
16.10296667409115
 31
0.0
  0
LINE
  5
4CFDF
102
{ACAD_REACTORS
330
4CFDC
102
}
330
4CAF8
100
AcDbEntity
  8
0
 62
     0
100
AcDbLine
 10
224.0378906796058
 20
15.87711952790607
 30
0.0
 11
224.0378906796058
 21
13.51620741375338
 31
0.0
  0
LINE
  5
4CFE0
102
{ACAD_REACTORS
330
4CFDC
102
}
330
4CAF8
100
AcDbEntity
  8
0
 62
     0
100
AcDbLine
 10
224.263738655727
 20
15.87711952790607
 30
0.0
 11
224.263738655727
 21
13.51620741375338
 31
0.0
  0
LINE
  5
4CFE1
102
{ACAD_REACTORS
330
4CFDC
102
}
330
4CAF8
100
AcDbEntity
  8
0
 62
     0
100
AcDbLine
 10
223.371153347049
 20
15.87711952790607
 30
0.0
 11
224.0378906796058
 21
15.87711952790607
 31
0.0
  0
LINE
  5
4CFE2
102
{ACAD_REACTORS
330
4CFDC
102
}
330
4CAF8
100
AcDbEntity
  8
0
 62
     0
100
AcDbLine
 10
224.263738655727
 20
15.87711952790607
 30
0.0
 11
224.9304759882837
 21
15.87711952790607
 31
0.0
  0
LINE
  5
4CFE3
102
{ACAD_REACTORS
330
4CFDC
102
}
330
4CAF8
100
AcDbEntity
  8
0
 62
     0
100
AcDbLine
 10
223.371153347049
 20
15.87711952790607
 30
0.0
 11
223.371153347049
 21
16.10296667409115
 31
0.0
  0
LINE
  5
4CFE4
102
{ACAD_REACTORS
330
4CFDC
102
}
330
4CAF8
100
AcDbEntity
  8
0
 62
     0
100
AcDbLine
 10
224.9304759882837
 20
15.87711952790607
 30
0.0
 11
224.9304759882837
 21
16.10296667409115
 31
0.0
  0
LINE
  5
4CFE5
102
{ACAD_REACTORS
330
4CFD9
102
}
330
4CAF8
100
AcDbEntity
  8
0
 62
     0
100
AcDbLine
 10
225.4001649515919
 20
16.12412506081215
 30
0.0
 11
225.4001649515919
 21
13.53735916098692
 31
0.0
  0
LINE
  5
4CFE6
102
{ACAD_REACTORS
330
4CFD9
102
}
330
4CAF8
100
AcDbEntity
  8
0
 62
     0
100
AcDbLine
 10
225.626012097777
 20
16.12412506081215
 30
0.0
 11
225.626012097777
 21
13.53735916098692
 31
0.0
  0
LINE
  5
4CFE7
102
{ACAD_REACTORS
330
4CFAB
102
}
330
4CAF8
100
AcDbEntity
  8
0
 62
     0
100
AcDbLine
 10
223.1164161309745
 20
13.53735916098692
 30
0.0
 11
223.3608546720345
 21
13.53735916098692
 31
0.0
  0
LINE
  5
4CFE8
102
{ACAD_REACTORS
330
4CFDC
102
}
330
4CAF8
100
AcDbEntity
  8
0
 62
     0
100
AcDbLine
 10
224.0378906796058
 20
13.51620741375338
 30
0.0
 11
224.263738655727
 21
13.51620741375338
 31
0.0
  0
LINE
  5
4CFE9
102
{ACAD_REACTORS
330
4CFD9
102
}
330
4CAF8
100
AcDbEntity
  8
0
 62
     0
100
AcDbLine
 10
225.4001649515919
 20
13.53735916098692
 30
0.0
 11
225.626012097777
 21
13.53735916098692
 31
0.0
  0
LINE
  5
4CFEA
102
{ACAD_REACTORS
330
4CFD9
102
}
330
4CAF8
100
AcDbEntity
  8
0
 62
     0
100
AcDbLine
 10
225.4001649515919
 20
16.12412506081215
 30
0.0
 11
225.626012097777
 21
16.12412506081215
 31
0.0
  0
LINE
  5
4CFEB
330
4CAF8
100
AcDbEntity
  8
0
 62
     0
100
AcDbLine
 10
224.9304759882837
 20
16.10755455993867
 30
0.0
 11
223.371153347049
 21
16.10755455993867
 31
0.0
  0
LINE
  5
4CFEC
102
{ACAD_REACTORS
330
4CFD9
102
}
330
4CAF8
100
AcDbEntity
  8
0
 62
     0
100
AcDbLine
 10
229.5043989935255
 20
13.53735916098692
 30
0.0
 11
229.5043989935255
 21
15.57938333105119
 31
0.0
  0
LINE
  5
4CFED
102
{ACAD_REACTORS
330
4CFD9
102
}
330
4CAF8
100
AcDbEntity
  8
0
 62
     0
100
AcDbLine
 10
231.2173510756454
 20
13.53735916098692
 30
0.0
 11
231.2173510756454
 21
16.12412506081215
 31
0.0
  0
LINE
  5
4CFEE
102
{ACAD_REACTORS
330
4CFD9
102
}
330
4CAF8
100
AcDbEntity
  8
0
 62
     0
100
AcDbLine
 10
229.2785510174043
 20
13.53735916098692
 30
0.0
 11
229.2785510174043
 21
16.12412506081215
 31
0.0
  0
LINE
  5
4CFEF
102
{ACAD_REACTORS
330
4CFD9
102
}
330
4CAF8
100
AcDbEntity
  8
0
 62
     0
100
AcDbLine
 10
230.9915030995243
 20
14.08210089074827
 30
0.0
 11
230.9915030995243
 21
16.12412506081215
 31
0.0
  0
LINE
  5
4CFF0
102
{ACAD_REACTORS
330
4CFD9
102
}
330
4CAF8
100
AcDbEntity
  8
0
 62
     0
100
AcDbLine
 10
229.2785510174043
 20
16.12412506081215
 30
0.0
 11
230.9915030995243
 21
14.08210089074827
 31
0.0
  0
LINE
  5
4CFF1
102
{ACAD_REACTORS
330
4CFD9
102
}
330
4CAF8
100
AcDbEntity
  8
0
 62
     0
100
AcDbLine
 10
231.2173510756454
 20
13.53735916098692
 30
0.0
 11
229.5043989935255
 21
15.57938333105119
 31
0.0
  0
LINE
  5
4CFF2
102
{ACAD_REACTORS
330
4CFD9
102
}
330
4CAF8
100
AcDbEntity
  8
0
 62
     0
100
AcDbLine
 10
229.2785510174043
 20
13.53735916098692
 30
0.0
 11
229.5043989935255
 21
13.53735916098692
 31
0.0
  0
LINE
  5
4CFF3
102
{ACAD_REACTORS
330
4CFD9
102
}
330
4CAF8
100
AcDbEntity
  8
0
 62
     0
100
AcDbLine
 10
230.9915030995243
 20
16.12412506081215
 30
0.0
 11
231.2173510756454
 21
16.12412506081215
 31
0.0
  0
LINE
  5
4CFF4
102
{ACAD_REACTORS
330
4CF3F
102
}
330
4CAF8
100
AcDbEntity
  8
0
 62
    83
100
AcDbLine
 10
226.6875960396039
 20
22.31666633663386
 30
0.0
 11
227.3930415841584
 21
22.31666633663386
 31
0.0
  0
LINE
  5
4CFF5
102
{ACAD_REACTORS
330
4CF3F
102
}
330
4CAF8
100
AcDbEntity
  8
0
 62
    83
100
AcDbLine
 10
226.6875960396039
 20
25.98498316831709
 30
0.0
 11
227.3930415841584
 21
25.98498316831709
 31
0.0
  0
LINE
  5
4CFF6
102
{ACAD_REACTORS
330
4CF3F
102
}
330
4CAF8
100
AcDbEntity
  8
0
 62
    83
100
AcDbLine
 10
222.8217544554455
 20
25.98498316831709
 30
0.0
 11
222.8217544554455
 21
23.7981019801981
 31
0.0
  0
LINE
  5
4CFF7
102
{ACAD_REACTORS
330
4CF3F
102
}
330
4CAF8
100
AcDbEntity
  8
0
 62
    83
100
AcDbLine
 10
226.6875960396039
 20
22.31666633663386
 30
0.0
 11
226.6875960396039
 21
25.98498316831709
 31
0.0
  0
LINE
  5
4CFF8
102
{ACAD_REACTORS
330
4CF3F
102
}
330
4CAF8
100
AcDbEntity
  8
0
 62
    83
100
AcDbLine
 10
223.9970267326732
 20
23.35084950495056
 30
0.0
 11
223.9970267326732
 21
24.95080000000002
 31
0.0
  0
LINE
  5
4CFF9
102
{ACAD_REACTORS
330
4CF3F
102
}
330
4CAF8
100
AcDbEntity
  8
0
 62
    83
100
AcDbLine
 10
225.5969772277228
 20
23.35084950495056
 30
0.0
 11
223.9970267326732
 21
23.35084950495056
 31
0.0
  0
LINE
  5
4CFFA
102
{ACAD_REACTORS
330
4CF3F
102
}
330
4CAF8
100
AcDbEntity
  8
0
 62
    83
100
AcDbLine
 10
225.5969772277228
 20
24.95080000000002
 30
0.0
 11
225.5969772277228
 21
23.35084950495056
 31
0.0
  0
LINE
  5
4CFFB
102
{ACAD_REACTORS
330
4CF3F
102
}
330
4CAF8
100
AcDbEntity
  8
0
 62
    83
100
AcDbLine
 10
223.9970267326732
 20
24.95080000000002
 30
0.0
 11
225.5969772277228
 21
24.95080000000002
 31
0.0
  0
LINE
  5
4CFFC
102
{ACAD_REACTORS
330
4CF3F
102
}
330
4CAF8
100
AcDbEntity
  8
0
 62
    83
100
AcDbLine
 10
228.5348608037274
 20
25.98498316831709
 30
0.0
 11
227.3930415841584
 21
24.47750579499154
 31
0.0
  0
LINE
  5
4CFFD
102
{ACAD_REACTORS
330
4CF3F
102
}
330
4CAF8
100
AcDbEntity
  8
0
 62
    83
100
AcDbLine
 10
228.6628435643564
 20
22.31666633663386
 30
0.0
 11
229.4529425742574
 21
22.31666633663386
 31
0.0
  0
LINE
  5
4CFFE
102
{ACAD_REACTORS
330
4CF3F
102
}
330
4CAF8
100
AcDbEntity
  8
0
 62
    83
100
AcDbLine
 10
228.5348608037274
 20
25.98498316831709
 30
0.0
 11
229.2554178217821
 21
25.98498316831709
 31
0.0
  0
LINE
  5
4CFFF
102
{ACAD_REACTORS
330
4CF3F
102
}
330
4CAF8
100
AcDbEntity
  8
0
 62
    83
100
AcDbLine
 10
227.3930415841584
 20
24.47750579499154
 30
0.0
 11
227.3930415841584
 21
25.98498316831709
 31
0.0
  0
LINE
  5
4D000
102
{ACAD_REACTORS
330
4CF3F
102
}
330
4CAF8
100
AcDbEntity
  8
0
 62
    83
100
AcDbLine
 10
227.3930415841584
 20
22.31666633663386
 30
0.0
 11
227.3930415841584
 21
24.15082475247547
 31
0.0
  0
LINE
  5
4D001
102
{ACAD_REACTORS
330
4CF3F
102
}
330
4CAF8
100
AcDbEntity
  8
0
 62
    83
100
AcDbLine
 10
229.2554178217821
 20
25.98498316831709
 30
0.0
 11
228.0545528101339
 21
24.35977938264443
 31
0.0
  0
LINE
  5
4D002
102
{ACAD_REACTORS
330
4CF3F
102
}
330
4CAF8
100
AcDbEntity
  8
0
 62
    83
100
AcDbLine
 10
229.4529425742574
 20
22.31666633663386
 30
0.0
 11
228.0545528101339
 21
24.35977938264443
 31
0.0
  0
LINE
  5
4D003
102
{ACAD_REACTORS
330
4CF3F
102
}
330
4CAF8
100
AcDbEntity
  8
0
 62
    83
100
AcDbLine
 10
227.3930415841584
 20
24.15082475247547
 30
0.0
 11
228.6628435643564
 21
22.31666633663386
 31
0.0
  0
CIRCLE
  5
4D004
102
{ACAD_REACTORS
330
4CF3F
102
}
330
4CAF8
100
AcDbEntity
  8
0
 62
    83
100
AcDbCircle
 10
230.9202693069307
 20
24.15082475247547
 30
0.0
 40
0.8399740099009905
  0
LINE
  5
4D005
102
{ACAD_REACTORS
330
4CF3F
102
}
330
4CAF8
100
AcDbEntity
  8
0
 62
    83
100
AcDbLine
 10
233.4880910891088
 20
22.31666633663386
 30
0.0
 11
233.4880910891088
 21
25.98498316831709
 31
0.0
  0
LINE
  5
4D006
102
{ACAD_REACTORS
330
4CF3F
102
}
330
4CAF8
100
AcDbEntity
  8
0
 62
    83
100
AcDbLine
 10
234.1653188118811
 20
22.31666633663386
 30
0.0
 11
233.4880910891088
 21
22.31666633663386
 31
0.0
  0
LINE
  5
4D007
102
{ACAD_REACTORS
330
4CF3F
102
}
330
4CAF8
100
AcDbEntity
  8
0
 62
    83
100
AcDbLine
 10
234.1653188118811
 20
25.98498316831709
 30
0.0
 11
234.1653188118811
 21
22.31666633663386
 31
0.0
  0
LINE
  5
4D008
102
{ACAD_REACTORS
330
4CF3F
102
}
330
4CAF8
100
AcDbEntity
  8
0
 62
    83
100
AcDbLine
 10
233.4880910891088
 20
25.98498316831709
 30
0.0
 11
234.1653188118811
 21
25.98498316831709
 31
0.0
  0
ATTDEF
  5
4D009
330
4CAF8
100
AcDbEntity
  8
0
 62
    83
100
AcDbText
 10
358.533879707976
 20
10.96670330022678
 30
0.0
 40
3.0
  1
.
  7
BIGFONT
 72
     1
 11
358.6767368508332
 21
10.56670330022678
 31
0.0
100
AcDbAttributeDefinition
  3
図番
  2
DWGNO
 70
     0
 74
     1
  0
ATTDEF
  5
4D00A
330
4CAF8
100
AcDbEntity
  8
0
 62
    83
100
AcDbText
 10
281.6624924016095
 20
26.12885909990166
 30
0.0
 40
4.0
  1
-
  7
BIGFONT
 72
     1
 11
283.3767781158953
 21
25.59552576656833
 31
0.0
100
AcDbAttributeDefinition
  3
表題 １
  2
PROJECT1
 70
     0
 74
     1
  0
ATTDEF
  5
4D00B
330
4CAF8
100
AcDbEntity
  8
0
 62
    83
100
AcDbText
 10
282.4874511365476
 20
18.3750366335602
 30
0.0
 40
4.0
  1
-
  7
BIGFONT
 72
     1
 11
284.2017368508333
 21
17.84170330022687
 31
0.0
100
AcDbAttributeDefinition
  3
表題 ２
  2
PROJECT2
 70
     0
 74
     1
  0
ATTDEF
  5
4D00C
330
4CAF8
100
AcDbEntity
  8
0
 62
    83
100
AcDbText
 10
282.4874511365476
 20
11.10003663356011
 30
0.0
 40
4.0
  1
-
  7
BIGFONT
 72
     1
 11
284.2017368508333
 21
10.56670330022678
 31
0.0
100
AcDbAttributeDefinition
  3
表題 ３
  2
PROJECT3
 70
     0
 74
     1
  0
ATTDEF
  5
4D00D
330
4CAF8
100
AcDbEntity
  8
0
 62
    83
100
AcDbText
 10
331.7481654222618
 20
26.24170330022686
 30
0.0
 40
3.0
  1
1998/01/01
  7
BIGFONT
 72
     1
 11
344.6767368508332
 21
25.84170330022686
 31
0.0
100
AcDbAttributeDefinition
  3
日付
  2
DATE
 70
     0
 74
     1
  0
ATTDEF
  5
4D00E
330
4CAF8
100
AcDbEntity
  8
0
 62
    83
100
AcDbText
 10
334.033879707976
 20
18.24170330022687
 30
0.0
 40
3.0
  1
.
  7
BIGFONT
 72
     1
 11
334.1767368508332
 21
17.84170330022687
 31
0.0
100
AcDbAttributeDefinition
  3
作成者
  2
DRAWN
 70
     0
 74
     1
  0
ATTDEF
  5
4D00F
330
4CAF8
100
AcDbEntity
  8
0
 62
    83
100
AcDbText
 10
355.033879707976
 20
18.24170330022687
 30
0.0
 40
3.0
  1
.
  7
BIGFONT
 72
     1
 11
355.1767368508332
 21
17.84170330022687
 31
0.0
100
AcDbAttributeDefinition
  3
検図者
  2
CHECKED
 70
     8
 74
     1
  0
ATTDEF
  5
4D010
330
4CAF8
100
AcDbEntity
  8
0
 62
    83
100
AcDbText
 10
379.533879707976
 20
18.24170330022687
 30
0.0
 40
3.0
  1
.
  7
BIGFONT
 72
     1
 11
379.6767368508332
 21
17.84170330022687
 31
0.0
100
AcDbAttributeDefinition
  3
承認
  2
APPROVED
 70
     8
 74
     1
  0
ATTDEF
  5
4D011
330
4CAF8
100
AcDbEntity
  8
0
 62
    83
100
AcDbText
 10
376.6053082794047
 20
26.24170330022687
 30
0.0
 40
3.0
  1
1/1
  7
BIGFONT
 72
     1
 11
379.6767368508332
 21
25.84170330022687
 31
0.0
100
AcDbAttributeDefinition
  3
縮尺
  2
SCALE
 70
     0
 74
     1
  0
LWPOLYLINE
  5
4D012
330
4CAF8
100
AcDbEntity
  8
0
100
AcDbPolyline
 90
        3
 70
     1
 43
0.0
 10
23.91470288034736
 20
13.97268728129055
 10
22.04408800817297
 20
10.73268728129055
 10
25.78531775252175
 20
10.73268728129055
  0
TEXT
  5
4D013
330
4CAF8
100
AcDbEntity
  8
0
100
AcDbText
 10
23.22898859463308
 20
10.91268728129055
 30
0.0
 40
1.8
  1
A
  7
BIGFONT
 72
     4
 11
23.91470288034736
 21
11.81268728129055
 31
0.0
100
AcDbText
  0
LWPOLYLINE
  5
4D014
330
4CAF8
100
AcDbEntity
  8
0
100
AcDbPolyline
 90
        3
 70
     1
 43
0.0
 10
23.91470288034736
 20
19.97268728129055
 10
22.04408800817297
 20
16.73268728129055
 10
25.78531775252175
 20
16.73268728129055
  0
TEXT
  5
4D015
330
4CAF8
100
AcDbEntity
  8
0
100
AcDbText
 10
23.31470288034736
 20
16.91268728129055
 30
0.0
 40
1.8
  1
B
  7
BIGFONT
 72
     4
 11
23.91470288034736
 21
17.81268728129055
 31
0.0
100
AcDbText
  0
LWPOLYLINE
  5
4D016
330
4CAF8
100
AcDbEntity
  8
0
100
AcDbPolyline
 90
        3
 70
     1
 43
0.0
 10
23.91470288034736
 20
25.97268728129055
 10
22.04408800817297
 20
22.73268728129055
 10
25.78531775252175
 20
22.73268728129055
  0
TEXT
  5
4D017
330
4CAF8
100
AcDbEntity
  8
0
100
AcDbText
 10
23.27184573749022
 20
22.91268728129055
 30
0.0
 40
1.8
  1
C
  7
BIGFONT
 72
     4
 11
23.91470288034736
 21
23.81268728129055
 31
0.0
100
AcDbText
  0
LWPOLYLINE
  5
4D018
330
4CAF8
100
AcDbEntity
  8
0
100
AcDbPolyline
 90
        3
 70
     1
 43
0.0
 10
23.91470288034736
 20
31.44768728129046
 10
22.04408800817297
 20
28.20768728129046
 10
25.78531775252175
 20
28.20768728129046
  0
TEXT
  5
4D019
330
4CAF8
100
AcDbEntity
  8
0
100
AcDbText
 10
23.31470288034736
 20
28.38768728129046
 30
0.0
 40
1.8
  1
D
  7
BIGFONT
 72
     4
 11
23.91470288034736
 21
29.28768728129046
 31
0.0
100
AcDbText
  0
ATTDEF
  5
4D01A
330
4CAF8
100
AcDbEntity
  8
0
 62
    83
 48
0.5
100
AcDbText
 10
26.47495122985561
 20
10.59212324367185
 30
0.0
 40
2.0
  1

  7
BIGFONT
 11
26.47495122985561
 21
10.32545657700518
 31
0.0
100
AcDbAttributeDefinition
  3
改定内容 1
  2
REV01
 70
     8
 74
     1
  0
ATTDEF
  5
4D01B
330
4CAF8
100
AcDbEntity
  8
0
 62
    83
 48
0.5
100
AcDbText
 10
80.97889358425684
 20
10.59212324367185
 30
0.0
 40
2.0
  1

  7
BIGFONT
 72
     1
 11
80.97889358425684
 21
10.32545657700518
 31
0.0
100
AcDbAttributeDefinition
  3
改訂日付1
  2
REVD1
 70
     8
 74
     1
  0
ATTDEF
  5
4D01C
330
4CAF8
100
AcDbEntity
  8
0
 62
    83
 48
0.5
100
AcDbText
 10
92.67184913363053
 20
10.59212324367185
 30
0.0
 40
2.0
  1

  7
BIGFONT
 72
     1
 11
92.67184913363053
 21
10.32545657700518
 31
0.0
100
AcDbAttributeDefinition
  3
改定者 1
  2
R1D
 70
     8
 74
     1
  0
ATTDEF
  5
4D01D
330
4CAF8
100
AcDbEntity
  8
0
 62
    83
 48
0.5
100
AcDbText
 10
101.7968241336305
 20
10.59212324367185
 30
0.0
 40
2.0
  1

  7
BIGFONT
 72
     1
 11
101.7968241336305
 21
10.32545657700518
 31
0.0
100
AcDbAttributeDefinition
  3
改定検図 1
  2
R1C
 70
     8
 74
     1
  0
ATTDEF
  5
4D01E
330
4CAF8
100
AcDbEntity
  8
0
 62
    83
 48
0.5
100
AcDbText
 10
110.9218241336305
 20
10.59212324367185
 30
0.0
 40
2.0
  1

  7
BIGFONT
 72
     1
 11
110.9218241336305
 21
10.32545657700518
 31
0.0
100
AcDbAttributeDefinition
  3
改定承認 1
  2
R1A
 70
     8
 74
     1
  0
ATTDEF
  5
4D01F
330
4CAF8
100
AcDbEntity
  8
0
 62
    83
 48
0.5
100
AcDbText
 10
26.47495122985561
 20
15.84212324367185
 30
0.0
 40
2.0
  1

  7
BIGFONT
 11
26.47495122985561
 21
15.57545657700518
 31
0.0
100
AcDbAttributeDefinition
  3
改定内容 2
  2
REV02
 70
     8
 74
     1
  0
ATTDEF
  5
4D020
330
4CAF8
100
AcDbEntity
  8
0
 62
    83
 48
0.5
100
AcDbText
 10
80.97889358425684
 20
15.84212324367185
 30
0.0
 40
2.0
  1

  7
BIGFONT
 72
     1
 11
80.97889358425684
 21
15.57545657700518
 31
0.0
100
AcDbAttributeDefinition
  3
改訂日付2
  2
REVD2
 70
     8
 74
     1
  0
ATTDEF
  5
4D021
330
4CAF8
100
AcDbEntity
  8
0
 62
    83
 48
0.5
100
AcDbText
 10
92.67184913363053
 20
15.84212324367185
 30
0.0
 40
2.0
  1

  7
BIGFONT
 72
     1
 11
92.67184913363053
 21
15.57545657700518
 31
0.0
100
AcDbAttributeDefinition
  3
改定者 2
  2
R2D
 70
     8
 74
     1
  0
ATTDEF
  5
4D022
330
4CAF8
100
AcDbEntity
  8
0
 62
    83
 48
0.5
100
AcDbText
 10
101.7968241336305
 20
15.84212324367185
 30
0.0
 40
2.0
  1

  7
BIGFONT
 72
     1
 11
101.7968241336305
 21
15.57545657700518
 31
0.0
100
AcDbAttributeDefinition
  3
改定検図 2
  2
R2C
 70
     8
 74
     1
  0
ATTDEF
  5
4D023
330
4CAF8
100
AcDbEntity
  8
0
 62
    83
 48
0.5
100
AcDbText
 10
110.9218241336305
 20
15.84212324367185
 30
0.0
 40
2.0
  1

  7
BIGFONT
 72
     1
 11
110.9218241336305
 21
15.57545657700518
 31
0.0
100
AcDbAttributeDefinition
  3
改定承認 2
  2
R2A
 70
     8
 74
     1
  0
ATTDEF
  5
4D024
330
4CAF8
100
AcDbEntity
  8
0
 62
    83
 48
0.5
100
AcDbText
 10
26.47495122985561
 20
21.97120919868645
 30
0.0
 40
2.0
  1

  7
BIGFONT
 11
26.47495122985561
 21
21.70454253201979
 31
0.0
100
AcDbAttributeDefinition
  3
改定内容 3
  2
REV03
 70
     8
 74
     1
  0
ATTDEF
  5
4D025
330
4CAF8
100
AcDbEntity
  8
0
 62
    83
 48
0.5
100
AcDbText
 10
80.97889358425684
 20
21.97120919868645
 30
0.0
 40
2.0
  1

  7
BIGFONT
 72
     1
 11
80.97889358425684
 21
21.70454253201979
 31
0.0
100
AcDbAttributeDefinition
  3
改訂日付3
  2
REVD3
 70
     8
 74
     1
  0
ATTDEF
  5
4D026
330
4CAF8
100
AcDbEntity
  8
0
 62
    83
 48
0.5
100
AcDbText
 10
92.67184913363053
 20
21.97120919868645
 30
0.0
 40
2.0
  1

  7
BIGFONT
 72
     1
 11
92.67184913363053
 21
21.70454253201979
 31
0.0
100
AcDbAttributeDefinition
  3
改定者 3
  2
R3D
 70
     8
 74
     1
  0
ATTDEF
  5
4D027
330
4CAF8
100
AcDbEntity
  8
0
 62
    83
 48
0.5
100
AcDbText
 10
101.7968241336305
 20
21.97120919868645
 30
0.0
 40
2.0
  1

  7
BIGFONT
 72
     1
 11
101.7968241336305
 21
21.70454253201979
 31
0.0
100
AcDbAttributeDefinition
  3
改定検図 3
  2
R3C
 70
     8
 74
     1
  0
ATTDEF
  5
4D028
330
4CAF8
100
AcDbEntity
  8
0
 62
    83
 48
0.5
100
AcDbText
 10
110.9218241336305
 20
21.97120919868645
 30
0.0
 40
2.0
  1

  7
BIGFONT
 72
     1
 11
110.9218241336305
 21
21.70454253201979
 31
0.0
100
AcDbAttributeDefinition
  3
改定承認 3
  2
R3A
 70
     8
 74
     1
  0
ATTDEF
  5
4D029
330
4CAF8
100
AcDbEntity
  8
0
 62
    83
 48
0.5
100
AcDbText
 10
26.47495122985561
 20
27.88052406770488
 30
0.0
 40
2.0
  1

  7
BIGFONT
 11
26.47495122985561
 21
27.61385740103822
 31
0.0
100
AcDbAttributeDefinition
  3
改定内容 4
  2
REV04
 70
     8
 74
     1
  0
ATTDEF
  5
4D02A
330
4CAF8
100
AcDbEntity
  8
0
 62
    83
 48
0.5
100
AcDbText
 10
80.97889358425684
 20
27.88052406770488
 30
0.0
 40
2.0
  1

  7
BIGFONT
 72
     1
 11
80.97889358425684
 21
27.61385740103822
 31
0.0
100
AcDbAttributeDefinition
  3
改訂日付4
  2
REVD4
 70
     8
 74
     1
  0
ATTDEF
  5
4D02B
330
4CAF8
100
AcDbEntity
  8
0
 62
    83
 48
0.5
100
AcDbText
 10
92.67184913363053
 20
27.88052406770488
 30
0.0
 40
2.0
  1

  7
BIGFONT
 72
     1
 11
92.67184913363053
 21
27.61385740103822
 31
0.0
100
AcDbAttributeDefinition
  3
改定者 4
  2
R4D
 70
     8
 74
     1
  0
ATTDEF
  5
4D02C
330
4CAF8
100
AcDbEntity
  8
0
 62
    83
 48
0.5
100
AcDbText
 10
101.7968241336305
 20
27.88052406770488
 30
0.0
 40
2.0
  1

  7
BIGFONT
 72
     1
 11
101.7968241336305
 21
27.61385740103822
 31
0.0
100
AcDbAttributeDefinition
  3
改定検図 4
  2
R4C
 70
     8
 74
     1
  0
ATTDEF
  5
4D02D
330
4CAF8
100
AcDbEntity
  8
0
 62
    83
 48
0.5
100
AcDbText
 10
110.9218241336305
 20
27.88052406770488
 30
0.0
 40
2.0
  1

  7
BIGFONT
 72
     1
 11
110.9218241336305
 21
27.61385740103822
 31
0.0
100
AcDbAttributeDefinition
  3
改定承認 4
  2
R4A
 70
     8
 74
     1
  0
TEXT
  5
4D02E
330
4CAF8
100
AcDbEntity
  8
0
 62
     0
100
AcDbText
 10
391.1356686741034
 20
10.23410826057125
 30
0.0
 40
2.8
  1
3
  7
BIGFONT
100
AcDbText
  0
ENDBLK
  5
4D030
330
4CAF8
100
AcDbEntity
  8
0
100
AcDbBlockEnd
  0
BLOCK
  5
4D0C0
330
4D0B6
100
AcDbEntity
  8
0
100
AcDbBlockBegin
  2
*D3
 70
     1
 10
0.0
 20
0.0
 30
0.0
  3
*D3
  1

  0
LINE
  5
4D18B
330
4D0B6
100
AcDbEntity
  8
P_2DIM
 62
     0
370
    -2
100
AcDbLine
 10
2271.426575454368
 20
3323.701755672221
 30
0.0
 11
2001.601833113523
 21
3323.701755672221
 31
0.0
  0
LINE
  5
4D18C
330
4D0B6
100
AcDbEntity
  8
P_2DIM
 62
     0
370
    -2
100
AcDbLine
 10
2271.426575454368
 20
1450.601828442667
 30
0.0
 11
2001.601833113522
 21
1450.601828442667
 31
0.0
  0
LINE
  5
4D18D
330
4D0B6
100
AcDbEntity
  8
P_2DIM
 62
     0
370
    -2
100
AcDbLine
 10
2024.101833113523
 20
3305.701755672221
 30
0.0
 11
2024.101833113522
 21
1468.601828442667
 31
0.0
  0
SOLID
  5
4D18E
330
4D0B6
100
AcDbEntity
  8
P_2DIM
 62
     0
100
AcDbTrace
 10
2021.101833113523
 20
3305.701755672221
 30
0.0
 11
2027.101833113523
 21
3305.701755672221
 31
0.0
 12
2024.101833113523
 22
3323.701755672221
 32
0.0
 13
2024.101833113523
 23
3323.701755672221
 33
0.0
  0
SOLID
  5
4D18F
330
4D0B6
100
AcDbEntity
  8
P_2DIM
 62
     0
100
AcDbTrace
 10
2021.101833113522
 20
1468.601828442667
 30
0.0
 11
2027.101833113522
 21
1468.601828442667
 31
0.0
 12
2024.101833113522
 22
1450.601828442667
 32
0.0
 13
2024.101833113522
 23
1450.601828442667
 33
0.0
  0
MTEXT
  5
4D190
330
4D0B6
100
AcDbEntity
  8
P_2DIM
 62
   230
100
AcDbMText
 10
1978.566118827808
 20
2387.151792057445
 30
0.0
 40
45.0
 41
0.0
 71
     5
 72
     1
  1
\A1;(1873)
  7
BIGFONT
 11
6.123031769111886E-17
 21
1.0
 31
0.0
 73
     1
 44
1.0
  0
POINT
  5
4D191
330
4D0B6
100
AcDbEntity
  8
DEFPOINTS
 62
     0
100
AcDbPoint
 10
2316.426575454368
 20
3323.701755672221
 30
0.0
  0
POINT
  5
4D192
330
4D0B6
100
AcDbEntity
  8
DEFPOINTS
 62
     0
100
AcDbPoint
 10
2316.426575454368
 20
1450.601828442667
 30
0.0
  0
POINT
  5
4D193
330
4D0B6
100
AcDbEntity
  8
DEFPOINTS
 62
     0
100
AcDbPoint
 10
2024.101833113522
 20
1450.601828442667
 30
0.0
  0
ENDBLK
  5
4D0C1
330
4D0B6
100
AcDbEntity
  8
0
100
AcDbBlockEnd
  0
BLOCK
  5
4D0DA
330
4D0D0
100
AcDbEntity
  8
0
100
AcDbBlockBegin
  2
*D4
 70
     1
 10
0.0
 20
0.0
 30
0.0
  3
*D4
  1

  0
LINE
  5
4D182
330
4D0D0
100
AcDbEntity
  8
P_2DIM
 62
     0
370
    -2
100
AcDbLine
 10
2316.426575454368
 20
1405.601828442667
 30
0.0
 11
2316.426575454368
 21
1134.246305018627
 31
0.0
  0
LINE
  5
4D183
330
4D0D0
100
AcDbEntity
  8
P_2DIM
 62
     0
370
    -2
100
AcDbLine
 10
4126.073424545632
 20
1405.601828442667
 30
0.0
 11
4126.073424545632
 21
1134.246305018627
 31
0.0
  0
LINE
  5
4D184
330
4D0D0
100
AcDbEntity
  8
P_2DIM
 62
     0
370
    -2
100
AcDbLine
 10
2334.426575454368
 20
1156.746305018627
 30
0.0
 11
4108.073424545632
 21
1156.746305018627
 31
0.0
  0
SOLID
  5
4D185
330
4D0D0
100
AcDbEntity
  8
P_2DIM
 62
     0
100
AcDbTrace
 10
2334.426575454368
 20
1159.746305018627
 30
0.0
 11
2334.426575454368
 21
1153.746305018627
 31
0.0
 12
2316.426575454368
 22
1156.746305018627
 32
0.0
 13
2316.426575454368
 23
1156.746305018627
 33
0.0
  0
SOLID
  5
4D186
330
4D0D0
100
AcDbEntity
  8
P_2DIM
 62
     0
100
AcDbTrace
 10
4108.073424545632
 20
1159.746305018627
 30
0.0
 11
4108.073424545632
 21
1153.746305018627
 31
0.0
 12
4126.073424545632
 22
1156.746305018627
 32
0.0
 13
4126.073424545632
 23
1156.746305018627
 33
0.0
  0
MTEXT
  5
4D187
330
4D0D0
100
AcDbEntity
  8
P_2DIM
 62
   230
100
AcDbMText
 10
3221.25
 20
1202.282019304341
 30
0.0
 40
45.0
 41
0.0
 71
     5
 72
     1
  1
\A1;(1810)
  7
BIGFONT
 73
     1
 44
1.0
  0
POINT
  5
4D188
330
4D0D0
100
AcDbEntity
  8
DEFPOINTS
 62
     0
100
AcDbPoint
 10
2316.426575454368
 20
1450.601828442667
 30
0.0
  0
POINT
  5
4D189
330
4D0D0
100
AcDbEntity
  8
DEFPOINTS
 62
     0
100
AcDbPoint
 10
4126.073424545632
 20
1450.601828442667
 30
0.0
  0
POINT
  5
4D18A
330
4D0D0
100
AcDbEntity
  8
DEFPOINTS
 62
     0
100
AcDbPoint
 10
4126.073424545632
 20
1156.746305018627
 30
0.0
  0
ENDBLK
  5
4D0DB
330
4D0D0
100
AcDbEntity
  8
0
100
AcDbBlockEnd
  0
ENDSEC
  0
SECTION
  2
ENTITIES
  0
ARC
  5
4BCD1
330
4B4D3
100
AcDbEntity
  8
P006
100
AcDbCircle
 10
3221.249999999999
 20
-4926.071163399676
 30
0.0
 40
6396.673014467086
100
AcDbArc
 50
85.46800919953347
 51
94.53199080046657
  0
LINE
  5
4BCD5
330
4B4D3
100
AcDbEntity
  8
P903
  6
PHANTOM2
100
AcDbLine
 10
3618.242096489547
 20
2884.825799752176
 30
0.0
 11
3684.079023016536
 21
2946.007590060085
 31
0.0
  0
LINE
  5
4BCDA
330
4B4D3
100
AcDbEntity
  8
P903
  6
PHANTOM2
100
AcDbLine
 10
2611.468820589135
 20
1400.601828442667
 30
0.0
 11
3831.031179410932
 21
1400.601828442667
 31
0.0
  0
LINE
  5
4BCDF
330
4B4D3
100
AcDbEntity
  8
P903
  6
PHANTOM2
100
AcDbLine
 10
3184.623504987866
 20
3483.465158373549
 30
0.0
 11
4198.838287727235
 21
2392.08185955618
 31
0.0
  0
LINE
  5
4BCE1
330
4B4D3
100
AcDbEntity
  8
P903
  6
PHANTOM2
100
AcDbLine
 10
2394.92869915398
 20
2453.272525206562
 30
0.0
 11
2344.272079625965
 21
2500.347363555829
 31
0.0
  0
LINE
  5
4BCE2
330
4B4D3
100
AcDbEntity
  8
P903
  6
PHANTOM2
100
AcDbLine
 10
2243.66171227281
 20
2392.081859556239
 30
0.0
 11
3257.87649501213
 21
3483.465158373549
 31
0.0
  0
LINE
  5
4BCE6
330
4B4D3
100
AcDbEntity
  8
P903
  6
PHANTOM2
100
AcDbLine
 10
2662.627373762042
 20
1262.696163367878
 30
0.0
 11
2193.890313802858
 21
2526.248238040459
 31
0.0
  0
LINE
  5
4BCEA
330
4B4D3
100
AcDbEntity
  8
P903
  6
PHANTOM2
100
AcDbLine
 10
3626.505246651562
 20
1471.337519690661
 30
0.0
 11
3626.505246651562
 21
1400.601828442667
 31
0.0
  0
LINE
  5
4BCEB
330
4B4D3
100
AcDbEntity
  8
P903
  6
PHANTOM2
100
AcDbLine
 10
3536.584939783358
 20
1475.124129352103
 30
0.0
 11
3536.584939783358
 21
1400.601828442667
 31
0.0
  0
LINE
  5
4BCEC
330
4B4D3
100
AcDbEntity
  8
P903
  6
PHANTOM2
100
AcDbLine
 10
3447.192720623377
 20
1476.990238777092
 30
0.0
 11
3447.192720623377
 21
1400.601828442667
 31
0.0
  0
LINE
  5
4BCED
330
4B4D3
100
AcDbEntity
  8
P903
  6
PHANTOM2
100
AcDbLine
 10
3357.386521454332
 20
1482.214951393425
 30
0.0
 11
3357.386521454332
 21
1400.601828442667
 31
0.0
  0
LINE
  5
4BCEE
330
4B4D3
100
AcDbEntity
  8
P903
  6
PHANTOM2
100
AcDbLine
 10
3267.118156734475
 20
1485.786840677706
 30
0.0
 11
3267.118156734475
 21
1400.601828442667
 31
0.0
  0
LINE
  5
4BCEF
330
4B4D3
100
AcDbEntity
  8
P903
  6
PHANTOM2
100
AcDbLine
 10
3176.771285655549
 20
1485.841820452729
 30
0.0
 11
3176.771285655549
 21
1400.601828442667
 31
0.0
  0
LINE
  5
4BCF0
330
4B4D3
100
AcDbEntity
  8
P903
  6
PHANTOM2
100
AcDbLine
 10
3087.059455603344
 20
1482.291953060856
 30
0.0
 11
3087.059455603344
 21
1400.601828442667
 31
0.0
  0
LINE
  5
4BCF1
330
4B4D3
100
AcDbEntity
  8
P903
  6
PHANTOM2
100
AcDbLine
 10
2907.249845446978
 20
1475.176946361427
 30
0.0
 11
2907.249845446978
 21
1400.601828442667
 31
0.0
  0
LINE
  5
4BCF2
330
4B4D3
100
AcDbEntity
  8
P903
  6
PHANTOM2
100
AcDbLine
 10
2996.820800826773
 20
1476.962007469019
 30
0.0
 11
2996.820800826773
 21
1400.601828442667
 31
0.0
  0
LINE
  5
4BCF3
330
4B4D3
100
AcDbEntity
  8
P903
  6
PHANTOM2
100
AcDbLine
 10
2817.786661899961
 20
1471.636917829383
 30
0.0
 11
2817.786661899961
 21
1400.601828442667
 31
0.0
  0
LINE
  5
4BCF4
330
4B4D3
100
AcDbEntity
  8
P903
  6
PHANTOM2
100
AcDbLine
 10
2726.250000000001
 20
1468.452077804379
 30
0.0
 11
2726.250000000001
 21
1400.601828442667
 31
0.0
  0
LINE
  5
4BCFB
330
4B4D3
100
AcDbEntity
  8
P903
  6
PHANTOM2
100
AcDbLine
 10
2484.437537503533
 20
1970.785154601862
 30
0.0
 11
2410.169718861361
 21
1943.234189621702
 31
0.0
  0
CIRCLE
  5
4BCFD
330
4B4D3
100
AcDbEntity
  8
P006
100
AcDbCircle
 10
2557.531909860111
 20
1793.343255070471
 30
0.0
 40
10.0
  0
LINE
  5
4BCFE
330
4B4D3
100
AcDbEntity
  8
P903
  6
PHANTOM2
100
AcDbLine
 10
2608.555037466423
 20
1608.730676510345
 30
0.0
 11
2543.247204166387
 21
1584.503577060332
 31
0.0
  0
LINE
  5
4BCFF
330
4B4D3
100
AcDbEntity
  8
P903
  6
PHANTOM2
100
AcDbLine
 10
2578.508165482995
 20
1698.840519150716
 30
0.0
 11
2510.228354204254
 21
1673.510911740861
 31
0.0
  0
LINE
  5
4BD00
330
4B4D3
100
AcDbEntity
  8
P903
  6
PHANTOM2
100
AcDbLine
 10
2548.156247676013
 20
1789.865186840885
 30
0.0
 11
2476.874285911074
 21
1763.421878444215
 31
0.0
  0
LINE
  5
4BD01
330
4B4D3
100
AcDbEntity
  8
P903
  6
PHANTOM2
100
AcDbLine
 10
2517.834431524006
 20
1880.79958039554
 30
0.0
 11
2443.553296669513
 21
1853.243675530163
 31
0.0
  0
CIRCLE
  5
4BD02
330
4B4D3
100
AcDbEntity
  8
P006
100
AcDbCircle
 10
2527.210093708106
 20
1884.277648625125
 30
0.0
 40
10.0
  0
ARC
  5
4BD03
330
4B4D3
100
AcDbEntity
  8
P006
100
AcDbCircle
 10
2715.812358821712
 20
1550.601828442667
 30
0.0
 40
100.0
100
AcDbArc
 50
200.3532291480688
 51
270.0
  0
CIRCLE
  5
4BD04
330
4B4D3
100
AcDbEntity
  8
P006
100
AcDbCircle
 10
2648.945951729441
 20
1520.646662006046
 30
0.0
 40
10.0
  0
LINE
  5
4BD05
330
4B4D3
100
AcDbEntity
  8
P903
  6
PHANTOM2
100
AcDbLine
 10
2639.570289545342
 20
1517.168593776461
 30
0.0
 11
2576.856762439486
 21
1493.903898237192
 31
0.0
  0
CIRCLE
  5
4BD06
330
4B4D3
100
AcDbEntity
  8
P006
100
AcDbCircle
 10
2726.250000000001
 20
1478.452077804379
 30
0.0
 40
10.0
  0
CIRCLE
  5
4BD07
330
4B4D3
100
AcDbEntity
  8
P006
100
AcDbCircle
 10
2617.930699650523
 20
1612.208744739931
 30
0.0
 40
10.0
  0
CIRCLE
  5
4BD08
330
4B4D3
100
AcDbEntity
  8
P006
100
AcDbCircle
 10
2817.786661899961
 20
1481.636917829383
 30
0.0
 40
10.0
  0
CIRCLE
  5
4BD09
330
4B4D3
100
AcDbEntity
  8
P006
100
AcDbCircle
 10
2907.249845446978
 20
1485.176946361427
 30
0.0
 40
10.0
  0
CIRCLE
  5
4BD0A
330
4B4D3
100
AcDbEntity
  8
P006
100
AcDbCircle
 10
2587.883827667093
 20
1702.318587380301
 30
0.0
 40
10.0
  0
LINE
  5
4BD0B
330
4B4D3
100
AcDbEntity
  8
P903
  6
PHANTOM2
100
AcDbLine
 10
2375.691785530963
 20
2236.164276297165
 30
0.0
 11
2310.476800880343
 21
2211.971620700967
 31
0.0
  0
LINE
  5
4BD0C
330
4B4D3
100
AcDbEntity
  8
P903
  6
PHANTOM2
100
AcDbLine
 10
2448.091123539801
 20
2059.483602490682
 30
0.0
 11
2376.849060348608
 21
2033.05509517782
 31
0.0
  0
LINE
  5
4BD0D
330
4B4D3
100
AcDbEntity
  8
P903
  6
PHANTOM2
100
AcDbLine
 10
2411.708627066781
 20
2148.270104804144
 30
0.0
 11
2343.495323112563
 21
2122.965169466288
 31
0.0
  0
CIRCLE
  5
4BD0E
330
4B4D3
100
AcDbEntity
  8
P006
100
AcDbCircle
 10
2457.466785723899
 20
2062.961670720267
 30
0.0
 40
10.0
  0
CIRCLE
  5
4BD0F
330
4B4D3
100
AcDbEntity
  8
P006
100
AcDbCircle
 10
2493.813199687632
 20
1974.263222831447
 30
0.0
 40
10.0
  0
CIRCLE
  5
4BD10
330
4B4D3
100
AcDbEntity
  8
P006
100
AcDbCircle
 10
2421.084289250882
 20
2151.748173033729
 30
0.0
 40
10.0
  0
CIRCLE
  5
4BD11
330
4B4D3
100
AcDbEntity
  8
P006
100
AcDbCircle
 10
2385.067447715061
 20
2239.64234452675
 30
0.0
 40
10.0
  0
ARC
  5
4BD12
330
4B4D3
100
AcDbEntity
  8
P006
100
AcDbCircle
 10
2416.426575454368
 20
2357.641766215508
 30
0.0
 40
100.0
100
AcDbArc
 50
137.0989059332035
 51
200.3532291480688
  0
LINE
  5
4BD13
330
4B4D3
100
AcDbEntity
  8
P903
  6
PHANTOM2
100
AcDbLine
 10
2339.461394765153
 20
2325.790832858501
 30
0.0
 11
2276.867528899648
 21
2302.570527779362
 31
0.0
  0
CIRCLE
  5
4BD14
330
4B4D3
100
AcDbEntity
  8
P006
100
AcDbCircle
 10
2348.837056949252
 20
2329.268901088086
 30
0.0
 40
10.0
  0
CIRCLE
  5
4BD15
330
4B4D3
100
AcDbEntity
  8
P006
100
AcDbCircle
 10
2402.253998156407
 20
2446.465176638651
 30
0.0
 40
10.0
  0
CIRCLE
  5
4BD16
330
4B4D3
100
AcDbEntity
  8
P006
100
AcDbCircle
 10
3267.118156734475
 20
1495.786840677706
 30
0.0
 40
10.0
  0
CIRCLE
  5
4BD17
330
4B4D3
100
AcDbEntity
  8
P006
100
AcDbCircle
 10
3087.059455603344
 20
1492.291953060856
 30
0.0
 40
10.0
  0
CIRCLE
  5
4BD18
330
4B4D3
100
AcDbEntity
  8
P006
100
AcDbCircle
 10
2996.820800826773
 20
1486.962007469019
 30
0.0
 40
10.0
  0
CIRCLE
  5
4BD1B
330
4B4D3
100
AcDbEntity
  8
P006
100
AcDbCircle
 10
3176.771285655549
 20
1495.841820452729
 30
0.0
 40
10.0
  0
LINE
  5
4BD1F
330
4B4D3
100
AcDbEntity
  8
P903
  6
PHANTOM2
100
AcDbLine
 10
2956.546995374862
 20
3039.333359834121
 30
0.0
 11
2896.770264186675
 21
3094.883453463549
 31
0.0
  0
LINE
  5
4BD20
330
4B4D3
100
AcDbEntity
  8
P903
  6
PHANTOM2
100
AcDbLine
 10
2612.253476977249
 20
2668.84359547147
 30
0.0
 11
2552.47674578906
 21
2724.393689100898
 31
0.0
  0
LINE
  5
4BD21
330
4B4D3
100
AcDbEntity
  8
P903
  6
PHANTOM2
100
AcDbLine
 10
2539.812921852178
 20
2596.987601160527
 30
0.0
 11
2483.076184345718
 21
2649.71265015643
 31
0.0
  0
CIRCLE
  5
4BD22
330
4B4D3
100
AcDbEntity
  8
P006
100
AcDbCircle
 10
2474.701137479145
 20
2518.327702015917
 30
0.0
 40
10.0
  0
LINE
  5
4BD23
330
4B4D3
100
AcDbEntity
  8
P903
  6
PHANTOM2
100
AcDbLine
 10
2467.375838476718
 20
2525.135050583829
 30
0.0
 11
2413.678948958776
 21
2575.035190337875
 31
0.0
  0
CIRCLE
  5
4BD24
330
4B4D3
100
AcDbEntity
  8
P006
100
AcDbCircle
 10
2547.138220854605
 20
2590.180252592616
 30
0.0
 40
10.0
  0
LINE
  5
4BD25
330
4B4D3
100
AcDbEntity
  8
P903
  6
PHANTOM2
100
AcDbLine
 10
2684.310173814613
 20
2740.318829048456
 30
0.0
 11
2621.50955769438
 21
2798.67899756423
 31
0.0
  0
CIRCLE
  5
4BD26
330
4B4D3
100
AcDbEntity
  8
P006
100
AcDbCircle
 10
2619.578775979676
 20
2662.036246903558
 30
0.0
 40
10.0
  0
CIRCLE
  5
4BD27
330
4B4D3
100
AcDbEntity
  8
P006
100
AcDbCircle
 10
2691.63547281704
 20
2733.511480480545
 30
0.0
 40
10.0
  0
LINE
  5
4BD28
330
4B4D3
100
AcDbEntity
  8
P903
  6
PHANTOM2
100
AcDbLine
 10
2756.662959519267
 20
2812.087762196445
 30
0.0
 11
2690.826032992275
 21
2873.269552504358
 31
0.0
  0
LINE
  5
4BD29
330
4B4D3
100
AcDbEntity
  8
P903
  6
PHANTOM2
100
AcDbLine
 10
2824.257903510453
 20
2884.825799752176
 30
0.0
 11
2758.420976983461
 21
2946.007590060089
 31
0.0
  0
CIRCLE
  5
4BD2A
330
4B4D3
100
AcDbEntity
  8
P006
100
AcDbCircle
 10
2831.583202512879
 20
2878.018451184265
 30
0.0
 40
10.0
  0
CIRCLE
  5
4BD2B
330
4B4D3
100
AcDbEntity
  8
P006
100
AcDbCircle
 10
2763.988258521694
 20
2805.280413628534
 30
0.0
 40
10.0
  0
LINE
  5
4BD2C
330
4B4D3
100
AcDbEntity
  8
P903
  6
PHANTOM2
100
AcDbLine
 10
2890.53806840159
 20
2962.237976484442
 30
0.0
 11
2827.737452281356
 21
3020.598145000216
 31
0.0
  0
CIRCLE
  5
4BD2D
330
4B4D3
100
AcDbEntity
  8
P006
100
AcDbCircle
 10
2897.863367404017
 20
2955.430627916531
 30
0.0
 40
10.0
  0
LINE
  5
4BD2E
330
4B4D3
100
AcDbEntity
  8
P903
  6
PHANTOM2
100
AcDbLine
 10
3485.953004625138
 20
3039.333359834121
 30
0.0
 11
3545.729735813321
 21
3094.883453463545
 31
0.0
  0
CIRCLE
  5
4BD2F
330
4B4D3
100
AcDbEntity
  8
P006
100
AcDbCircle
 10
2963.872294377289
 20
3032.52601126621
 30
0.0
 40
10.0
  0
LINE
  5
4BD33
330
4B4D3
100
AcDbEntity
  8
P903
  6
PHANTOM2
100
AcDbLine
 10
3551.96193159841
 20
2962.237976484442
 30
0.0
 11
3614.76254771864
 21
3020.598145000212
 31
0.0
  0
ARC
  5
4BD35
330
4B4D3
100
AcDbEntity
  8
P006
100
AcDbCircle
 10
3221.249999999999
 20
3223.701755672221
 30
0.0
 40
100.0
100
AcDbArc
 50
42.90109406679646
 51
137.0989059332035
  0
LINE
  5
4BD37
330
4B4D3
100
AcDbEntity
  8
P903
  6
PHANTOM2
100
AcDbLine
 10
3155.631549877781
 20
3271.854940659354
 30
0.0
 11
3104.974930349769
 21
3318.929779008618
 31
0.0
  0
CIRCLE
  5
4BD38
330
4B4D3
100
AcDbEntity
  8
P006
100
AcDbCircle
 10
3096.590249537324
 20
3187.534463904615
 30
0.0
 40
10.0
  0
LINE
  5
4BD39
330
4B4D3
100
AcDbEntity
  8
P903
  6
PHANTOM2
100
AcDbLine
 10
3022.907563136479
 20
3116.839443412114
 30
0.0
 11
2966.170825630018
 21
3169.564492408016
 31
0.0
  0
CIRCLE
  5
4BD3A
330
4B4D3
100
AcDbEntity
  8
P006
100
AcDbCircle
 10
3030.232862138905
 20
3110.032094844202
 30
0.0
 40
10.0
  0
LINE
  5
4BD3B
330
4B4D3
100
AcDbEntity
  8
P903
  6
PHANTOM2
100
AcDbLine
 10
3089.264950534897
 20
3194.341812472526
 30
0.0
 11
3035.568061016957
 21
3244.241952226571
 31
0.0
  0
CIRCLE
  5
4BD3C
330
4B4D3
100
AcDbEntity
  8
P006
100
AcDbCircle
 10
3162.956848880208
 20
3265.047592091442
 30
0.0
 40
10.0
  0
LINE
  5
4BD3D
330
4B4D3
100
AcDbEntity
  8
P903
  6
PHANTOM2
100
AcDbLine
 10
3286.868450122219
 20
3271.854940659354
 30
0.0
 11
3337.525069650227
 21
3318.929779008615
 31
0.0
  0
LINE
  5
4BD3E
330
4B4D3
100
AcDbEntity
  8
P903
  6
PHANTOM2
100
AcDbLine
 10
3419.592436863523
 20
3116.839443412114
 30
0.0
 11
3476.329174369978
 21
3169.564492408012
 31
0.0
  0
LINE
  5
4BD41
330
4B4D3
100
AcDbEntity
  8
P903
  6
PHANTOM2
100
AcDbLine
 10
3353.235049465103
 20
3194.341812472526
 30
0.0
 11
3406.931938983039
 21
3244.241952226568
 31
0.0
  0
LINE
  5
4BD44
330
4B4D3
100
AcDbEntity
  8
P903
  6
PHANTOM2
100
AcDbLine
 10
4047.57130084602
 20
2453.272525206562
 30
0.0
 11
4098.22792037403
 21
2500.347363555824
 31
0.0
  0
LINE
  5
4BD46
330
4B4D3
100
AcDbEntity
  8
P903
  6
PHANTOM2
100
AcDbLine
 10
4248.609686197186
 20
2526.248238040394
 30
0.0
 11
3779.872626238029
 21
1262.696163367884
 31
0.0
  0
LINE
  5
4BD47
330
4B4D3
100
AcDbEntity
  8
P903
  6
PHANTOM2
100
AcDbLine
 10
3716.81895275998
 20
1467.992329173689
 30
0.0
 11
3716.81895275998
 21
1400.601828442667
 31
0.0
  0
ARC
  5
4BD4B
330
4B4D3
100
AcDbEntity
  8
P006
100
AcDbCircle
 10
9753.386880316491
 20
-226.0579767266299
 30
0.0
 40
6183.36081583825
100
AcDbArc
 50
155.6554887247146
 51
163.6380529791474
  0
LINE
  5
4BD4C
330
4B4D3
100
AcDbEntity
  8
P903
  6
PHANTOM2
100
AcDbLine
 10
3958.062462496467
 20
1970.785154601862
 30
0.0
 11
4032.330281138637
 21
1943.234189621702
 31
0.0
  0
LINE
  5
4BD51
330
4B4D3
100
AcDbEntity
  8
P903
  6
PHANTOM2
100
AcDbLine
 10
3924.665568475993
 20
1880.79958039554
 30
0.0
 11
3998.946703330485
 21
1853.243675530163
 31
0.0
  0
LINE
  5
4BD55
330
4B4D3
100
AcDbEntity
  8
P903
  6
PHANTOM2
100
AcDbLine
 10
3863.991834517005
 20
1698.840519150716
 30
0.0
 11
3932.271645795746
 21
1673.510911740861
 31
0.0
  0
ARC
  5
4BD56
330
4B4D3
100
AcDbEntity
  8
P006
100
AcDbCircle
 10
3726.687641178286
 20
1550.601828442667
 30
0.0
 40
100.0
100
AcDbArc
 50
270.0
 51
339.6467708519311
  0
LINE
  5
4BD57
330
4B4D3
100
AcDbEntity
  8
P903
  6
PHANTOM2
100
AcDbLine
 10
3802.929710454658
 20
1517.168593776461
 30
0.0
 11
3865.643237560514
 21
1493.903898237192
 31
0.0
  0
LINE
  5
4BD5A
330
4B4D3
100
AcDbEntity
  8
P903
  6
PHANTOM2
100
AcDbLine
 10
3833.944962533576
 20
1608.730676510345
 30
0.0
 11
3899.252795833613
 21
1584.503577060332
 31
0.0
  0
LINE
  5
4BD5C
330
4B4D3
100
AcDbEntity
  8
P903
  6
PHANTOM2
100
AcDbLine
 10
3894.343752323987
 20
1789.865186840885
 30
0.0
 11
3965.625714088926
 21
1763.421878444215
 31
0.0
  0
LINE
  5
4BD63
330
4B4D3
100
AcDbEntity
  8
P903
  6
PHANTOM2
100
AcDbLine
 10
4066.808214469037
 20
2236.164276297165
 30
0.0
 11
4132.023199119657
 21
2211.971620700967
 31
0.0
  0
LINE
  5
4BD64
330
4B4D3
100
AcDbEntity
  8
P903
  6
PHANTOM2
100
AcDbLine
 10
3994.408876460199
 20
2059.483602490682
 30
0.0
 11
4065.650939651393
 21
2033.05509517782
 31
0.0
  0
LINE
  5
4BD65
330
4B4D3
100
AcDbEntity
  8
P903
  6
PHANTOM2
100
AcDbLine
 10
4030.791372933217
 20
2148.270104804144
 30
0.0
 11
4099.004676887437
 21
2122.965169466288
 31
0.0
  0
LINE
  5
4BD67
330
4B4D3
100
AcDbEntity
  8
P903
  6
PHANTOM2
100
AcDbLine
 10
4103.038605234847
 20
2325.790832858501
 30
0.0
 11
4165.632471100352
 21
2302.570527779362
 31
0.0
  0
ARC
  5
4BD68
330
4B4D3
100
AcDbEntity
  8
P006
100
AcDbCircle
 10
4026.073424545632
 20
2357.641766215509
 30
0.0
 40
100.0
100
AcDbArc
 50
339.6467708519311
 51
42.90109406679646
  0
MTEXT
  5
4BD6D
330
4B4D3
100
AcDbEntity
  8
P_3TEXT
100
AcDbMText
 10
4359.507216117664
 20
1227.31969040577
 30
0.0
 40
45.0
 41
1110.0
 71
     1
 72
     5
  1
仕様：t8.7天然ゴム・ポリエステル芯材\P\P＊取付可能枚数\P・ＣＰ－８００３１      ４枚\P・ＣＰ－８００４１      ６枚\P・ＣＰ－８００４２      ８枚
  7
BIGFONT
 73
     1
 44
1.0
  0
LINE
  5
4BD6E
330
4B4D3
100
AcDbEntity
  8
P903
  6
PHANTOM2
100
AcDbLine
 10
3975.124161523282
 20
2525.135050583829
 30
0.0
 11
4028.82105104122
 21
2575.035190337871
 31
0.0
  0
LINE
  5
4BD6F
330
4B4D3
100
AcDbEntity
  8
P903
  6
PHANTOM2
100
AcDbLine
 10
3758.189826185385
 20
2740.318829048456
 30
0.0
 11
3820.990442305617
 21
2798.678997564226
 31
0.0
  0
LINE
  5
4BD72
330
4B4D3
100
AcDbEntity
  8
P903
  6
PHANTOM2
100
AcDbLine
 10
3902.687078147822
 20
2596.987601160527
 30
0.0
 11
3959.423815654279
 21
2649.712650156427
 31
0.0
  0
LINE
  5
4BD75
330
4B4D3
100
AcDbEntity
  8
P903
  6
PHANTOM2
100
AcDbLine
 10
3830.246523022753
 20
2668.84359547147
 30
0.0
 11
3890.023254210936
 21
2724.393689100894
 31
0.0
  0
LINE
  5
4BD79
330
4B4D3
100
AcDbEntity
  8
P903
  6
PHANTOM2
100
AcDbLine
 10
3685.837040480731
 20
2812.087762196445
 30
0.0
 11
3751.673967007721
 21
2873.269552504354
 31
0.0
  0
CIRCLE
  5
4C27D
330
4B4D3
100
AcDbEntity
  8
P006
100
AcDbCircle
 10
3279.543151119792
 20
3265.047592091442
 30
0.0
 40
9.0
  0
CIRCLE
  5
4C27E
330
4B4D3
100
AcDbEntity
  8
P006
100
AcDbCircle
 10
3345.909750462676
 20
3187.534463904615
 30
0.0
 40
9.0
  0
CIRCLE
  5
4C27F
330
4B4D3
100
AcDbEntity
  8
P006
100
AcDbCircle
 10
3412.267137861097
 20
3110.032094844202
 30
0.0
 40
9.0
  0
CIRCLE
  5
4C280
330
4B4D3
100
AcDbEntity
  8
P006
100
AcDbCircle
 10
3478.627705622711
 20
3032.52601126621
 30
0.0
 40
9.0
  0
CIRCLE
  5
4C281
330
4B4D3
100
AcDbEntity
  8
P006
100
AcDbCircle
 10
3544.636632595983
 20
2955.430627916531
 30
0.0
 40
9.0
  0
CIRCLE
  5
4C282
330
4B4D3
100
AcDbEntity
  8
P006
100
AcDbCircle
 10
3610.916797487121
 20
2878.018451184265
 30
0.0
 40
9.0
  0
CIRCLE
  5
4C283
330
4B4D3
100
AcDbEntity
  8
P006
100
AcDbCircle
 10
3678.511741478304
 20
2805.280413628534
 30
0.0
 40
9.0
  0
CIRCLE
  5
4C284
330
4B4D3
100
AcDbEntity
  8
P006
100
AcDbCircle
 10
3750.864527182958
 20
2733.511480480545
 30
0.0
 40
9.0
  0
CIRCLE
  5
4C285
330
4B4D3
100
AcDbEntity
  8
P006
100
AcDbCircle
 10
3822.921224020326
 20
2662.036246903558
 30
0.0
 40
9.0
  0
CIRCLE
  5
4C286
330
4B4D3
100
AcDbEntity
  8
P006
100
AcDbCircle
 10
3895.361779145395
 20
2590.180252592616
 30
0.0
 40
9.0
  0
CIRCLE
  5
4C287
330
4B4D3
100
AcDbEntity
  8
P006
100
AcDbCircle
 10
3967.798862520855
 20
2518.327702015917
 30
0.0
 40
9.0
  0
CIRCLE
  5
4C288
330
4B4D3
100
AcDbEntity
  8
P006
100
AcDbCircle
 10
4040.246001843593
 20
2446.465176638651
 30
0.0
 40
9.0
  0
CIRCLE
  5
4C289
330
4B4D3
100
AcDbEntity
  8
P006
100
AcDbCircle
 10
4093.662943050748
 20
2329.268901088086
 30
0.0
 40
9.0
  0
CIRCLE
  5
4C28A
330
4B4D3
100
AcDbEntity
  8
P006
100
AcDbCircle
 10
4057.432552284939
 20
2239.64234452675
 30
0.0
 40
9.0
  0
CIRCLE
  5
4C28B
330
4B4D3
100
AcDbEntity
  8
P006
100
AcDbCircle
 10
4021.415710749118
 20
2151.748173033729
 30
0.0
 40
9.0
  0
CIRCLE
  5
4C28C
330
4B4D3
100
AcDbEntity
  8
P006
100
AcDbCircle
 10
3985.033214276101
 20
2062.961670720267
 30
0.0
 40
9.0
  0
CIRCLE
  5
4C28D
330
4B4D3
100
AcDbEntity
  8
P006
100
AcDbCircle
 10
3948.686800312366
 20
1974.263222831447
 30
0.0
 40
9.0
  0
CIRCLE
  5
4C28E
330
4B4D3
100
AcDbEntity
  8
P006
100
AcDbCircle
 10
3915.289906291894
 20
1884.277648625125
 30
0.0
 40
9.0
  0
CIRCLE
  5
4C28F
330
4B4D3
100
AcDbEntity
  8
P006
100
AcDbCircle
 10
3884.968090139889
 20
1793.343255070471
 30
0.0
 40
9.0
  0
CIRCLE
  5
4C290
330
4B4D3
100
AcDbEntity
  8
P006
100
AcDbCircle
 10
3854.616172332905
 20
1702.318587380301
 30
0.0
 40
9.0
  0
CIRCLE
  5
4C291
330
4B4D3
100
AcDbEntity
  8
P006
100
AcDbCircle
 10
3824.569300349477
 20
1612.208744739931
 30
0.0
 40
9.0
  0
CIRCLE
  5
4C292
330
4B4D3
100
AcDbEntity
  8
P006
100
AcDbCircle
 10
3793.554048270559
 20
1520.646662006046
 30
0.0
 40
9.0
  0
CIRCLE
  5
4C293
330
4B4D3
100
AcDbEntity
  8
P006
100
AcDbCircle
 10
3716.81895275998
 20
1477.992329173689
 30
0.0
 40
9.0
  0
CIRCLE
  5
4C294
330
4B4D3
100
AcDbEntity
  8
P006
100
AcDbCircle
 10
3626.505246651562
 20
1481.337519690661
 30
0.0
 40
9.0
  0
CIRCLE
  5
4C295
330
4B4D3
100
AcDbEntity
  8
P006
100
AcDbCircle
 10
3536.584939783358
 20
1485.124129352103
 30
0.0
 40
9.0
  0
CIRCLE
  5
4C296
330
4B4D3
100
AcDbEntity
  8
P006
100
AcDbCircle
 10
3447.192720623377
 20
1486.990238777092
 30
0.0
 40
9.0
  0
CIRCLE
  5
4C297
330
4B4D3
100
AcDbEntity
  8
P006
100
AcDbCircle
 10
3357.386521454332
 20
1492.214951393425
 30
0.0
 40
9.0
  0
CIRCLE
  5
4C298
330
4B4D3
100
AcDbEntity
  8
P006
100
AcDbCircle
 10
3267.118156734475
 20
1495.786840677706
 30
0.0
 40
9.0
  0
ARC
  5
4C2F8
330
4B4D3
100
AcDbEntity
  8
P006
100
AcDbCircle
 10
8803.729261568864
 20
7604.471907764437
 30
0.0
 40
6996.493882479127
100
AcDbArc
 50
218.0543188617071
 51
227.7478692718858
  0
ARC
  5
4C2F9
330
4B4D3
100
AcDbEntity
  8
P006
100
AcDbCircle
 10
-2361.229261568865
 20
7604.471907764437
 30
0.0
 40
6996.493882479127
100
AcDbArc
 50
312.2521307281144
 51
321.9456811382927
  0
ARC
  5
4C2FB
330
4B4D3
100
AcDbEntity
  8
P006
100
AcDbCircle
 10
-3310.886880316494
 20
-226.0579767266299
 30
0.0
 40
6183.36081583825
100
AcDbArc
 50
16.36194702085258
 51
24.34451127528519
  0
INSERT
  5
4D031
330
4B4D3
100
AcDbEntity
  8
P_5DRAWFRAME
100
AcDbBlockReference
 66
     1
  2
DFP3
 10
0.0
 20
0.0
 30
0.0
 41
15.0
 42
15.0
 43
15.0
  0
ATTRIB
  5
4D032
330
4D031
100
AcDbEntity
  8
0
 62
    83
100
AcDbText
 10
5148.722481333926
 20
164.5005495034017
 30
0.0
 40
45.0
  1
E3P0441-003
  7
BIGFONT
 72
     1
 11
5380.151052762498
 21
158.5005495034017
 31
0.0
100
AcDbAttribute
  2
DWGNO
 70
     0
 74
     1
  0
ATTRIB
  5
4D033
330
4D031
100
AcDbEntity
  8
0
 62
    83
100
AcDbText
 10
4224.937386024144
 20
391.9328864985249
 30
0.0
 40
60.0
  1
-
  7
BIGFONT
 72
     1
 11
4250.651671738429
 21
383.9328864985249
 31
0.0
100
AcDbAttribute
  2
PROJECT1
 70
     0
 74
     1
  0
ATTRIB
  5
4D034
330
4D031
100
AcDbEntity
  8
0
 62
    83
100
AcDbText
 10
3722.454624191071
 20
275.625549503403
 30
0.0
 40
60.0
  1
ザイルオプション(ﾍﾟﾝﾀｺﾞﾝ1920)
  7
BIGFONT
 72
     1
 11
4263.0260527625
 21
267.625549503403
 31
0.0
100
AcDbAttribute
  2
PROJECT2
 70
     0
 74
     1
  0
ATTRIB
  5
4D035
330
4D031
100
AcDbEntity
  8
0
 62
    83
100
AcDbText
 10
3978.740338476785
 20
166.5005495034017
 30
0.0
 40
60.0
  1
CPP-80031P
  7
BIGFONT
 72
     1
 11
4263.0260527625
 21
158.5005495034017
 31
0.0
100
AcDbAttribute
  2
PROJECT3
 70
     0
 74
     1
  0
ATTRIB
  5
4D036
330
4D031
100
AcDbEntity
  8
0
 62
    83
100
AcDbText
 10
4970.865338476783
 20
393.625549503403
 30
0.0
 40
45.0
  1
2009/11/10
  7
BIGFONT
 72
     1
 11
5170.151052762498
 21
387.625549503403
 31
0.0
100
AcDbAttribute
  2
DATE
 70
     0
 74
     1
  0
ATTRIB
  5
4D037
330
4D031
100
AcDbEntity
  8
0
 62
    83
100
AcDbText
 10
4963.151052762498
 20
273.625549503403
 30
0.0
 40
45.0
  1
内野
  7
BIGFONT
 72
     1
 11
5012.651052762498
 21
267.625549503403
 31
0.0
100
AcDbAttribute
  2
DRAWN
 70
     0
 74
     1
  0
ATTRIB
  5
4D038
330
4D031
100
AcDbEntity
  8
0
 62
    83
100
AcDbText
 10
5279.651052762498
 20
273.625549503403
 30
0.0
 40
45.0
  1
守谷
  7
BIGFONT
 72
     1
 11
5327.651052762498
 21
267.625549503403
 31
0.0
100
AcDbAttribute
  2
CHECKED
 70
     8
 74
     1
  0
ATTRIB
  5
4D039
330
4D031
100
AcDbEntity
  8
0
 62
    83
100
AcDbText
 10
5645.651052762498
 20
273.625549503403
 30
0.0
 40
45.0
  1
中西
  7
BIGFONT
 72
     1
 11
5695.151052762498
 21
267.625549503403
 31
0.0
100
AcDbAttribute
  2
APPROVED
 70
     8
 74
     1
  0
ATTRIB
  5
4D03A
330
4D031
100
AcDbEntity
  8
0
 62
    83
100
AcDbText
 10
5622.293909905355
 20
393.625549503403
 30
0.0
 40
45.0
  1
1/15
  7
BIGFONT
 72
     1
 11
5695.151052762498
 21
387.625549503403
 31
0.0
100
AcDbAttribute
  2
SCALE
 70
     0
 74
     1
  0
ATTRIB
  5
4D03B
330
4D031
100
AcDbEntity
  8
0
 62
    83
 48
0.5
100
AcDbText
 10
397.1242684478339
 20
158.8818486550778
 30
0.0
 40
30.0
  1

  7
BIGFONT
 11
397.1242684478339
 21
154.8818486550778
 31
0.0
100
AcDbAttribute
  2
REV01
 70
     8
 74
     1
  0
ATTRIB
  5
4D03C
330
4D031
100
AcDbEntity
  8
0
 62
    83
 48
0.5
100
AcDbText
 10
1214.683403763853
 20
158.8818486550778
 30
0.0
 40
30.0
  1

  7
BIGFONT
 72
     1
 11
1214.683403763853
 21
154.8818486550778
 31
0.0
100
AcDbAttribute
  2
REVD1
 70
     8
 74
     1
  0
ATTRIB
  5
4D03D
330
4D031
100
AcDbEntity
  8
0
 62
    83
 48
0.5
100
AcDbText
 10
1390.077737004458
 20
158.8818486550778
 30
0.0
 40
30.0
  1

  7
BIGFONT
 72
     1
 11
1390.077737004458
 21
154.8818486550778
 31
0.0
100
AcDbAttribute
  2
R1D
 70
     8
 74
     1
  0
ATTRIB
  5
4D03E
330
4D031
100
AcDbEntity
  8
0
 62
    83
 48
0.5
100
AcDbText
 10
1526.952362004457
 20
158.8818486550778
 30
0.0
 40
30.0
  1

  7
BIGFONT
 72
     1
 11
1526.952362004457
 21
154.8818486550778
 31
0.0
100
AcDbAttribute
  2
R1C
 70
     8
 74
     1
  0
ATTRIB
  5
4D03F
330
4D031
100
AcDbEntity
  8
0
 62
    83
 48
0.5
100
AcDbText
 10
1663.827362004457
 20
158.8818486550778
 30
0.0
 40
30.0
  1

  7
BIGFONT
 72
     1
 11
1663.827362004457
 21
154.8818486550778
 31
0.0
100
AcDbAttribute
  2
R1A
 70
     8
 74
     1
  0
ATTRIB
  5
4D040
330
4D031
100
AcDbEntity
  8
0
 62
    83
 48
0.5
100
AcDbText
 10
397.1242684478339
 20
237.6318486550778
 30
0.0
 40
30.0
  1

  7
BIGFONT
 11
397.1242684478339
 21
233.6318486550778
 31
0.0
100
AcDbAttribute
  2
REV02
 70
     8
 74
     1
  0
ATTRIB
  5
4D041
330
4D031
100
AcDbEntity
  8
0
 62
    83
 48
0.5
100
AcDbText
 10
1214.683403763853
 20
237.6318486550778
 30
0.0
 40
30.0
  1

  7
BIGFONT
 72
     1
 11
1214.683403763853
 21
233.6318486550778
 31
0.0
100
AcDbAttribute
  2
REVD2
 70
     8
 74
     1
  0
ATTRIB
  5
4D042
330
4D031
100
AcDbEntity
  8
0
 62
    83
 48
0.5
100
AcDbText
 10
1390.077737004458
 20
237.6318486550778
 30
0.0
 40
30.0
  1

  7
BIGFONT
 72
     1
 11
1390.077737004458
 21
233.6318486550778
 31
0.0
100
AcDbAttribute
  2
R2D
 70
     8
 74
     1
  0
ATTRIB
  5
4D043
330
4D031
100
AcDbEntity
  8
0
 62
    83
 48
0.5
100
AcDbText
 10
1526.952362004457
 20
237.6318486550778
 30
0.0
 40
30.0
  1

  7
BIGFONT
 72
     1
 11
1526.952362004457
 21
233.6318486550778
 31
0.0
100
AcDbAttribute
  2
R2C
 70
     8
 74
     1
  0
ATTRIB
  5
4D044
330
4D031
100
AcDbEntity
  8
0
 62
    83
 48
0.5
100
AcDbText
 10
1663.827362004457
 20
237.6318486550778
 30
0.0
 40
30.0
  1

  7
BIGFONT
 72
     1
 11
1663.827362004457
 21
233.6318486550778
 31
0.0
100
AcDbAttribute
  2
R2A
 70
     8
 74
     1
  0
ATTRIB
  5
4D045
330
4D031
100
AcDbEntity
  8
0
 62
    83
 48
0.5
100
AcDbText
 10
397.1242684478339
 20
329.5681379802968
 30
0.0
 40
30.0
  1

  7
BIGFONT
 11
397.1242684478339
 21
325.5681379802968
 31
0.0
100
AcDbAttribute
  2
REV03
 70
     8
 74
     1
  0
ATTRIB
  5
4D046
330
4D031
100
AcDbEntity
  8
0
 62
    83
 48
0.5
100
AcDbText
 10
1214.683403763853
 20
329.5681379802968
 30
0.0
 40
30.0
  1

  7
BIGFONT
 72
     1
 11
1214.683403763853
 21
325.5681379802968
 31
0.0
100
AcDbAttribute
  2
REVD3
 70
     8
 74
     1
  0
ATTRIB
  5
4D047
330
4D031
100
AcDbEntity
  8
0
 62
    83
 48
0.5
100
AcDbText
 10
1390.077737004458
 20
329.5681379802968
 30
0.0
 40
30.0
  1

  7
BIGFONT
 72
     1
 11
1390.077737004458
 21
325.5681379802968
 31
0.0
100
AcDbAttribute
  2
R3D
 70
     8
 74
     1
  0
ATTRIB
  5
4D048
330
4D031
100
AcDbEntity
  8
0
 62
    83
 48
0.5
100
AcDbText
 10
1526.952362004457
 20
329.5681379802968
 30
0.0
 40
30.0
  1

  7
BIGFONT
 72
     1
 11
1526.952362004457
 21
325.5681379802968
 31
0.0
100
AcDbAttribute
  2
R3C
 70
     8
 74
     1
  0
ATTRIB
  5
4D049
330
4D031
100
AcDbEntity
  8
0
 62
    83
 48
0.5
100
AcDbText
 10
1663.827362004457
 20
329.5681379802968
 30
0.0
 40
30.0
  1

  7
BIGFONT
 72
     1
 11
1663.827362004457
 21
325.5681379802968
 31
0.0
100
AcDbAttribute
  2
R3A
 70
     8
 74
     1
  0
ATTRIB
  5
4D04A
330
4D031
100
AcDbEntity
  8
0
 62
    83
 48
0.5
100
AcDbText
 10
397.1242684478339
 20
418.2078610155733
 30
0.0
 40
30.0
  1

  7
BIGFONT
 11
397.1242684478339
 21
414.2078610155733
 31
0.0
100
AcDbAttribute
  2
REV04
 70
     8
 74
     1
  0
ATTRIB
  5
4D04B
330
4D031
100
AcDbEntity
  8
0
 62
    83
 48
0.5
100
AcDbText
 10
1214.683403763853
 20
418.2078610155733
 30
0.0
 40
30.0
  1

  7
BIGFONT
 72
     1
 11
1214.683403763853
 21
414.2078610155733
 31
0.0
100
AcDbAttribute
  2
REVD4
 70
     8
 74
     1
  0
ATTRIB
  5
4D04C
330
4D031
100
AcDbEntity
  8
0
 62
    83
 48
0.5
100
AcDbText
 10
1390.077737004458
 20
418.2078610155733
 30
0.0
 40
30.0
  1

  7
BIGFONT
 72
     1
 11
1390.077737004458
 21
414.2078610155733
 31
0.0
100
AcDbAttribute
  2
R4D
 70
     8
 74
     1
  0
ATTRIB
  5
4D04D
330
4D031
100
AcDbEntity
  8
0
 62
    83
 48
0.5
100
AcDbText
 10
1526.952362004457
 20
418.2078610155733
 30
0.0
 40
30.0
  1

  7
BIGFONT
 72
     1
 11
1526.952362004457
 21
414.2078610155733
 31
0.0
100
AcDbAttribute
  2
R4C
 70
     8
 74
     1
  0
ATTRIB
  5
4D04E
330
4D031
100
AcDbEntity
  8
0
 62
    83
 48
0.5
100
AcDbText
 10
1663.827362004457
 20
418.2078610155733
 30
0.0
 40
30.0
  1

  7
BIGFONT
 72
     1
 11
1663.827362004457
 21
414.2078610155733
 31
0.0
100
AcDbAttribute
  2
R4A
 70
     8
 74
     1
  0
SEQEND
  5
4D04F
330
4D031
100
AcDbEntity
  8
P_5DRAWFRAME
  0
DIMENSION
  5
4D0B5
330
4B4D3
100
AcDbEntity
  8
P_2DIM
100
AcDbDimension
  2
*D3
 10
2024.101833113522
 20
1450.601828442667
 30
0.0
 11
1978.566118827808
 21
2387.151792057445
 31
0.0
 70
    32
  1
(<>)
 71
     5
 42
1873.099927229554
  3
DIMBIGFONT$0
100
AcDbAlignedDimension
 13
2316.426575454368
 23
3323.701755672221
 33
0.0
 14
2316.426575454368
 24
1450.601828442667
 34
0.0
 50
90.0
100
AcDbRotatedDimension
1001
ACAD
1000
DSTYLE
1002
{
1070
    40
1040
15.0
1070
   173
1070
     0
1070
   179
1070
     1
1070
   271
1070
     0
1002
}
  0
DIMENSION
  5
4D0CF
330
4B4D3
100
AcDbEntity
  8
P_2DIM
100
AcDbDimension
  2
*D4
 10
4126.073424545632
 20
1156.746305018627
 30
0.0
 11
3221.25
 21
1202.282019304341
 31
0.0
 70
    32
  1
(<>)
 71
     5
 42
1809.646849091265
  3
DIMBIGFONT$0
100
AcDbAlignedDimension
 13
2316.426575454368
 23
1450.601828442667
 33
0.0
 14
4126.073424545632
 24
1450.601828442667
 34
0.0
100
AcDbRotatedDimension
1001
ACAD
1000
DSTYLE
1002
{
1070
   271
1070
     0
1070
    40
1040
15.0
1070
   173
1070
     0
1070
   179
1070
     1
1002
}
  0
LEADER
  5
4D17B
330
4B4D3
100
AcDbEntity
  8
P_2DIM
100
AcDbLeader
  3
DIMBIGFONT$7
 73
     0
 74
     0
 75
     1
 40
45.0
 41
476.9999999999998
 76
     3
 10
3735.940780474096
 20
2890.199829317713
 30
0.0
 10
4017.082082540891
 20
3175.723475330444
 30
0.0
 10
4019.082082540891
 20
3175.723475330444
 30
0.0
340
4D17C
1001
ACAD
1000
DSTYLE
1002
{
1070
    40
1040
15.0
1070
   173
1070
     0
1070
   179
1070
     1
1002
}
  0
MTEXT
  5
4D17C
102
{ACAD_REACTORS
330
4D17B
102
}
330
4B4D3
100
AcDbEntity
  8
P_2DIM
 62
   230
100
AcDbMText
 10
4030.332082540891
 20
3186.973475330444
 30
0.0
 40
45.0
 41
0.0
 71
     7
 72
     1
  1
ザイルロープを示す
  7
BIGFONT
 73
     1
 44
1.0
  0
LEADER
  5
4D17D
330
4B4D3
100
AcDbEntity
  8
P_2DIM
100
AcDbLeader
  3
DIMBIGFONT$7
 73
     0
 74
     0
 75
     1
 40
45.0
 41
357.8571428571428
 76
     3
 10
3789.590134245501
 20
2769.498913306341
 30
0.0
 10
4032.743624230304
 20
3007.425120379292
 30
0.0
 10
4034.743624230304
 20
3007.425120379292
 30
0.0
340
4D17E
1001
ACAD
1000
DSTYLE
1002
{
1070
    40
1040
15.0
1070
   173
1070
     0
1070
   179
1070
     1
1002
}
  0
MTEXT
  5
4D17E
102
{ACAD_REACTORS
330
4D17D
102
}
330
4B4D3
100
AcDbEntity
  8
P_2DIM
 62
   230
100
AcDbMText
 10
4045.993624230304
 20
3018.675120379292
 30
0.0
 40
45.0
 41
0.0
 71
     7
 72
     1
  1
Sフックを示す
  7
BIGFONT
 73
     1
 44
1.0
  0
LEADER
  5
4D17F
330
4B4D3
100
AcDbEntity
  8
P_2DIM
100
AcDbLeader
  3
DIMBIGFONT$7
 73
     0
 74
     0
 75
     1
 40
45.00000000000001
 41
334.2857142857142
 76
     3
 10
3822.921224020326
 20
2662.036246903558
 30
0.0
 10
4042.532054092701
 20
2878.265915030759
 30
0.0
 10
4044.532054092701
 20
2878.265915030759
 30
0.0
340
4D180
1001
ACAD
1000
DSTYLE
1002
{
1070
    40
1040
15.0
1070
   173
1070
     0
1070
   179
1070
     1
1002
}
  0
MTEXT
  5
4D180
102
{ACAD_REACTORS
330
4D17F
102
}
330
4B4D3
100
AcDbEntity
  8
P_2DIM
 62
   230
100
AcDbMText
 10
4055.782054092701
 20
2889.515915030759
 30
0.0
 40
45.0
 41
0.0
 71
     7
 72
     1
  1
\A1;ハトメ穴φ18
  7
BIGFONT
 73
     1
 44
1.0
  0
ENDSEC
  0
SECTION
  2
OBJECTS
  0
DICTIONARY
  5
4B4C7
330
0
100
AcDbDictionary
281
     1
  3
ACAD_GROUP
350
4B4C8
  3
ACAD_LAYOUT
350
4C9E0
  3
ACAD_MLEADERSTYLE
350
4D1A1
  3
ACAD_MLINESTYLE
350
4B4C9
  3
ACAD_PLOTSETTINGS
350
4C9E1
  3
ACAD_PLOTSTYLENAME
350
4C9DE
  3
ACAD_TABLESTYLE
350
4D1A0
  3
AcDbVariableDictionary
350
4C9E9
  0
DICTIONARY
  5
4B4C8
102
{ACAD_REACTORS
330
4B4C7
102
}
330
4B4C7
100
AcDbDictionary
281
     1
  0
DICTIONARY
  5
4C9E0
102
{ACAD_REACTORS
330
4B4C7
102
}
330
4B4C7
100
AcDbDictionary
281
     1
  3
Model
350
4C9E2
  3
ﾚｲｱｳﾄ1
350
4C9E3
  0
DICTIONARY
  5
4D1A1
102
{ACAD_REACTORS
330
4B4C7
102
}
330
4B4C7
100
AcDbDictionary
281
     1
  0
DICTIONARY
  5
4B4C9
102
{ACAD_REACTORS
330
4B4C7
102
}
330
4B4C7
100
AcDbDictionary
281
     1
  3
STANDARD
350
4B4D6
  0
DICTIONARY
  5
4C9E1
102
{ACAD_REACTORS
330
4B4C7
102
}
330
4B4C7
100
AcDbDictionary
281
     1
  0
ACDBDICTIONARYWDFLT
  5
4C9DE
102
{ACAD_REACTORS
330
4B4C7
102
}
330
4B4C7
100
AcDbDictionary
281
     1
  3
Normal
350
4C9DF
100
AcDbDictionaryWithDefault
340
4C9DF
  0
DICTIONARY
  5
4D1A0
102
{ACAD_REACTORS
330
4B4C7
102
}
330
4B4C7
100
AcDbDictionary
281
     1
  0
DICTIONARY
  5
4C9E9
102
{ACAD_REACTORS
330
4B4C7
102
}
330
4B4C7
100
AcDbDictionary
281
     1
  3
DIMASSOC
350
4C9EA
  0
LAYOUT
  5
4C9E2
102
{ACAD_REACTORS
330
4C9E0
102
}
330
4C9E0
100
AcDbPlotSettings
  1

  2
C:\Program Files\AutoCAD 2002\plotters\A3 CPR190.pc3
  4

  6

 40
0.0
 41
0.0
 42
0.0
 43
0.0
 44
0.0
 45
0.0
 46
0.0
 47
0.0
 48
0.0
 49
0.0
140
0.0
141
0.0
142
1.0
143
1.0
 70
  1712
 72
     0
 73
     0
 74
     0
  7
KOTOBUKImono.ctb
 75
     0
147
1.0
148
0.0
149
0.0
100
AcDbLayout
  1
Model
 70
     1
 71
     0
 10
0.0
 20
0.0
 11
12.0
 21
9.0
 12
0.0
 22
0.0
 32
0.0
 14
0.0
 24
0.0
 34
0.0
 15
0.0
 25
0.0
 35
0.0
146
0.0
 13
0.0
 23
0.0
 33
0.0
 16
1.0
 26
0.0
 36
0.0
 17
0.0
 27
1.0
 37
0.0
 76
     0
330
4B4D3
331
4D19F
  0
LAYOUT
  5
4C9E3
102
{ACAD_REACTORS
330
4C9E0
102
}
330
4C9E0
100
AcDbPlotSettings
  1

  2
C:\Program Files\AutoCAD 2002\plotters\A3 CPR190.pc3
  4

  6

 40
0.0
 41
0.0
 42
0.0
 43
0.0
 44
0.0
 45
0.0
 46
0.0
 47
0.0
 48
0.0
 49
0.0
140
0.0
141
0.0
142
1.0
143
1.0
 70
   688
 72
     0
 73
     0
 74
     5
  7
KOTOBUKImono.ctb
 75
    16
147
1.0
148
0.0
149
0.0
100
AcDbLayout
  1
ﾚｲｱｳﾄ1
 70
     0
 71
     1
 10
0.0
 20
0.0
 11
420.0
 21
297.0
 12
0.0
 22
0.0
 32
0.0
 14
1.000000000000000E+20
 24
1.000000000000000E+20
 34
1.000000000000000E+20
 15
-1.000000000000000E+20
 25
-1.000000000000000E+20
 35
-1.000000000000000E+20
146
0.0
 13
0.0
 23
0.0
 33
0.0
 16
1.0
 26
0.0
 36
0.0
 17
0.0
 27
1.0
 37
0.0
 76
     0
330
4B4D0
  0
MLINESTYLE
  5
4B4D6
102
{ACAD_REACTORS
330
4B4C9
102
}
330
4B4C9
100
AcDbMlineStyle
  2
STANDARD
 70
     0
  3

 62
     0
 51
90.0
 52
90.0
 71
     2
 49
0.5
 62
   256
  6
BYLAYER
 49
-0.5
 62
   256
  6
BYLAYER
  0
ACDBPLACEHOLDER
  5
4C9DF
102
{ACAD_REACTORS
330
4C9DE
102
}
330
4C9DE
  0
DICTIONARYVAR
  5
4C9EA
102
{ACAD_REACTORS
330
4C9E9
102
}
330
4C9E9
100
DictionaryVariables
280
     0
  1
1
  0
ENDSEC
  0
EOF
