  0
SECTION
  2
HEADER
  9
$ACADVER
  1
AC1015
  9
$ACADMAINTVER
 70
     6
  9
$DWGCODEPAGE
  3
ANSI_932
  9
$INSBASE
 10
6315.879595191785
 20
-29.52296883489544
 30
0.0
  9
$EXTMIN
 10
-0.5772286584942776
 20
-0.2347194646717981
 30
-0.0000000349181948
  9
$EXTMAX
 10
6300.143457419519
 20
4455.272837554545
 30
0.0000000814935746
  9
$LIMMIN
 10
6315.879595191785
 20
-29.52296883489544
  9
$LIMMAX
 10
12615.87959519179
 20
4425.477031165105
  9
$ORTHOMODE
 70
     0
  9
$REGENMODE
 70
     1
  9
$FILLMODE
 70
     1
  9
$QTEXTMODE
 70
     0
  9
$MIRRTEXT
 70
     0
  9
$LTSCALE
 40
4.5
  9
$ATTMODE
 70
     1
  9
$TEXTSIZE
 40
45.0
  9
$TRACEWID
 40
1.0
  9
$TEXTSTYLE
  7
BIGFONT
  9
$CLAYER
  8
P001
  9
$CELTYPE
  6
BYLAYER
  9
$CECOLOR
 62
   256
  9
$CELTSCALE
 40
1.0
  9
$DISPSILH
 70
     0
  9
$DIMSCALE
 40
15.0
  9
$DIMASZ
 40
2.0
  9
$DIMEXO
 40
3.0
  9
$DIMDLI
 40
8.0
  9
$DIMRND
 40
0.0
  9
$DIMDLE
 40
0.0
  9
$DIMEXE
 40
1.5
  9
$DIMTP
 40
0.0
  9
$DIMTM
 40
0.0
  9
$DIMTXT
 40
3.0
  9
$DIMCEN
 40
0.0
  9
$DIMTSZ
 40
0.0
  9
$DIMTOL
 70
     0
  9
$DIMLIM
 70
     0
  9
$DIMTIH
 70
     0
  9
$DIMTOH
 70
     0
  9
$DIMSE1
 70
     0
  9
$DIMSE2
 70
     0
  9
$DIMTAD
 70
     1
  9
$DIMZIN
 70
     8
  9
$DIMBLK
  1

  9
$DIMASO
 70
     1
  9
$DIMSHO
 70
     1
  9
$DIMPOST
  1

  9
$DIMAPOST
  1

  9
$DIMALT
 70
     0
  9
$DIMALTD
 70
     4
  9
$DIMALTF
 40
25.4
  9
$DIMLFAC
 40
1.0
  9
$DIMTOFL
 70
     0
  9
$DIMTVP
 40
1.0
  9
$DIMTIX
 70
     0
  9
$DIMSOXD
 70
     0
  9
$DIMSAH
 70
     0
  9
$DIMBLK1
  1

  9
$DIMBLK2
  1

  9
$DIMSTYLE
  2
DIMBIGFONT
  9
$DIMCLRD
 70
     0
  9
$DIMCLRE
 70
     0
  9
$DIMCLRT
 70
   230
  9
$DIMTFAC
 40
0.6
  9
$DIMGAP
 40
0.75
  9
$DIMJUST
 70
     0
  9
$DIMSD1
 70
     0
  9
$DIMSD2
 70
     0
  9
$DIMTOLJ
 70
     1
  9
$DIMTZIN
 70
     8
  9
$DIMALTZ
 70
     0
  9
$DIMALTTZ
 70
     0
  9
$DIMUPT
 70
     0
  9
$DIMDEC
 70
     1
  9
$DIMTDEC
 70
     1
  9
$DIMALTU
 70
     8
  9
$DIMALTTD
 70
     4
  9
$DIMTXSTY
  7
BIGFONT
  9
$DIMAUNIT
 70
     0
  9
$DIMADEC
 70
     0
  9
$DIMALTRND
 40
0.0
  9
$DIMAZIN
 70
     0
  9
$DIMDSEP
 70
    46
  9
$DIMATFIT
 70
     3
  9
$DIMFRAC
 70
     0
  9
$DIMLDRBLK
  1

  9
$DIMLUNIT
 70
     2
  9
$DIMLWD
 70
    -2
  9
$DIMLWE
 70
    -2
  9
$DIMTMOVE
 70
     0
  9
$LUNITS
 70
     2
  9
$LUPREC
 70
     6
  9
$SKETCHINC
 40
1.0
  9
$FILLETRAD
 40
50.0
  9
$AUNITS
 70
     0
  9
$AUPREC
 70
     6
  9
$MENU
  1
acad
  9
$ELEVATION
 40
0.0
  9
$PELEVATION
 40
0.0
  9
$THICKNESS
 40
0.0
  9
$LIMCHECK
 70
     0
  9
$CHAMFERA
 40
10.0
  9
$CHAMFERB
 40
10.0
  9
$CHAMFERC
 40
0.0
  9
$CHAMFERD
 40
0.0
  9
$SKPOLY
 70
     0
  9
$TDCREATE
 40
2450625.600471644
  9
$TDUCREATE
 40
2450625.225471644
  9
$TDUPDATE
 40
2455255.464450162
  9
$TDUUPDATE
 40
2455255.089450162
  9
$TDINDWG
 40
0.4749395718
  9
$TDUSRTIMER
 40
0.4749395718
  9
$USRTIMER
 70
     1
  9
$ANGBASE
 50
0.0
  9
$ANGDIR
 70
     0
  9
$PDMODE
 70
     0
  9
$PDSIZE
 40
0.0
  9
$PLINEWID
 40
0.0
  9
$SPLFRAME
 70
     0
  9
$SPLINETYPE
 70
     6
  9
$SPLINESEGS
 70
     8
  9
$HANDSEED
  5
4DB4E
  9
$SURFTAB1
 70
     6
  9
$SURFTAB2
 70
     6
  9
$SURFTYPE
 70
     6
  9
$SURFU
 70
     6
  9
$SURFV
 70
     6
  9
$UCSBASE
  2

  9
$UCSNAME
  2

  9
$UCSORG
 10
0.0
 20
0.0
 30
0.0
  9
$UCSXDIR
 10
1.0
 20
0.0
 30
0.0
  9
$UCSYDIR
 10
0.0
 20
1.0
 30
0.0
  9
$UCSORTHOREF
  2

  9
$UCSORTHOVIEW
 70
     0
  9
$UCSORGTOP
 10
0.0
 20
0.0
 30
0.0
  9
$UCSORGBOTTOM
 10
0.0
 20
0.0
 30
0.0
  9
$UCSORGLEFT
 10
0.0
 20
0.0
 30
0.0
  9
$UCSORGRIGHT
 10
0.0
 20
0.0
 30
0.0
  9
$UCSORGFRONT
 10
0.0
 20
0.0
 30
0.0
  9
$UCSORGBACK
 10
0.0
 20
0.0
 30
0.0
  9
$PUCSBASE
  2

  9
$PUCSNAME
  2

  9
$PUCSORG
 10
0.0
 20
0.0
 30
0.0
  9
$PUCSXDIR
 10
1.0
 20
0.0
 30
0.0
  9
$PUCSYDIR
 10
0.0
 20
1.0
 30
0.0
  9
$PUCSORTHOREF
  2

  9
$PUCSORTHOVIEW
 70
     0
  9
$PUCSORGTOP
 10
0.0
 20
0.0
 30
0.0
  9
$PUCSORGBOTTOM
 10
0.0
 20
0.0
 30
0.0
  9
$PUCSORGLEFT
 10
0.0
 20
0.0
 30
0.0
  9
$PUCSORGRIGHT
 10
0.0
 20
0.0
 30
0.0
  9
$PUCSORGFRONT
 10
0.0
 20
0.0
 30
0.0
  9
$PUCSORGBACK
 10
0.0
 20
0.0
 30
0.0
  9
$USERI1
 70
     0
  9
$USERI2
 70
     0
  9
$USERI3
 70
     0
  9
$USERI4
 70
     0
  9
$USERI5
 70
     0
  9
$USERR1
 40
0.0
  9
$USERR2
 40
0.0
  9
$USERR3
 40
0.0
  9
$USERR4
 40
0.0
  9
$USERR5
 40
0.0
  9
$WORLDVIEW
 70
     1
  9
$SHADEDGE
 70
     3
  9
$SHADEDIF
 70
    70
  9
$TILEMODE
 70
     1
  9
$MAXACTVP
 70
    16
  9
$PINSBASE
 10
0.0
 20
0.0
 30
0.0
  9
$PLIMCHECK
 70
     0
  9
$PEXTMIN
 10
1.000000000000000E+20
 20
1.000000000000000E+20
 30
1.000000000000000E+20
  9
$PEXTMAX
 10
-1.000000000000000E+20
 20
-1.000000000000000E+20
 30
-1.000000000000000E+20
  9
$PLIMMIN
 10
0.0
 20
0.0
  9
$PLIMMAX
 10
420.0
 20
297.0
  9
$UNITMODE
 70
     0
  9
$VISRETAIN
 70
     0
  9
$PLINEGEN
 70
     0
  9
$PSLTSCALE
 70
     0
  9
$TREEDEPTH
 70
  3020
  9
$CMLSTYLE
  2
STANDARD
  9
$CMLJUST
 70
     0
  9
$CMLSCALE
 40
15.0
  9
$PROXYGRAPHICS
 70
     1
  9
$MEASUREMENT
 70
     1
  9
$CELWEIGHT
370
    -1
  9
$ENDCAPS
280
     0
  9
$JOINSTYLE
280
     0
  9
$LWDISPLAY
290
     0
  9
$INSUNITS
 70
     0
  9
$HYPERLINKBASE
  1

  9
$STYLESHEET
  1

  9
$XEDIT
290
     1
  9
$CEPSNTYPE
380
     0
  9
$PSTYLEMODE
290
     1
  9
$FINGERPRINTGUID
  2
{B4FD6DFF-5F7A-4891-8718-E037C978D82F}
  9
$VERSIONGUID
  2
{99EEF23C-2E11-4532-979E-39F99845385D}
  9
$EXTNAMES
290
     1
  9
$PSVPSCALE
 40
0.0
  9
$OLESTARTUP
290
     0
  0
ENDSEC
  0
SECTION
  2
CLASSES
  0
CLASS
  1
LWPOLYLINE
  2
AcDbPolyline
  3
AutoCAD 2000
 90
        0
280
     0
281
     1
  0
CLASS
  1
ACDBDICTIONARYWDFLT
  2
AcDbDictionaryWithDefault
  3
ObjectDBX Classes
 90
        0
280
     0
281
     0
  0
CLASS
  1
ACDBPLACEHOLDER
  2
AcDbPlaceHolder
  3
ObjectDBX Classes
 90
        0
280
     0
281
     0
  0
CLASS
  1
LAYOUT
  2
AcDbLayout
  3
ObjectDBX Classes
 90
        0
280
     0
281
     0
  0
CLASS
  1
DICTIONARYVAR
  2
AcDbDictionaryVar
  3
ObjectDBX Classes
 90
        0
280
     0
281
     0
  0
CLASS
  1
RTEXT
  2
RText
  3
RText|AutoCAD Express Tool|expresstools@autodesk.com
 90
        0
280
     0
281
     1
  0
ENDSEC
  0
SECTION
  2
TABLES
  0
TABLE
  2
VPORT
  5
4B4C3
330
0
100
AcDbSymbolTable
 70
     2
  0
VPORT
  5
4DB4B
330
4B4C3
100
AcDbSymbolTableRecord
100
AcDbViewportTableRecord
  2
*Active
 70
     0
 10
0.0
 20
0.0
 11
1.0
 21
1.0
 12
3149.783114380512
 22
2227.519059044936
 13
0.0
 23
0.0
 14
75.0
 24
75.0
 15
75.0
 25
75.0
 16
0.0
 26
0.0
 36
1.0
 17
0.0
 27
0.0
 37
0.0
 40
4493.917104924554
 41
1.733812949640288
 42
50.0
 43
0.0
 44
0.0
 50
0.0
 51
0.0
 71
     0
 72
   100
 73
     1
 74
     0
 75
     0
 76
     0
 77
     0
 78
     0
281
     0
 65
     1
110
0.0
120
0.0
130
0.0
111
1.0
121
0.0
131
0.0
112
0.0
122
1.0
132
0.0
 79
     0
146
0.0
  0
ENDTAB
  0
TABLE
  2
LTYPE
  5
4B4C0
330
0
100
AcDbSymbolTable
 70
     5
  0
LTYPE
  5
4B4CD
330
4B4C0
100
AcDbSymbolTableRecord
100
AcDbLinetypeTableRecord
  2
BYBLOCK
 70
     0
  3

 72
    65
 73
     0
 40
0.0
  0
LTYPE
  5
4B4CE
330
4B4C0
100
AcDbSymbolTableRecord
100
AcDbLinetypeTableRecord
  2
BYLAYER
 70
     0
  3

 72
    65
 73
     0
 40
0.0
  0
LTYPE
  5
4B4CF
330
4B4C0
100
AcDbSymbolTableRecord
100
AcDbLinetypeTableRecord
  2
CONTINUOUS
 70
     0
  3
Solid line
 72
    65
 73
     0
 40
0.0
  0
LTYPE
  5
4D40E
330
4B4C0
100
AcDbSymbolTableRecord
100
AcDbLinetypeTableRecord
  2
ACAD_ISO07W100
 70
     0
  3
ISO dot . . . . . . . . . . . . . . . . . . . .
 72
    65
 73
     2
 40
3.5
 49
0.5
 74
     0
 49
-3.0
 74
     0
  0
LTYPE
  5
4D40F
330
4B4C0
100
AcDbSymbolTableRecord
100
AcDbLinetypeTableRecord
  2
CENTER2
 70
     0
  3
Center (.5x) ___ _ ___ _ ___ _ ___ _ ___ _ ___
 72
    65
 73
     4
 40
28.575
 49
19.05
 74
     0
 49
-3.175
 74
     0
 49
3.175
 74
     0
 49
-3.175
 74
     0
  0
LTYPE
  5
4D410
330
4B4C0
100
AcDbSymbolTableRecord
100
AcDbLinetypeTableRecord
  2
HIDDEN2
 70
     0
  3
Hidden (.5x) _ _ _ _ _ _ _ _ _ _ _ _ _ _ _ _ _
 72
    65
 73
     2
 40
4.762499999999999
 49
3.175
 74
     0
 49
-1.5875
 74
     0
  0
LTYPE
  5
4D411
330
4B4C0
100
AcDbSymbolTableRecord
100
AcDbLinetypeTableRecord
  2
PHANTOM2
 70
     0
  3
Phantom (.5x) ___ _ _ ___ _ _ ___ _ _ ___ _ _
 72
    65
 73
     6
 40
31.75
 49
15.875
 74
     0
 49
-3.175
 74
     0
 49
3.175
 74
     0
 49
-3.175
 74
     0
 49
3.175
 74
     0
 49
-3.175
 74
     0
  0
ENDTAB
  0
TABLE
  2
LAYER
  5
4B4BD
330
0
100
AcDbSymbolTable
 70
    51
  0
LAYER
  5
4B4CA
330
4B4BD
100
AcDbSymbolTableRecord
100
AcDbLayerTableRecord
  2
0
 70
     0
 62
     7
  6
CONTINUOUS
370
    -3
390
4D3F8
  0
LAYER
  5
4B56B
330
4B4BD
100
AcDbSymbolTableRecord
100
AcDbLayerTableRecord
  2
DEFPOINTS
 70
     0
 62
     7
  6
CONTINUOUS
290
     0
370
    -3
390
4D3F8
  0
LAYER
  5
4D412
330
4B4BD
100
AcDbSymbolTableRecord
100
AcDbLayerTableRecord
  2
P001
 70
     0
 62
   131
  6
CONTINUOUS
370
    -3
390
4D3F8
  0
LAYER
  5
4D413
330
4B4BD
100
AcDbSymbolTableRecord
100
AcDbLayerTableRecord
  2
P_5DRAWFRAME
 70
     0
 62
   104
  6
CONTINUOUS
370
    -3
390
4D3F8
  0
LAYER
  5
4D414
330
4B4BD
100
AcDbSymbolTableRecord
100
AcDbLayerTableRecord
  2
P002
 70
     0
 62
   181
  6
CONTINUOUS
370
    -3
390
4D3F8
  0
LAYER
  5
4D415
330
4B4BD
100
AcDbSymbolTableRecord
100
AcDbLayerTableRecord
  2
P003
 70
     0
 62
   231
  6
CONTINUOUS
370
    -3
390
4D3F8
  0
LAYER
  5
4D416
330
4B4BD
100
AcDbSymbolTableRecord
100
AcDbLayerTableRecord
  2
P004
 70
     0
 62
    41
  6
CONTINUOUS
370
    -3
390
4D3F8
  0
LAYER
  5
4D417
330
4B4BD
100
AcDbSymbolTableRecord
100
AcDbLayerTableRecord
  2
P005
 70
     0
 62
    91
  6
CONTINUOUS
370
    -3
390
4D3F8
  0
LAYER
  5
4D418
330
4B4BD
100
AcDbSymbolTableRecord
100
AcDbLayerTableRecord
  2
P006
 70
     0
 62
   141
  6
CONTINUOUS
370
    -3
390
4D3F8
  0
LAYER
  5
4D419
330
4B4BD
100
AcDbSymbolTableRecord
100
AcDbLayerTableRecord
  2
P007
 70
     0
 62
   191
  6
CONTINUOUS
370
    -3
390
4D3F8
  0
LAYER
  5
4D41A
330
4B4BD
100
AcDbSymbolTableRecord
100
AcDbLayerTableRecord
  2
P008
 70
     0
 62
   241
  6
CONTINUOUS
370
    -3
390
4D3F8
  0
LAYER
  5
4D41B
330
4B4BD
100
AcDbSymbolTableRecord
100
AcDbLayerTableRecord
  2
P009
 70
     0
 62
    51
  6
CONTINUOUS
370
    -3
390
4D3F8
  0
LAYER
  5
4D41C
330
4B4BD
100
AcDbSymbolTableRecord
100
AcDbLayerTableRecord
  2
P010
 70
     0
 62
   101
  6
CONTINUOUS
370
    -3
390
4D3F8
  0
LAYER
  5
4D41D
330
4B4BD
100
AcDbSymbolTableRecord
100
AcDbLayerTableRecord
  2
P011
 70
     0
 62
   151
  6
CONTINUOUS
370
    -3
390
4D3F8
  0
LAYER
  5
4D41E
330
4B4BD
100
AcDbSymbolTableRecord
100
AcDbLayerTableRecord
  2
P_1CENTER
 70
     0
 62
     2
  6
CONTINUOUS
370
    -3
390
4D3F8
  0
LAYER
  5
4D41F
330
4B4BD
100
AcDbSymbolTableRecord
100
AcDbLayerTableRecord
  2
P012
 70
     0
 62
   201
  6
CONTINUOUS
370
    -3
390
4D3F8
  0
LAYER
  5
4D420
330
4B4BD
100
AcDbSymbolTableRecord
100
AcDbLayerTableRecord
  2
P013
 70
     0
 62
    11
  6
CONTINUOUS
370
    -3
390
4D3F8
  0
LAYER
  5
4D421
330
4B4BD
100
AcDbSymbolTableRecord
100
AcDbLayerTableRecord
  2
P014
 70
     0
 62
    61
  6
CONTINUOUS
370
    -3
390
4D3F8
  0
LAYER
  5
4D422
330
4B4BD
100
AcDbSymbolTableRecord
100
AcDbLayerTableRecord
  2
P015
 70
     0
 62
   111
  6
CONTINUOUS
370
    -3
390
4D3F8
  0
LAYER
  5
4D423
330
4B4BD
100
AcDbSymbolTableRecord
100
AcDbLayerTableRecord
  2
P016
 70
     0
 62
   161
  6
CONTINUOUS
370
    -3
390
4D3F8
  0
LAYER
  5
4D424
330
4B4BD
100
AcDbSymbolTableRecord
100
AcDbLayerTableRecord
  2
P017
 70
     0
 62
   211
  6
CONTINUOUS
370
    -3
390
4D3F8
  0
LAYER
  5
4D425
330
4B4BD
100
AcDbSymbolTableRecord
100
AcDbLayerTableRecord
  2
P018
 70
     0
 62
    21
  6
CONTINUOUS
370
    -3
390
4D3F8
  0
LAYER
  5
4D426
330
4B4BD
100
AcDbSymbolTableRecord
100
AcDbLayerTableRecord
  2
P019
 70
     0
 62
    71
  6
CONTINUOUS
370
    -3
390
4D3F8
  0
LAYER
  5
4D427
330
4B4BD
100
AcDbSymbolTableRecord
100
AcDbLayerTableRecord
  2
P020
 70
     0
 62
   121
  6
CONTINUOUS
370
    -3
390
4D3F8
  0
LAYER
  5
4D428
330
4B4BD
100
AcDbSymbolTableRecord
100
AcDbLayerTableRecord
  2
P_2DIM
 70
     0
 62
     6
  6
CONTINUOUS
370
    -3
390
4D3F8
  0
LAYER
  5
4D429
330
4B4BD
100
AcDbSymbolTableRecord
100
AcDbLayerTableRecord
  2
P_3TEXT
 70
     0
 62
    60
  6
CONTINUOUS
370
    -3
390
4D3F8
  0
LAYER
  5
4D42A
330
4B4BD
100
AcDbSymbolTableRecord
100
AcDbLayerTableRecord
  2
P_4ARCHI
 70
     0
 62
     1
  6
CONTINUOUS
370
    -3
390
4D3F8
  0
LAYER
  5
4D42B
330
4B4BD
100
AcDbSymbolTableRecord
100
AcDbLayerTableRecord
  2
P_6DMY
 70
     0
 62
   253
  6
CONTINUOUS
370
    -3
390
4D3F8
  0
LAYER
  5
4D42C
330
4B4BD
100
AcDbSymbolTableRecord
100
AcDbLayerTableRecord
  2
P901
 70
     0
 62
   135
  6
CONTINUOUS
370
    -3
390
4D3F8
  0
LAYER
  5
4D42D
330
4B4BD
100
AcDbSymbolTableRecord
100
AcDbLayerTableRecord
  2
P902
 70
     0
 62
   185
  6
CONTINUOUS
370
    -3
390
4D3F8
  0
LAYER
  5
4D42E
330
4B4BD
100
AcDbSymbolTableRecord
100
AcDbLayerTableRecord
  2
P903
 70
     0
 62
   225
  6
CONTINUOUS
370
    -3
390
4D3F8
  0
LAYER
  5
4D42F
330
4B4BD
100
AcDbSymbolTableRecord
100
AcDbLayerTableRecord
  2
P913
 70
     0
 62
    15
  6
CONTINUOUS
370
    -3
390
4D3F8
  0
LAYER
  5
4D430
330
4B4BD
100
AcDbSymbolTableRecord
100
AcDbLayerTableRecord
  2
P918
 70
     0
 62
    25
  6
CONTINUOUS
370
    -3
390
4D3F8
  0
LAYER
  5
4D431
330
4B4BD
100
AcDbSymbolTableRecord
100
AcDbLayerTableRecord
  2
P904
 70
     0
 62
    45
  6
CONTINUOUS
370
    -3
390
4D3F8
  0
LAYER
  5
4D432
330
4B4BD
100
AcDbSymbolTableRecord
100
AcDbLayerTableRecord
  2
P906
 70
     0
 62
   145
  6
CONTINUOUS
370
    -3
390
4D3F8
  0
LAYER
  5
4D433
330
4B4BD
100
AcDbSymbolTableRecord
100
AcDbLayerTableRecord
  2
P914
 70
     0
 62
    65
  6
CONTINUOUS
370
    -3
390
4D3F8
  0
LAYER
  5
4D434
330
4B4BD
100
AcDbSymbolTableRecord
100
AcDbLayerTableRecord
  2
P919
 70
     0
 62
    75
  6
CONTINUOUS
370
    -3
390
4D3F8
  0
LAYER
  5
4D435
330
4B4BD
100
AcDbSymbolTableRecord
100
AcDbLayerTableRecord
  2
P905
 70
     0
 62
    95
  6
CONTINUOUS
370
    -3
390
4D3F8
  0
LAYER
  5
4D436
330
4B4BD
100
AcDbSymbolTableRecord
100
AcDbLayerTableRecord
  2
P910
 70
     0
 62
   105
  6
CONTINUOUS
370
    -3
390
4D3F8
  0
LAYER
  5
4D437
330
4B4BD
100
AcDbSymbolTableRecord
100
AcDbLayerTableRecord
  2
P915
 70
     0
 62
   115
  6
CONTINUOUS
370
    -3
390
4D3F8
  0
LAYER
  5
4D438
330
4B4BD
100
AcDbSymbolTableRecord
100
AcDbLayerTableRecord
  2
P920
 70
     0
 62
   125
  6
CONTINUOUS
370
    -3
390
4D3F8
  0
LAYER
  5
4D439
330
4B4BD
100
AcDbSymbolTableRecord
100
AcDbLayerTableRecord
  2
P909
 70
     0
 62
    55
  6
CONTINUOUS
370
    -3
390
4D3F8
  0
LAYER
  5
4D43A
330
4B4BD
100
AcDbSymbolTableRecord
100
AcDbLayerTableRecord
  2
P911
 70
     0
 62
   155
  6
CONTINUOUS
370
    -3
390
4D3F8
  0
LAYER
  5
4D43B
330
4B4BD
100
AcDbSymbolTableRecord
100
AcDbLayerTableRecord
  2
P916
 70
     0
 62
   165
  6
CONTINUOUS
370
    -3
390
4D3F8
  0
LAYER
  5
4D43C
330
4B4BD
100
AcDbSymbolTableRecord
100
AcDbLayerTableRecord
  2
P907
 70
     0
 62
   195
  6
CONTINUOUS
370
    -3
390
4D3F8
  0
LAYER
  5
4D43D
330
4B4BD
100
AcDbSymbolTableRecord
100
AcDbLayerTableRecord
  2
P912
 70
     0
 62
   205
  6
CONTINUOUS
370
    -3
390
4D3F8
  0
LAYER
  5
4D43E
330
4B4BD
100
AcDbSymbolTableRecord
100
AcDbLayerTableRecord
  2
P917
 70
     0
 62
   215
  6
CONTINUOUS
370
    -3
390
4D3F8
  0
LAYER
  5
4D43F
330
4B4BD
100
AcDbSymbolTableRecord
100
AcDbLayerTableRecord
  2
P908
 70
     0
 62
   245
  6
CONTINUOUS
370
    -3
390
4D3F8
  0
LAYER
  5
4D440
330
4B4BD
100
AcDbSymbolTableRecord
100
AcDbLayerTableRecord
  2
P_7THICK
 70
     0
 62
     7
  6
CONTINUOUS
370
    -3
390
4D3F8
  0
ENDTAB
  0
TABLE
  2
STYLE
  5
4B4BE
330
0
100
AcDbSymbolTable
 70
     7
  0
STYLE
  5
4B4CB
330
4B4BE
100
AcDbSymbolTableRecord
100
AcDbTextStyleTableRecord
  2
STANDARD
 70
     0
 40
0.0
 41
1.0
 50
0.0
 71
     0
 42
45.0
  3
txt
  4
bigfont
  0
STYLE
  5
4B4D9
330
4B4BE
100
AcDbSymbolTableRecord
100
AcDbTextStyleTableRecord
  2
EXTFONT
 70
     0
 40
37.5
 41
1.0
 50
0.0
 71
     0
 42
3.5
  3
txt.shx
  4
extfont
  0
STYLE
  5
4B4DA
330
4B4BE
100
AcDbSymbolTableRecord
100
AcDbTextStyleTableRecord
  2
BIGFONT
 70
     0
 40
0.0
 41
1.0
 50
0.0
 71
     0
 42
45.0
  3
simplex.shx
  4
bigfont.shx
  0
STYLE
  5
4D441
330
4B4BE
100
AcDbSymbolTableRecord
100
AcDbTextStyleTableRecord
  2

 70
     1
 40
0.0
 41
1.0
 50
0.0
 71
     0
 42
2.5
  3
ltypeshp.shx
  4

  0
STYLE
  5
4D442
330
4B4BE
100
AcDbSymbolTableRecord
100
AcDbTextStyleTableRecord
  2
GOTHIC
 70
     0
 40
0.0
 41
1.0
 50
0.0
 71
     0
 42
3.0
  3
MS PGothic.ttf
  4

1001
ACAD
1000
MS PGothic
1071
    32818
  0
STYLE
  5
4D443
330
4B4BE
100
AcDbSymbolTableRecord
100
AcDbTextStyleTableRecord
  2
MINCHO
 70
     0
 40
0.0
 41
1.0
 50
0.0
 71
     0
 42
3.0
  3
MS PMincho.ttf
  4

1001
ACAD
1000
MS PMincho
1071
    32786
  0
STYLE
  5
4D444
330
4B4BE
100
AcDbSymbolTableRecord
100
AcDbTextStyleTableRecord
  2
RGOTHIC
 70
     0
 40
0.0
 41
1.0
 50
0.0
 71
     0
 42
3.0
  3
HGRSMP.TTF
  4

1001
ACAD
1000
HG丸ｺﾞｼｯｸM-PRO
1071
    32818
  0
ENDTAB
  0
TABLE
  2
VIEW
  5
4B4C1
330
0
100
AcDbSymbolTable
 70
     0
  0
ENDTAB
  0
TABLE
  2
UCS
  5
4B4C2
330
0
100
AcDbSymbolTable
 70
     0
  0
ENDTAB
  0
TABLE
  2
APPID
  5
4B4C4
330
0
100
AcDbSymbolTable
 70
     1
  0
APPID
  5
4B4CC
330
4B4C4
100
AcDbSymbolTableRecord
100
AcDbRegAppTableRecord
  2
ACAD
 70
     0
  0
ENDTAB
  0
TABLE
  2
DIMSTYLE
  5
4B4C5
330
0
100
AcDbSymbolTable
 70
    39
100
AcDbDimStyleTable
  0
DIMSTYLE
105
4B4E1
330
4B4C5
100
AcDbSymbolTableRecord
100
AcDbDimStyleTableRecord
  2
P-DWG
 70
     0
 40
15.0
 41
2.0
 42
3.0
 43
0.0
 44
1.0
 73
     0
 74
     0
 77
     1
 78
     8
140
2.5
141
2.5
143
0.0394
145
0.7000000000000001
146
0.6666666666666666
147
0.3
172
     1
173
     1
176
     2
177
     2
178
     1
271
     2
272
     2
279
     2
340
4B4CB
341
4BABA
343
4BABA
344
4BABA
  0
DIMSTYLE
105
4BA8E
330
4B4C5
100
AcDbSymbolTableRecord
100
AcDbDimStyleTableRecord
  2
P-DWG$7
 70
     0
 40
15.0
 41
2.0
 42
3.0
 43
0.0
 44
1.0
 73
     0
 74
     0
 77
     1
 78
     8
140
3.0
141
2.5
143
0.0394
145
0.7000000000000001
146
0.6666666666666666
147
0.3
172
     1
173
     1
176
     2
177
     2
178
     1
271
     2
272
     2
279
     2
340
4B4CB
341
4BABA
343
4BABA
344
4BABA
  0
DIMSTYLE
105
4BA8F
330
4B4C5
100
AcDbSymbolTableRecord
100
AcDbDimStyleTableRecord
  2
VISION
 70
     0
 40
15.0
 41
2.0
 42
0.0
 43
0.0
 44
1.0
 73
     0
 74
     0
 77
     1
 78
     8
140
3.0
141
2.5
143
0.0394
145
0.7000000000000001
146
0.6666666666666666
147
0.3
172
     1
173
     1
176
     2
177
     2
178
     1
271
     0
272
     2
279
     2
340
4B4CB
341
4BABA
343
4BABA
344
4BABA
  0
DIMSTYLE
105
4BA90
330
4B4C5
100
AcDbSymbolTableRecord
100
AcDbDimStyleTableRecord
  2
VISION$7
 70
     0
 40
15.0
 41
2.0
 42
0.0
 43
0.0
 44
1.0
 73
     0
 74
     0
 77
     1
 78
     8
140
3.5
141
2.5
143
0.0394
145
0.7000000000000001
146
0.6666666666666666
147
0.5
172
     1
173
     1
176
     2
177
     2
178
     1
271
     0
272
     2
279
     2
340
4B4CB
341
4BABA
343
4BABA
344
4BABA
  0
DIMSTYLE
105
4D445
330
4B4C5
100
AcDbSymbolTableRecord
100
AcDbDimStyleTableRecord
  2
STANDARD
 70
     0
 41
2.0
 42
3.0
 43
8.0
 44
1.5
 73
     0
 74
     0
 77
     1
 78
     8
140
3.0
141
0.0
146
0.6
147
0.75
171
     4
173
     1
178
   230
271
     1
272
     1
273
     8
274
     4
284
     8
340
4B4CB
  0
DIMSTYLE
105
4D446
330
4B4C5
100
AcDbSymbolTableRecord
100
AcDbDimStyleTableRecord
  2
DIMBIGFONT
 70
     0
 41
2.0
 42
3.0
 43
8.0
 44
1.5
 73
     0
 74
     0
 77
     1
 78
     8
140
3.0
141
0.0
145
1.0
146
0.6
147
0.75
171
     4
173
     1
178
   230
271
     1
272
     1
273
     8
274
     4
284
     8
340
4B4DA
  0
DIMSTYLE
105
4D447
330
4B4C5
100
AcDbSymbolTableRecord
100
AcDbDimStyleTableRecord
  2
DIMBIGFONT$2
 70
     0
 41
2.0
 42
3.0
 43
8.0
 44
1.5
 73
     0
 74
     0
 77
     1
 78
     8
140
3.0
141
0.0
145
1.0
146
0.6
147
0.75
171
     4
173
     1
178
   230
179
     1
271
     1
272
     1
273
     8
274
     4
284
     8
288
     1
340
4B4DA
  0
DIMSTYLE
105
4D448
330
4B4C5
100
AcDbSymbolTableRecord
100
AcDbDimStyleTableRecord
  2
DIMBIGFONT$3
 70
     0
 41
2.0
 42
3.0
 43
8.0
 44
1.5
 77
     1
 78
     8
140
3.0
141
0.0
145
1.0
146
0.6
147
0.75
171
     4
173
     1
178
   230
271
     1
272
     1
273
     8
274
     4
284
     8
288
     1
289
     0
340
4B4DA
  0
DIMSTYLE
105
4D449
330
4B4C5
100
AcDbSymbolTableRecord
100
AcDbDimStyleTableRecord
  2
DIMBIGFONT$7
 70
     0
 41
2.0
 42
3.0
 43
8.0
 44
1.5
 73
     0
 74
     0
 77
     1
 78
     8
140
3.0
141
0.0
145
1.0
146
0.6
147
0.75
171
     4
173
     1
178
   230
271
     1
272
     1
273
     8
274
     4
284
     8
340
4B4DA
  0
DIMSTYLE
105
4D44A
102
{ACAD_REACTORS
330
4DA74
330
4DA8E
330
4DA81
330
4DA9B
102
}
330
4B4C5
100
AcDbSymbolTableRecord
100
AcDbDimStyleTableRecord
  2
DIMBIGFONT$0
 70
     0
 41
1.2
 42
3.0
 43
8.0
 44
1.5
 73
     0
 74
     0
 77
     1
 78
     8
140
3.0
141
0.0
145
1.0
146
0.6
147
0.75
171
     4
173
     1
178
   230
271
     1
272
     1
273
     8
274
     4
279
     2
284
     8
340
4B4DA
341
4D409
343
4D409
344
4D409
  0
DIMSTYLE
105
4D44B
330
4B4C5
100
AcDbSymbolTableRecord
100
AcDbDimStyleTableRecord
  2
DIMGOTHIC
 70
     0
 41
2.0
 42
3.0
 43
8.0
 44
1.5
 73
     0
 74
     0
 77
     1
 78
     8
140
3.0
141
0.0
145
1.0
146
0.6
147
0.75
171
     4
173
     1
178
   230
271
     1
272
     1
273
     8
274
     4
284
     8
340
4D442
  0
DIMSTYLE
105
4D44C
330
4B4C5
100
AcDbSymbolTableRecord
100
AcDbDimStyleTableRecord
  2
DIMGOTHIC$2
 70
     0
 41
2.0
 42
3.0
 43
8.0
 44
1.5
 73
     0
 74
     0
 77
     1
 78
     8
140
3.0
141
0.0
146
0.6
147
0.75
171
     4
173
     1
178
   230
179
     1
271
     1
272
     1
273
     8
274
     4
284
     8
288
     1
340
4D442
  0
DIMSTYLE
105
4D44D
330
4B4C5
100
AcDbSymbolTableRecord
100
AcDbDimStyleTableRecord
  2
DIMGOTHIC$3
 70
     0
 41
2.0
 42
3.0
 43
8.0
 44
1.5
 77
     1
 78
     8
140
3.0
141
0.0
146
0.6
147
0.75
171
     4
173
     1
178
   230
271
     1
272
     1
273
     8
274
     4
284
     8
288
     1
289
     0
340
4D442
  0
DIMSTYLE
105
4D44E
330
4B4C5
100
AcDbSymbolTableRecord
100
AcDbDimStyleTableRecord
  2
DIMGOTHIC$7
 70
     0
 41
2.0
 42
3.0
 43
8.0
 44
1.5
 73
     0
 74
     0
 77
     1
 78
     8
140
3.0
141
0.0
146
0.6
147
0.75
171
     4
173
     1
178
   230
271
     1
272
     1
273
     8
274
     4
284
     8
340
4D442
  0
DIMSTYLE
105
4D44F
330
4B4C5
100
AcDbSymbolTableRecord
100
AcDbDimStyleTableRecord
  2
DIMGOTHIC$0
 70
     0
 41
2.0
 42
3.0
 43
8.0
 44
1.5
 73
     0
 74
     0
 77
     1
 78
     8
140
3.0
141
0.0
146
0.6
147
0.75
171
     4
173
     1
178
   230
271
     1
272
     1
273
     8
274
     4
279
     2
284
     8
340
4D442
  0
DIMSTYLE
105
4D450
330
4B4C5
100
AcDbSymbolTableRecord
100
AcDbDimStyleTableRecord
  2
DIMMINCHO
 70
     0
 41
2.0
 42
3.0
 43
8.0
 44
1.5
 73
     0
 74
     0
 77
     1
 78
     8
140
3.0
141
0.0
145
1.0
146
0.6
147
0.75
171
     4
173
     1
178
   230
271
     1
272
     1
273
     8
274
     4
284
     8
340
4D443
  0
DIMSTYLE
105
4D451
330
4B4C5
100
AcDbSymbolTableRecord
100
AcDbDimStyleTableRecord
  2
DIMMINCHO$2
 70
     0
 41
2.0
 42
3.0
 43
8.0
 44
1.5
 73
     0
 74
     0
 77
     1
 78
     8
140
3.0
141
0.0
146
0.6
147
0.75
171
     4
173
     1
178
   230
179
     1
271
     1
272
     1
273
     8
274
     4
284
     8
288
     1
340
4D443
  0
DIMSTYLE
105
4D452
330
4B4C5
100
AcDbSymbolTableRecord
100
AcDbDimStyleTableRecord
  2
DIMMINCHO$3
 70
     0
 41
2.0
 42
3.0
 43
8.0
 44
1.5
 77
     1
 78
     8
140
3.0
141
0.0
146
0.6
147
0.75
171
     4
173
     1
178
   230
271
     1
272
     1
273
     8
274
     4
284
     8
288
     1
289
     0
340
4D443
  0
DIMSTYLE
105
4D453
330
4B4C5
100
AcDbSymbolTableRecord
100
AcDbDimStyleTableRecord
  2
DIMMINCHO$7
 70
     0
 41
2.0
 42
3.0
 43
8.0
 44
1.5
 73
     0
 74
     0
 77
     1
 78
     8
140
3.0
141
0.0
146
0.6
147
0.75
171
     4
173
     1
178
   230
271
     1
272
     1
273
     8
274
     4
284
     8
340
4D443
  0
DIMSTYLE
105
4D454
330
4B4C5
100
AcDbSymbolTableRecord
100
AcDbDimStyleTableRecord
  2
DIMMINCHO$0
 70
     0
 41
2.0
 42
3.0
 43
8.0
 44
1.5
 73
     0
 74
     0
 77
     1
 78
     8
140
3.0
141
0.0
146
0.6
147
0.75
171
     4
173
     1
178
   230
271
     1
272
     1
273
     8
274
     4
279
     2
284
     8
340
4D443
  0
DIMSTYLE
105
4D455
330
4B4C5
100
AcDbSymbolTableRecord
100
AcDbDimStyleTableRecord
  2
STANDARD$2
 70
     0
 41
2.0
 42
3.0
 43
8.0
 44
1.5
 73
     0
 74
     0
 77
     1
 78
     8
140
3.0
141
0.0
146
0.6
147
0.75
171
     4
173
     1
178
   230
179
     1
271
     1
272
     1
273
     8
274
     4
284
     8
288
     1
340
4B4CB
  0
DIMSTYLE
105
4D456
330
4B4C5
100
AcDbSymbolTableRecord
100
AcDbDimStyleTableRecord
  2
STANDARD$3
 70
     0
 41
2.0
 42
3.0
 43
8.0
 44
1.5
 77
     1
 78
     8
140
3.0
141
0.0
146
0.6
147
0.75
171
     4
173
     1
178
   230
271
     1
272
     1
273
     8
274
     4
284
     8
288
     1
289
     0
340
4B4CB
  0
DIMSTYLE
105
4D457
330
4B4C5
100
AcDbSymbolTableRecord
100
AcDbDimStyleTableRecord
  2
STANDARD$7
 70
     0
 41
2.0
 42
3.0
 43
8.0
 44
1.5
 73
     0
 74
     0
 77
     1
 78
     8
140
3.0
141
0.0
146
0.6
147
0.75
171
     4
173
     1
178
   230
271
     1
272
     1
273
     8
274
     4
284
     8
340
4B4CB
  0
DIMSTYLE
105
4D458
330
4B4C5
100
AcDbSymbolTableRecord
100
AcDbDimStyleTableRecord
  2
STANDARD$0
 70
     0
 41
2.0
 42
3.0
 43
8.0
 44
1.5
 73
     0
 74
     0
 77
     1
 78
     8
140
3.0
141
0.0
146
0.6
147
0.75
171
     4
173
     1
178
   230
271
     1
272
     1
273
     8
274
     4
279
     2
284
     8
340
4B4CB
  0
DIMSTYLE
105
4D459
330
4B4C5
100
AcDbSymbolTableRecord
100
AcDbDimStyleTableRecord
  2
STANDARD$4
 70
     0
 41
2.0
 42
3.0
 43
8.0
 44
1.5
 73
     0
 74
     0
 77
     1
 78
     8
140
3.0
141
0.0
146
0.6
147
0.75
171
     4
173
     1
178
   230
271
     1
272
     1
273
     8
274
     4
284
     8
340
4B4CB
  0
DIMSTYLE
105
4D45A
330
4B4C5
100
AcDbSymbolTableRecord
100
AcDbDimStyleTableRecord
  2
STANDARD$6
 70
     0
 41
2.0
 42
3.0
 43
8.0
 44
1.5
 73
     0
 74
     0
 77
     1
 78
     8
140
3.0
141
0.0
146
0.6
147
0.75
171
     4
173
     1
178
   230
271
     1
272
     1
273
     8
274
     4
284
     8
340
4B4CB
  0
DIMSTYLE
105
4D45B
330
4B4C5
100
AcDbSymbolTableRecord
100
AcDbDimStyleTableRecord
  2
DIMBIGFONT$4
 70
     0
 41
2.0
 42
3.0
 43
8.0
 44
1.5
 73
     0
 74
     0
 77
     1
 78
     8
140
3.0
141
0.0
145
1.0
146
0.6
147
0.75
171
     4
173
     1
178
   230
271
     1
272
     1
273
     8
274
     4
284
     8
340
4B4DA
  0
DIMSTYLE
105
4D45C
330
4B4C5
100
AcDbSymbolTableRecord
100
AcDbDimStyleTableRecord
  2
DIMBIGFONT$6
 70
     0
 41
2.0
 42
3.0
 43
8.0
 44
1.5
 73
     0
 74
     0
 77
     1
 78
     8
140
3.0
141
0.0
145
1.0
146
0.6
147
0.75
171
     4
173
     1
178
   230
271
     1
272
     1
273
     8
274
     4
284
     8
340
4B4DA
  0
DIMSTYLE
105
4D45D
330
4B4C5
100
AcDbSymbolTableRecord
100
AcDbDimStyleTableRecord
  2
DIMGOTHIC$4
 70
     0
 41
2.0
 42
3.0
 43
8.0
 44
1.5
 73
     0
 74
     0
 77
     1
 78
     8
140
3.0
141
0.0
146
0.6
147
0.75
171
     4
173
     1
178
   230
271
     1
272
     1
273
     8
274
     4
284
     8
340
4D442
  0
DIMSTYLE
105
4D45E
330
4B4C5
100
AcDbSymbolTableRecord
100
AcDbDimStyleTableRecord
  2
DIMGOTHIC$6
 70
     0
 41
2.0
 42
3.0
 43
8.0
 44
1.5
 73
     0
 74
     0
 77
     1
 78
     8
140
3.0
141
0.0
146
0.6
147
0.75
171
     4
173
     1
178
   230
271
     1
272
     1
273
     8
274
     4
284
     8
340
4D442
  0
DIMSTYLE
105
4D45F
330
4B4C5
100
AcDbSymbolTableRecord
100
AcDbDimStyleTableRecord
  2
DIMMINCHO$4
 70
     0
 41
2.0
 42
3.0
 43
8.0
 44
1.5
 73
     0
 74
     0
 77
     1
 78
     8
140
3.0
141
0.0
146
0.6
147
0.75
171
     4
173
     1
178
   230
271
     1
272
     1
273
     8
274
     4
284
     8
340
4D443
  0
DIMSTYLE
105
4D460
330
4B4C5
100
AcDbSymbolTableRecord
100
AcDbDimStyleTableRecord
  2
DIMMINCHO$6
 70
     0
 41
2.0
 42
3.0
 43
8.0
 44
1.5
 73
     0
 74
     0
 77
     1
 78
     8
140
3.0
141
0.0
146
0.6
147
0.75
171
     4
173
     1
178
   230
271
     1
272
     1
273
     8
274
     4
284
     8
340
4D443
  0
DIMSTYLE
105
4D461
330
4B4C5
100
AcDbSymbolTableRecord
100
AcDbDimStyleTableRecord
  2
DIMRGOTHIC
 70
     0
 41
2.0
 42
3.0
 43
8.0
 44
1.5
 73
     0
 74
     0
 77
     1
 78
     8
140
3.0
141
0.0
145
1.0
146
0.6
147
0.75
171
     4
173
     1
178
   230
271
     1
272
     1
273
     8
274
     4
284
     8
340
4D444
  0
DIMSTYLE
105
4D462
330
4B4C5
100
AcDbSymbolTableRecord
100
AcDbDimStyleTableRecord
  2
DIMRGOTHIC$4
 70
     0
 41
2.0
 42
3.0
 43
8.0
 44
1.5
 73
     0
 74
     0
 77
     1
 78
     8
140
3.0
141
0.0
146
0.6
147
0.75
171
     4
173
     1
178
   230
271
     1
272
     1
273
     8
274
     4
284
     8
340
4D444
  0
DIMSTYLE
105
4D463
330
4B4C5
100
AcDbSymbolTableRecord
100
AcDbDimStyleTableRecord
  2
DIMRGOTHIC$6
 70
     0
 41
2.0
 42
3.0
 43
8.0
 44
1.5
 73
     0
 74
     0
 77
     1
 78
     8
140
3.0
141
0.0
146
0.6
147
0.75
171
     4
173
     1
178
   230
271
     1
272
     1
273
     8
274
     4
284
     8
340
4D444
  0
DIMSTYLE
105
4D464
330
4B4C5
100
AcDbSymbolTableRecord
100
AcDbDimStyleTableRecord
  2
DIMRGOTHIC$2
 70
     0
 41
2.0
 42
3.0
 43
8.0
 44
1.5
 73
     0
 74
     0
 77
     1
 78
     8
140
3.0
141
0.0
146
0.6
147
0.75
171
     4
173
     1
178
   230
179
     1
271
     1
272
     1
273
     8
274
     4
284
     8
288
     1
340
4D444
  0
DIMSTYLE
105
4D465
330
4B4C5
100
AcDbSymbolTableRecord
100
AcDbDimStyleTableRecord
  2
DIMRGOTHIC$3
 70
     0
 41
2.0
 42
3.0
 43
8.0
 44
1.5
 77
     1
 78
     8
140
3.0
141
0.0
146
0.6
147
0.75
171
     4
173
     1
178
   230
271
     1
272
     1
273
     8
274
     4
284
     8
288
     1
289
     0
340
4D444
  0
DIMSTYLE
105
4D466
330
4B4C5
100
AcDbSymbolTableRecord
100
AcDbDimStyleTableRecord
  2
DIMRGOTHIC$7
 70
     0
 41
2.0
 42
3.0
 43
8.0
 44
1.5
 73
     0
 74
     0
 77
     1
 78
     8
140
3.0
141
0.0
146
0.6
147
0.75
171
     4
173
     1
178
   230
271
     1
272
     1
273
     8
274
     4
284
     8
340
4D444
  0
DIMSTYLE
105
4D467
330
4B4C5
100
AcDbSymbolTableRecord
100
AcDbDimStyleTableRecord
  2
DIMRGOTHIC$0
 70
     0
 41
2.0
 42
3.0
 43
8.0
 44
1.5
 73
     0
 74
     0
 77
     1
 78
     8
140
3.0
141
0.0
146
0.6
147
0.75
171
     4
173
     1
178
   230
271
     1
272
     1
273
     8
274
     4
279
     2
284
     8
340
4D444
  0
ENDTAB
  0
TABLE
  2
BLOCK_RECORD
  5
4B4BC
330
0
100
AcDbSymbolTable
 70
    11
  0
BLOCK_RECORD
  5
4B4D3
330
4B4BC
100
AcDbSymbolTableRecord
100
AcDbBlockTableRecord
  2
*MODEL_SPACE
340
4D3FB
  0
BLOCK_RECORD
  5
4B4D0
330
4B4BC
100
AcDbSymbolTableRecord
100
AcDbBlockTableRecord
  2
*PAPER_SPACE
340
4D3FC
  0
BLOCK_RECORD
  5
4BABA
330
4B4BC
100
AcDbSymbolTableRecord
100
AcDbBlockTableRecord
  2
_OPEN
340
0
  0
BLOCK_RECORD
  5
4D409
330
4B4BC
100
AcDbSymbolTableRecord
100
AcDbBlockTableRecord
  2
_DOT
340
0
  0
BLOCK_RECORD
  5
4D50F
330
4B4BC
100
AcDbSymbolTableRecord
100
AcDbBlockTableRecord
  2
DFP3
340
0
102
{BLKREFS
331
4DA48
102
}
  0
BLOCK_RECORD
  5
4DA75
330
4B4BC
100
AcDbSymbolTableRecord
100
AcDbBlockTableRecord
  2
*D7
340
0
  0
BLOCK_RECORD
  5
4DA82
330
4B4BC
100
AcDbSymbolTableRecord
100
AcDbBlockTableRecord
  2
*D8
340
0
  0
BLOCK_RECORD
  5
4DA8F
330
4B4BC
100
AcDbSymbolTableRecord
100
AcDbBlockTableRecord
  2
*D9
340
0
  0
BLOCK_RECORD
  5
4DA9C
330
4B4BC
100
AcDbSymbolTableRecord
100
AcDbBlockTableRecord
  2
*D10
340
0
  0
ENDTAB
  0
ENDSEC
  0
SECTION
  2
BLOCKS
  0
BLOCK
  5
4B4EA
330
4B4D3
100
AcDbEntity
  8
0
100
AcDbBlockBegin
  2
*MODEL_SPACE
 70
     0
 10
0.0
 20
0.0
 30
0.0
  3
*MODEL_SPACE
  1

  0
ENDBLK
  5
4B4EB
330
4B4D3
100
AcDbEntity
  8
0
100
AcDbBlockEnd
  0
BLOCK
  5
4B4E8
330
4B4D0
100
AcDbEntity
 67
     1
  8
0
100
AcDbBlockBegin
  2
*PAPER_SPACE
 70
     0
 10
0.0
 20
0.0
 30
0.0
  3
*PAPER_SPACE
  1

  0
ENDBLK
  5
4B4E9
330
4B4D0
100
AcDbEntity
 67
     1
  8
0
100
AcDbBlockEnd
  0
BLOCK
  5
4BABB
330
4BABA
100
AcDbEntity
  8
0
 48
0.5
100
AcDbBlockBegin
  2
_OPEN
 70
     0
 10
0.0
 20
0.0
 30
0.0
  3
_OPEN
  1

  0
LINE
  5
4BABC
330
4BABA
100
AcDbEntity
  8
0
  6
ByBlock
 62
     0
 48
0.5
100
AcDbLine
 10
-1.0
 20
0.1666666666666667
 30
0.0
 11
0.0
 21
0.0
 31
0.0
  0
LINE
  5
4BABD
330
4BABA
100
AcDbEntity
  8
0
  6
ByBlock
 62
     0
 48
0.5
100
AcDbLine
 10
0.0
 20
0.0
 30
0.0
 11
-1.0
 21
-0.1666666666666667
 31
0.0
  0
LINE
  5
4BABE
330
4BABA
100
AcDbEntity
  8
0
  6
ByBlock
 62
     0
 48
0.5
100
AcDbLine
 10
0.0
 20
0.0
 30
0.0
 11
-1.0
 21
0.0
 31
0.0
  0
ENDBLK
  5
4BABF
330
4BABA
100
AcDbEntity
  8
0
 48
0.5
100
AcDbBlockEnd
  0
BLOCK
  5
4D40C
330
4D409
100
AcDbEntity
  8
0
100
AcDbBlockBegin
  2
_DOT
 70
     0
 10
0.0
 20
0.0
 30
0.0
  3
_DOT
  1

  0
LWPOLYLINE
  5
4D40A
330
4D409
100
AcDbEntity
  8
0
  6
ByBlock
 62
     0
100
AcDbPolyline
 90
        2
 70
     1
 43
0.5
 10
-0.25
 20
0.0
 42
1.0
 10
0.25
 20
0.0
 42
1.0
  0
LINE
  5
4D40B
330
4D409
100
AcDbEntity
  8
0
  6
ByBlock
 62
     0
100
AcDbLine
 10
-0.5
 20
0.0
 30
0.0
 11
-1.0
 21
0.0
 31
0.0
  0
ENDBLK
  5
4D40D
330
4D409
100
AcDbEntity
  8
0
100
AcDbBlockEnd
  0
BLOCK
  5
4DA46
330
4D50F
100
AcDbEntity
  8
0
100
AcDbBlockBegin
  2
DFP3
 70
     2
 10
0.0
 20
0.0
 30
0.0
  3
DFP3
  1

  0
LINE
  5
4D510
330
4D50F
100
AcDbEntity
  8
DEFPOINTS
 62
     0
100
AcDbLine
 10
420.0
 20
297.0
 30
0.0
 11
420.0
 21
0.0
 31
0.0
  0
LINE
  5
4D511
330
4D50F
100
AcDbEntity
  8
DEFPOINTS
 62
     0
100
AcDbLine
 10
0.0
 20
297.0
 30
0.0
 11
0.0
 21
0.0
 31
0.0
  0
LINE
  5
4D512
330
4D50F
100
AcDbEntity
  8
0
 62
     0
100
AcDbLine
 10
21.5
 20
9.75
 30
0.0
 11
408.0
 21
9.75
 31
0.0
  0
LINE
  5
4D513
330
4D50F
100
AcDbEntity
  8
0
 62
     0
100
AcDbLine
 10
21.5
 20
9.699999999999818
 30
0.0
 11
408.0
 21
9.699999999999818
 31
0.0
  0
LINE
  5
4D514
330
4D50F
100
AcDbEntity
  8
0
 62
     0
100
AcDbLine
 10
21.5
 20
9.650000000000091
 30
0.0
 11
408.0
 21
9.650000000000091
 31
0.0
  0
LINE
  5
4D515
330
4D50F
100
AcDbEntity
  8
0
 62
     0
100
AcDbLine
 10
21.5
 20
32.5
 30
0.0
 11
408.0
 21
32.5
 31
0.0
  0
LINE
  5
4D516
330
4D50F
100
AcDbEntity
  8
0
 62
     0
100
AcDbLine
 10
21.5
 20
32.55000000000018
 30
0.0
 11
408.0
 21
32.55000000000018
 31
0.0
  0
LINE
  5
4D517
330
4D50F
100
AcDbEntity
  8
0
 62
     0
100
AcDbLine
 10
21.5
 20
33.5
 30
0.0
 11
408.0
 21
33.5
 31
0.0
  0
LINE
  5
4D518
330
4D50F
100
AcDbEntity
  8
0
 62
     0
100
AcDbLine
 10
21.5
 20
33.44999999999982
 30
0.0
 11
408.0
 21
33.44999999999982
 31
0.0
  0
LINE
  5
4D519
330
4D50F
100
AcDbEntity
  8
0
 62
     0
100
AcDbLine
 10
21.5
 20
9.599999999999909
 30
0.0
 11
408.0
 21
9.599999999999909
 31
0.0
  0
LINE
  5
4D51A
330
4D50F
100
AcDbEntity
  8
0
 62
     0
100
AcDbLine
 10
21.5
 20
9.550000000000182
 30
0.0
 11
408.0
 21
9.550000000000182
 31
0.0
  0
LINE
  5
4D51B
330
4D50F
100
AcDbEntity
  8
0
 62
     0
100
AcDbLine
 10
21.5
 20
9.5
 30
0.0
 11
408.0
 21
9.5
 31
0.0
  0
LINE
  5
4D51C
330
4D50F
100
AcDbEntity
  8
0
 62
     0
100
AcDbLine
 10
21.5
 20
9.449999999999818
 30
0.0
 11
408.0
 21
9.449999999999818
 31
0.0
  0
LINE
  5
4D51D
330
4D50F
100
AcDbEntity
  8
0
 62
     0
100
AcDbLine
 10
21.5
 20
8.75
 30
0.0
 11
408.0
 21
8.75
 31
0.0
  0
LINE
  5
4D51E
330
4D50F
100
AcDbEntity
  8
0
 62
     0
100
AcDbLine
 10
21.5
 20
8.800000000000182
 30
0.0
 11
408.0
 21
8.800000000000182
 31
0.0
  0
LINE
  5
4D51F
330
4D50F
100
AcDbEntity
  8
0
 62
     0
100
AcDbLine
 10
21.5
 20
8.849999999999909
 30
0.0
 11
408.0
 21
8.849999999999909
 31
0.0
  0
LINE
  5
4D520
330
4D50F
100
AcDbEntity
  8
0
 62
     0
100
AcDbLine
 10
21.5
 20
8.900000000000091
 30
0.0
 11
408.0
 21
8.900000000000091
 31
0.0
  0
LINE
  5
4D521
330
4D50F
100
AcDbEntity
  8
0
 62
     0
100
AcDbLine
 10
21.5
 20
8.949999999999818
 30
0.0
 11
408.0
 21
8.949999999999818
 31
0.0
  0
LINE
  5
4D522
330
4D50F
100
AcDbEntity
  8
0
 62
     0
100
AcDbLine
 10
21.5
 20
9.0
 30
0.0
 11
408.0
 21
9.0
 31
0.0
  0
LINE
  5
4D523
330
4D50F
100
AcDbEntity
  8
0
 62
     0
100
AcDbLine
 10
21.5
 20
9.050000000000182
 30
0.0
 11
408.0
 21
9.050000000000182
 31
0.0
  0
LINE
  5
4D524
330
4D50F
100
AcDbEntity
  8
0
 62
     0
100
AcDbLine
 10
21.5
 20
9.099999999999909
 30
0.0
 11
408.0
 21
9.099999999999909
 31
0.0
  0
LINE
  5
4D525
330
4D50F
100
AcDbEntity
  8
0
 62
     0
100
AcDbLine
 10
21.5
 20
9.150000000000091
 30
0.0
 11
408.0
 21
9.150000000000091
 31
0.0
  0
LINE
  5
4D526
330
4D50F
100
AcDbEntity
  8
0
 62
     0
100
AcDbLine
 10
21.5
 20
9.199999999999818
 30
0.0
 11
408.0
 21
9.199999999999818
 31
0.0
  0
LINE
  5
4D527
330
4D50F
100
AcDbEntity
  8
0
 62
     0
100
AcDbLine
 10
21.5
 20
9.25
 30
0.0
 11
408.0
 21
9.25
 31
0.0
  0
LINE
  5
4D528
330
4D50F
100
AcDbEntity
  8
0
 62
     0
100
AcDbLine
 10
21.5
 20
9.300000000000182
 30
0.0
 11
408.0
 21
9.300000000000182
 31
0.0
  0
LINE
  5
4D529
330
4D50F
100
AcDbEntity
  8
0
 62
     0
100
AcDbLine
 10
21.5
 20
9.349999999999909
 30
0.0
 11
408.0
 21
9.349999999999909
 31
0.0
  0
LINE
  5
4D52A
330
4D50F
100
AcDbEntity
  8
0
 62
     0
100
AcDbLine
 10
21.5
 20
9.400000000000091
 30
0.0
 11
408.0
 21
9.400000000000091
 31
0.0
  0
LINE
  5
4D52B
330
4D50F
100
AcDbEntity
  8
0
 62
     0
100
AcDbLine
 10
21.5
 20
33.34999999999991
 30
0.0
 11
408.0
 21
33.34999999999991
 31
0.0
  0
LINE
  5
4D52C
330
4D50F
100
AcDbEntity
  8
0
 62
     0
100
AcDbLine
 10
21.5
 20
33.05000000000018
 30
0.0
 11
408.0
 21
33.05000000000018
 31
0.0
  0
LINE
  5
4D52D
330
4D50F
100
AcDbEntity
  8
0
 62
     0
100
AcDbLine
 10
21.5
 20
32.94999999999982
 30
0.0
 11
408.0
 21
32.94999999999982
 31
0.0
  0
LINE
  5
4D52E
330
4D50F
100
AcDbEntity
  8
0
 62
     0
100
AcDbLine
 10
21.5
 20
32.75
 30
0.0
 11
408.0
 21
32.75
 31
0.0
  0
LINE
  5
4D52F
330
4D50F
100
AcDbEntity
  8
0
 62
     0
100
AcDbLine
 10
21.5
 20
32.65000000000009
 30
0.0
 11
408.0
 21
32.65000000000009
 31
0.0
  0
LINE
  5
4D530
330
4D50F
100
AcDbEntity
  8
0
 62
     0
100
AcDbLine
 10
21.5
 20
32.84999999999991
 30
0.0
 11
408.0
 21
32.84999999999991
 31
0.0
  0
LINE
  5
4D531
330
4D50F
100
AcDbEntity
  8
0
 62
     0
100
AcDbLine
 10
21.5
 20
33.15000000000009
 30
0.0
 11
408.0
 21
33.15000000000009
 31
0.0
  0
LINE
  5
4D532
330
4D50F
100
AcDbEntity
  8
0
 62
     0
100
AcDbLine
 10
21.5
 20
33.25
 30
0.0
 11
408.0
 21
33.25
 31
0.0
  0
LINE
  5
4D533
330
4D50F
100
AcDbEntity
  8
0
 62
     0
100
AcDbLine
 10
21.5
 20
32.90000000000009
 30
0.0
 11
408.0
 21
32.90000000000009
 31
0.0
  0
LINE
  5
4D534
330
4D50F
100
AcDbEntity
  8
0
 62
     0
100
AcDbLine
 10
21.5
 20
32.59999999999991
 30
0.0
 11
408.0
 21
32.59999999999991
 31
0.0
  0
LINE
  5
4D535
330
4D50F
100
AcDbEntity
  8
0
 62
     0
100
AcDbLine
 10
21.5
 20
32.69999999999982
 30
0.0
 11
408.0
 21
32.69999999999982
 31
0.0
  0
LINE
  5
4D536
330
4D50F
100
AcDbEntity
  8
0
 62
     0
100
AcDbLine
 10
21.5
 20
32.80000000000018
 30
0.0
 11
408.0
 21
32.80000000000018
 31
0.0
  0
LINE
  5
4D537
330
4D50F
100
AcDbEntity
  8
0
 62
     0
100
AcDbLine
 10
21.5
 20
33.40000000000009
 30
0.0
 11
408.0
 21
33.40000000000009
 31
0.0
  0
LINE
  5
4D538
330
4D50F
100
AcDbEntity
  8
0
 62
     0
100
AcDbLine
 10
21.5
 20
33.30000000000018
 30
0.0
 11
408.0
 21
33.30000000000018
 31
0.0
  0
LINE
  5
4D539
330
4D50F
100
AcDbEntity
  8
0
 62
     0
100
AcDbLine
 10
21.5
 20
33.19999999999982
 30
0.0
 11
408.0
 21
33.19999999999982
 31
0.0
  0
LINE
  5
4D53A
330
4D50F
100
AcDbEntity
  8
0
 62
     0
100
AcDbLine
 10
21.5
 20
33.09999999999991
 30
0.0
 11
408.0
 21
33.09999999999991
 31
0.0
  0
LINE
  5
4D53B
330
4D50F
100
AcDbEntity
  8
0
 62
     0
100
AcDbLine
 10
21.5
 20
33.0
 30
0.0
 11
408.0
 21
33.0
 31
0.0
  0
LINE
  5
4D53C
330
4D50F
100
AcDbEntity
  8
DEFPOINTS
 62
     0
100
AcDbLine
 10
0.0
 20
0.0
 30
0.0
 11
420.0
 21
0.0
 31
0.0
  0
LINE
  5
4D53D
330
4D50F
100
AcDbEntity
  8
0
 62
     0
100
AcDbLine
 10
88.5
 20
15.02500000000009
 30
0.0
 11
115.5
 21
15.02500000000009
 31
0.0
  0
LINE
  5
4D53E
330
4D50F
100
AcDbEntity
  8
0
 62
     0
100
AcDbLine
 10
88.5
 20
21.02500000000009
 30
0.0
 11
115.5
 21
21.02500000000009
 31
0.0
  0
LINE
  5
4D53F
330
4D50F
100
AcDbEntity
  8
0
 62
     0
100
AcDbLine
 10
88.5
 20
27.02500000000009
 30
0.0
 11
115.5
 21
27.02500000000009
 31
0.0
  0
LINE
  5
4D540
330
4D50F
100
AcDbEntity
  8
0
 62
     0
100
AcDbLine
 10
21.5
 20
15.02500000000009
 30
0.0
 11
86.5
 21
15.02500000000009
 31
0.0
  0
LINE
  5
4D541
330
4D50F
100
AcDbEntity
  8
0
 62
     0
100
AcDbLine
 10
21.5
 20
21.02500000000009
 30
0.0
 11
86.5
 21
21.02500000000009
 31
0.0
  0
LINE
  5
4D542
330
4D50F
100
AcDbEntity
  8
0
 62
     0
100
AcDbLine
 10
21.5
 20
27.02500000000009
 30
0.0
 11
86.5
 21
27.02500000000009
 31
0.0
  0
LINE
  5
4D543
330
4D50F
100
AcDbEntity
  8
0
 62
     0
100
AcDbLine
 10
106.25
 20
27.82499999999982
 30
0.0
 11
106.5
 21
27.57499999999982
 31
0.0
  0
LINE
  5
4D544
330
4D50F
100
AcDbEntity
  8
0
 62
     0
100
AcDbLine
 10
106.2579940000001
 20
27.88771600000018
 30
0.0
 11
106.5627159999999
 21
27.58299399999987
 31
0.0
  0
LINE
  5
4D545
330
4D50F
100
AcDbEntity
  8
0
 62
     0
100
AcDbLine
 10
106.2774770000001
 20
27.93894499999988
 30
0.0
 11
106.6139450000001
 21
27.60247699999991
 31
0.0
  0
LINE
  5
4D546
330
4D50F
100
AcDbEntity
  8
0
 62
     0
100
AcDbLine
 10
106.305306
 20
27.98182600000018
 30
0.0
 11
106.6568259999999
 21
27.63030600000002
 31
0.0
  0
LINE
  5
4D547
330
4D50F
100
AcDbEntity
  8
0
 62
     0
100
AcDbLine
 10
106.3404089999999
 20
28.01743399999987
 30
0.0
 11
106.692434
 21
27.66540900000018
 31
0.0
  0
LINE
  5
4D548
330
4D50F
100
AcDbEntity
  8
0
 62
     0
100
AcDbLine
 10
106.3827529999999
 20
28.04580100000021
 30
0.0
 11
106.7208009999999
 21
27.70775300000014
 31
0.0
  0
LINE
  5
4D549
330
4D50F
100
AcDbEntity
  8
0
 62
     0
100
AcDbLine
 10
106.4333200000001
 20
28.06594399999994
 30
0.0
 11
106.7409440000001
 21
27.75831999999991
 31
0.0
  0
LINE
  5
4D54A
330
4D50F
100
AcDbEntity
  8
0
 62
     0
100
AcDbLine
 10
106.4950240000001
 20
28.07495000000017
 30
0.0
 11
106.7499499999999
 21
27.8200240000001
 31
0.0
  0
LINE
  5
4D54B
330
4D50F
100
AcDbEntity
  8
0
 62
     0
100
AcDbLine
 10
106.578246
 20
28.06244000000015
 30
0.0
 11
106.7374399999999
 21
27.90324599999985
 31
0.0
  0
LINE
  5
4D54C
330
4D50F
100
AcDbEntity
  8
0
 62
     0
100
AcDbLine
 10
106.2652390000001
 20
27.73905000000013
 30
0.0
 11
106.4140499999999
 21
27.59023900000011
 31
0.0
  0
LINE
  5
4D54D
330
4D50F
100
AcDbEntity
  8
0
 62
     0
100
AcDbLine
 10
106.25
 20
27.82499999999982
 30
0.0
 11
106.5
 21
28.07499999999982
 31
0.0
  0
LINE
  5
4D54E
330
4D50F
100
AcDbEntity
  8
0
 62
     0
100
AcDbLine
 10
106.2579940000001
 20
27.76228399999991
 30
0.0
 11
106.5627159999999
 21
28.06700600000022
 31
0.0
  0
LINE
  5
4D54F
330
4D50F
100
AcDbEntity
  8
0
 62
     0
100
AcDbLine
 10
106.2774770000001
 20
27.71105500000021
 30
0.0
 11
106.6139450000001
 21
28.04752300000018
 31
0.0
  0
LINE
  5
4D550
330
4D50F
100
AcDbEntity
  8
0
 62
     0
100
AcDbLine
 10
106.305306
 20
27.66817399999991
 30
0.0
 11
106.6568259999999
 21
28.01969400000007
 31
0.0
  0
LINE
  5
4D551
330
4D50F
100
AcDbEntity
  8
0
 62
     0
100
AcDbLine
 10
106.3404089999999
 20
27.63256600000022
 30
0.0
 11
106.692434
 21
27.98459099999991
 31
0.0
  0
LINE
  5
4D552
330
4D50F
100
AcDbEntity
  8
0
 62
     0
100
AcDbLine
 10
106.3827529999999
 20
27.60419899999988
 30
0.0
 11
106.7208009999999
 21
27.94224699999995
 31
0.0
  0
LINE
  5
4D553
330
4D50F
100
AcDbEntity
  8
0
 62
     0
100
AcDbLine
 10
106.4333200000001
 20
27.58405600000015
 30
0.0
 11
106.7409440000001
 21
27.89168000000018
 31
0.0
  0
LINE
  5
4D554
330
4D50F
100
AcDbEntity
  8
0
 62
     0
100
AcDbLine
 10
106.4950240000001
 20
27.57504999999992
 30
0.0
 11
106.7499499999999
 21
27.82997599999999
 31
0.0
  0
LINE
  5
4D555
330
4D50F
100
AcDbEntity
  8
0
 62
     0
100
AcDbLine
 10
106.578246
 20
27.58755999999994
 30
0.0
 11
106.7374399999999
 21
27.74675399999978
 31
0.0
  0
LINE
  5
4D556
330
4D50F
100
AcDbEntity
  8
0
 62
     0
100
AcDbLine
 10
106.2652390000001
 20
27.91094999999996
 30
0.0
 11
106.4140499999999
 21
28.05976099999998
 31
0.0
  0
LINE
  5
4D557
330
4D50F
100
AcDbEntity
  8
0
 62
     0
100
AcDbLine
 10
106.25
 20
21.82499999999982
 30
0.0
 11
106.5
 21
21.57499999999982
 31
0.0
  0
LINE
  5
4D558
330
4D50F
100
AcDbEntity
  8
0
 62
     0
100
AcDbLine
 10
106.2579940000001
 20
21.88771600000018
 30
0.0
 11
106.5627159999999
 21
21.58299399999987
 31
0.0
  0
LINE
  5
4D559
330
4D50F
100
AcDbEntity
  8
0
 62
     0
100
AcDbLine
 10
106.2774770000001
 20
21.93894499999988
 30
0.0
 11
106.6139450000001
 21
21.60247699999991
 31
0.0
  0
LINE
  5
4D55A
330
4D50F
100
AcDbEntity
  8
0
 62
     0
100
AcDbLine
 10
106.305306
 20
21.98182600000018
 30
0.0
 11
106.6568259999999
 21
21.63030600000002
 31
0.0
  0
LINE
  5
4D55B
330
4D50F
100
AcDbEntity
  8
0
 62
     0
100
AcDbLine
 10
106.3404089999999
 20
22.01743399999987
 30
0.0
 11
106.692434
 21
21.66540900000018
 31
0.0
  0
LINE
  5
4D55C
330
4D50F
100
AcDbEntity
  8
0
 62
     0
100
AcDbLine
 10
106.3827529999999
 20
22.04580100000021
 30
0.0
 11
106.7208009999999
 21
21.70775300000014
 31
0.0
  0
LINE
  5
4D55D
330
4D50F
100
AcDbEntity
  8
0
 62
     0
100
AcDbLine
 10
106.4333200000001
 20
22.06594399999994
 30
0.0
 11
106.7409440000001
 21
21.75831999999991
 31
0.0
  0
LINE
  5
4D55E
330
4D50F
100
AcDbEntity
  8
0
 62
     0
100
AcDbLine
 10
106.4950240000001
 20
22.07495000000017
 30
0.0
 11
106.7499499999999
 21
21.8200240000001
 31
0.0
  0
LINE
  5
4D55F
330
4D50F
100
AcDbEntity
  8
0
 62
     0
100
AcDbLine
 10
106.578246
 20
22.06244000000015
 30
0.0
 11
106.7374399999999
 21
21.90324599999985
 31
0.0
  0
LINE
  5
4D560
330
4D50F
100
AcDbEntity
  8
0
 62
     0
100
AcDbLine
 10
106.2652390000001
 20
21.73905000000013
 30
0.0
 11
106.4140499999999
 21
21.59023900000011
 31
0.0
  0
LINE
  5
4D561
330
4D50F
100
AcDbEntity
  8
0
 62
     0
100
AcDbLine
 10
106.25
 20
21.82499999999982
 30
0.0
 11
106.5
 21
22.07499999999982
 31
0.0
  0
LINE
  5
4D562
330
4D50F
100
AcDbEntity
  8
0
 62
     0
100
AcDbLine
 10
106.2579940000001
 20
21.76228399999991
 30
0.0
 11
106.5627159999999
 21
22.06700600000022
 31
0.0
  0
LINE
  5
4D563
330
4D50F
100
AcDbEntity
  8
0
 62
     0
100
AcDbLine
 10
106.2774770000001
 20
21.71105500000021
 30
0.0
 11
106.6139450000001
 21
22.04752300000018
 31
0.0
  0
LINE
  5
4D564
330
4D50F
100
AcDbEntity
  8
0
 62
     0
100
AcDbLine
 10
106.305306
 20
21.66817399999991
 30
0.0
 11
106.6568259999999
 21
22.01969400000007
 31
0.0
  0
LINE
  5
4D565
330
4D50F
100
AcDbEntity
  8
0
 62
     0
100
AcDbLine
 10
106.3404089999999
 20
21.63256600000022
 30
0.0
 11
106.692434
 21
21.98459099999991
 31
0.0
  0
LINE
  5
4D566
330
4D50F
100
AcDbEntity
  8
0
 62
     0
100
AcDbLine
 10
106.3827529999999
 20
21.60419899999988
 30
0.0
 11
106.7208009999999
 21
21.94224699999995
 31
0.0
  0
LINE
  5
4D567
330
4D50F
100
AcDbEntity
  8
0
 62
     0
100
AcDbLine
 10
106.4333200000001
 20
21.58405600000015
 30
0.0
 11
106.7409440000001
 21
21.89168000000018
 31
0.0
  0
LINE
  5
4D568
330
4D50F
100
AcDbEntity
  8
0
 62
     0
100
AcDbLine
 10
106.4950240000001
 20
21.57504999999992
 30
0.0
 11
106.7499499999999
 21
21.82997599999999
 31
0.0
  0
LINE
  5
4D569
330
4D50F
100
AcDbEntity
  8
0
 62
     0
100
AcDbLine
 10
106.578246
 20
21.58755999999994
 30
0.0
 11
106.7374399999999
 21
21.74675399999978
 31
0.0
  0
LINE
  5
4D56A
330
4D50F
100
AcDbEntity
  8
0
 62
     0
100
AcDbLine
 10
106.2652390000001
 20
21.91094999999996
 30
0.0
 11
106.4140499999999
 21
22.05976099999998
 31
0.0
  0
LINE
  5
4D56B
330
4D50F
100
AcDbEntity
  8
0
 62
     0
100
AcDbLine
 10
97.25
 20
27.82499999999982
 30
0.0
 11
97.5
 21
27.57499999999982
 31
0.0
  0
LINE
  5
4D56C
330
4D50F
100
AcDbEntity
  8
0
 62
     0
100
AcDbLine
 10
97.25799400000005
 20
27.88771600000018
 30
0.0
 11
97.56271599999991
 21
27.58299399999987
 31
0.0
  0
LINE
  5
4D56D
330
4D50F
100
AcDbEntity
  8
0
 62
     0
100
AcDbLine
 10
97.27747700000009
 20
27.93894499999988
 30
0.0
 11
97.61394500000006
 21
27.60247699999991
 31
0.0
  0
LINE
  5
4D56E
330
4D50F
100
AcDbEntity
  8
0
 62
     0
100
AcDbLine
 10
97.30530599999997
 20
27.98182600000018
 30
0.0
 11
97.65682599999991
 21
27.63030600000002
 31
0.0
  0
LINE
  5
4D56F
330
4D50F
100
AcDbEntity
  8
0
 62
     0
100
AcDbLine
 10
97.34040899999991
 20
28.01743399999987
 30
0.0
 11
97.69243400000005
 21
27.66540900000018
 31
0.0
  0
LINE
  5
4D570
330
4D50F
100
AcDbEntity
  8
0
 62
     0
100
AcDbLine
 10
97.38275299999987
 20
28.04580100000021
 30
0.0
 11
97.72080099999994
 21
27.70775300000014
 31
0.0
  0
LINE
  5
4D571
330
4D50F
100
AcDbEntity
  8
0
 62
     0
100
AcDbLine
 10
97.4333200000001
 20
28.06594399999994
 30
0.0
 11
97.74094400000013
 21
27.75831999999991
 31
0.0
  0
LINE
  5
4D572
330
4D50F
100
AcDbEntity
  8
0
 62
     0
100
AcDbLine
 10
97.49502400000006
 20
28.07495000000017
 30
0.0
 11
97.7499499999999
 21
27.8200240000001
 31
0.0
  0
LINE
  5
4D573
330
4D50F
100
AcDbEntity
  8
0
 62
     0
100
AcDbLine
 10
97.57824600000004
 20
28.06244000000015
 30
0.0
 11
97.73743999999988
 21
27.90324599999985
 31
0.0
  0
LINE
  5
4D574
330
4D50F
100
AcDbEntity
  8
0
 62
     0
100
AcDbLine
 10
97.26523899999984
 20
27.73905000000013
 30
0.0
 11
97.41404999999986
 21
27.59023900000011
 31
0.0
  0
LINE
  5
4D575
330
4D50F
100
AcDbEntity
  8
0
 62
     0
100
AcDbLine
 10
97.25
 20
27.82499999999982
 30
0.0
 11
97.5
 21
28.07499999999982
 31
0.0
  0
LINE
  5
4D576
330
4D50F
100
AcDbEntity
  8
0
 62
     0
100
AcDbLine
 10
97.25799400000005
 20
27.76228399999991
 30
0.0
 11
97.56271599999991
 21
28.06700600000022
 31
0.0
  0
LINE
  5
4D577
330
4D50F
100
AcDbEntity
  8
0
 62
     0
100
AcDbLine
 10
97.27747700000009
 20
27.71105500000021
 30
0.0
 11
97.61394500000006
 21
28.04752300000018
 31
0.0
  0
LINE
  5
4D578
330
4D50F
100
AcDbEntity
  8
0
 62
     0
100
AcDbLine
 10
97.30530599999997
 20
27.66817399999991
 30
0.0
 11
97.65682599999991
 21
28.01969400000007
 31
0.0
  0
LINE
  5
4D579
330
4D50F
100
AcDbEntity
  8
0
 62
     0
100
AcDbLine
 10
97.34040899999991
 20
27.63256600000022
 30
0.0
 11
97.69243400000005
 21
27.98459099999991
 31
0.0
  0
LINE
  5
4D57A
330
4D50F
100
AcDbEntity
  8
0
 62
     0
100
AcDbLine
 10
97.38275299999987
 20
27.60419899999988
 30
0.0
 11
97.72080099999994
 21
27.94224699999995
 31
0.0
  0
LINE
  5
4D57B
330
4D50F
100
AcDbEntity
  8
0
 62
     0
100
AcDbLine
 10
97.4333200000001
 20
27.58405600000015
 30
0.0
 11
97.74094400000013
 21
27.89168000000018
 31
0.0
  0
LINE
  5
4D57C
330
4D50F
100
AcDbEntity
  8
0
 62
     0
100
AcDbLine
 10
97.49502400000006
 20
27.57504999999992
 30
0.0
 11
97.7499499999999
 21
27.82997599999999
 31
0.0
  0
LINE
  5
4D57D
330
4D50F
100
AcDbEntity
  8
0
 62
     0
100
AcDbLine
 10
97.57824600000004
 20
27.58755999999994
 30
0.0
 11
97.73743999999988
 21
27.74675399999978
 31
0.0
  0
LINE
  5
4D57E
330
4D50F
100
AcDbEntity
  8
0
 62
     0
100
AcDbLine
 10
97.26523899999984
 20
27.91094999999996
 30
0.0
 11
97.41404999999986
 21
28.05976099999998
 31
0.0
  0
LINE
  5
4D57F
330
4D50F
100
AcDbEntity
  8
0
 62
     0
100
AcDbLine
 10
97.25
 20
21.82499999999982
 30
0.0
 11
97.5
 21
21.57499999999982
 31
0.0
  0
LINE
  5
4D580
330
4D50F
100
AcDbEntity
  8
0
 62
     0
100
AcDbLine
 10
97.25799400000005
 20
21.88771600000018
 30
0.0
 11
97.56271599999991
 21
21.58299399999987
 31
0.0
  0
LINE
  5
4D581
330
4D50F
100
AcDbEntity
  8
0
 62
     0
100
AcDbLine
 10
97.27747700000009
 20
21.93894499999988
 30
0.0
 11
97.61394500000006
 21
21.60247699999991
 31
0.0
  0
LINE
  5
4D582
330
4D50F
100
AcDbEntity
  8
0
 62
     0
100
AcDbLine
 10
97.30530599999997
 20
21.98182600000018
 30
0.0
 11
97.65682599999991
 21
21.63030600000002
 31
0.0
  0
LINE
  5
4D583
330
4D50F
100
AcDbEntity
  8
0
 62
     0
100
AcDbLine
 10
97.34040899999991
 20
22.01743399999987
 30
0.0
 11
97.69243400000005
 21
21.66540900000018
 31
0.0
  0
LINE
  5
4D584
330
4D50F
100
AcDbEntity
  8
0
 62
     0
100
AcDbLine
 10
97.38275299999987
 20
22.04580100000021
 30
0.0
 11
97.72080099999994
 21
21.70775300000014
 31
0.0
  0
LINE
  5
4D585
330
4D50F
100
AcDbEntity
  8
0
 62
     0
100
AcDbLine
 10
97.4333200000001
 20
22.06594399999994
 30
0.0
 11
97.74094400000013
 21
21.75831999999991
 31
0.0
  0
LINE
  5
4D586
330
4D50F
100
AcDbEntity
  8
0
 62
     0
100
AcDbLine
 10
97.49502400000006
 20
22.07495000000017
 30
0.0
 11
97.7499499999999
 21
21.8200240000001
 31
0.0
  0
LINE
  5
4D587
330
4D50F
100
AcDbEntity
  8
0
 62
     0
100
AcDbLine
 10
97.57824600000004
 20
22.06244000000015
 30
0.0
 11
97.73743999999988
 21
21.90324599999985
 31
0.0
  0
LINE
  5
4D588
330
4D50F
100
AcDbEntity
  8
0
 62
     0
100
AcDbLine
 10
97.26523899999984
 20
21.73905000000013
 30
0.0
 11
97.41404999999986
 21
21.59023900000011
 31
0.0
  0
LINE
  5
4D589
330
4D50F
100
AcDbEntity
  8
0
 62
     0
100
AcDbLine
 10
97.25
 20
21.82499999999982
 30
0.0
 11
97.5
 21
22.07499999999982
 31
0.0
  0
LINE
  5
4D58A
330
4D50F
100
AcDbEntity
  8
0
 62
     0
100
AcDbLine
 10
97.25799400000005
 20
21.76228399999991
 30
0.0
 11
97.56271599999991
 21
22.06700600000022
 31
0.0
  0
LINE
  5
4D58B
330
4D50F
100
AcDbEntity
  8
0
 62
     0
100
AcDbLine
 10
97.27747700000009
 20
21.71105500000021
 30
0.0
 11
97.61394500000006
 21
22.04752300000018
 31
0.0
  0
LINE
  5
4D58C
330
4D50F
100
AcDbEntity
  8
0
 62
     0
100
AcDbLine
 10
97.30530599999997
 20
21.66817399999991
 30
0.0
 11
97.65682599999991
 21
22.01969400000007
 31
0.0
  0
LINE
  5
4D58D
330
4D50F
100
AcDbEntity
  8
0
 62
     0
100
AcDbLine
 10
97.34040899999991
 20
21.63256600000022
 30
0.0
 11
97.69243400000005
 21
21.98459099999991
 31
0.0
  0
LINE
  5
4D58E
330
4D50F
100
AcDbEntity
  8
0
 62
     0
100
AcDbLine
 10
97.38275299999987
 20
21.60419899999988
 30
0.0
 11
97.72080099999994
 21
21.94224699999995
 31
0.0
  0
LINE
  5
4D58F
330
4D50F
100
AcDbEntity
  8
0
 62
     0
100
AcDbLine
 10
97.4333200000001
 20
21.58405600000015
 30
0.0
 11
97.74094400000013
 21
21.89168000000018
 31
0.0
  0
LINE
  5
4D590
330
4D50F
100
AcDbEntity
  8
0
 62
     0
100
AcDbLine
 10
97.49502400000006
 20
21.57504999999992
 30
0.0
 11
97.7499499999999
 21
21.82997599999999
 31
0.0
  0
LINE
  5
4D591
330
4D50F
100
AcDbEntity
  8
0
 62
     0
100
AcDbLine
 10
97.57824600000004
 20
21.58755999999994
 30
0.0
 11
97.73743999999988
 21
21.74675399999978
 31
0.0
  0
LINE
  5
4D592
330
4D50F
100
AcDbEntity
  8
0
 62
     0
100
AcDbLine
 10
97.26523899999984
 20
21.91094999999996
 30
0.0
 11
97.41404999999986
 21
22.05976099999998
 31
0.0
  0
LINE
  5
4D593
330
4D50F
100
AcDbEntity
  8
0
 62
     0
100
AcDbLine
 10
106.25
 20
15.82499999999982
 30
0.0
 11
106.5
 21
15.57499999999982
 31
0.0
  0
LINE
  5
4D594
330
4D50F
100
AcDbEntity
  8
0
 62
     0
100
AcDbLine
 10
106.2579940000001
 20
15.88771600000018
 30
0.0
 11
106.5627159999999
 21
15.58299399999987
 31
0.0
  0
LINE
  5
4D595
330
4D50F
100
AcDbEntity
  8
0
 62
     0
100
AcDbLine
 10
106.2774770000001
 20
15.93894499999988
 30
0.0
 11
106.6139450000001
 21
15.60247699999991
 31
0.0
  0
LINE
  5
4D596
330
4D50F
100
AcDbEntity
  8
0
 62
     0
100
AcDbLine
 10
106.305306
 20
15.98182600000018
 30
0.0
 11
106.6568259999999
 21
15.63030600000002
 31
0.0
  0
LINE
  5
4D597
330
4D50F
100
AcDbEntity
  8
0
 62
     0
100
AcDbLine
 10
106.3404089999999
 20
16.01743399999987
 30
0.0
 11
106.692434
 21
15.66540900000018
 31
0.0
  0
LINE
  5
4D598
330
4D50F
100
AcDbEntity
  8
0
 62
     0
100
AcDbLine
 10
106.3827529999999
 20
16.04580100000021
 30
0.0
 11
106.7208009999999
 21
15.70775300000014
 31
0.0
  0
LINE
  5
4D599
330
4D50F
100
AcDbEntity
  8
0
 62
     0
100
AcDbLine
 10
106.4333200000001
 20
16.06594399999994
 30
0.0
 11
106.7409440000001
 21
15.75831999999991
 31
0.0
  0
LINE
  5
4D59A
330
4D50F
100
AcDbEntity
  8
0
 62
     0
100
AcDbLine
 10
106.4950240000001
 20
16.07495000000017
 30
0.0
 11
106.7499499999999
 21
15.8200240000001
 31
0.0
  0
LINE
  5
4D59B
330
4D50F
100
AcDbEntity
  8
0
 62
     0
100
AcDbLine
 10
106.578246
 20
16.06244000000015
 30
0.0
 11
106.7374399999999
 21
15.90324599999985
 31
0.0
  0
LINE
  5
4D59C
330
4D50F
100
AcDbEntity
  8
0
 62
     0
100
AcDbLine
 10
106.2652390000001
 20
15.73905000000013
 30
0.0
 11
106.4140499999999
 21
15.59023900000011
 31
0.0
  0
LINE
  5
4D59D
330
4D50F
100
AcDbEntity
  8
0
 62
     0
100
AcDbLine
 10
106.25
 20
15.82499999999982
 30
0.0
 11
106.5
 21
16.07499999999982
 31
0.0
  0
LINE
  5
4D59E
330
4D50F
100
AcDbEntity
  8
0
 62
     0
100
AcDbLine
 10
106.2579940000001
 20
15.76228399999991
 30
0.0
 11
106.5627159999999
 21
16.06700600000022
 31
0.0
  0
LINE
  5
4D59F
330
4D50F
100
AcDbEntity
  8
0
 62
     0
100
AcDbLine
 10
106.2774770000001
 20
15.71105500000021
 30
0.0
 11
106.6139450000001
 21
16.04752300000018
 31
0.0
  0
LINE
  5
4D5A0
330
4D50F
100
AcDbEntity
  8
0
 62
     0
100
AcDbLine
 10
106.305306
 20
15.66817399999991
 30
0.0
 11
106.6568259999999
 21
16.01969400000007
 31
0.0
  0
LINE
  5
4D5A1
330
4D50F
100
AcDbEntity
  8
0
 62
     0
100
AcDbLine
 10
106.3404089999999
 20
15.63256600000022
 30
0.0
 11
106.692434
 21
15.98459099999991
 31
0.0
  0
LINE
  5
4D5A2
330
4D50F
100
AcDbEntity
  8
0
 62
     0
100
AcDbLine
 10
106.3827529999999
 20
15.60419899999988
 30
0.0
 11
106.7208009999999
 21
15.94224699999995
 31
0.0
  0
LINE
  5
4D5A3
330
4D50F
100
AcDbEntity
  8
0
 62
     0
100
AcDbLine
 10
106.4333200000001
 20
15.58405600000015
 30
0.0
 11
106.7409440000001
 21
15.89168000000018
 31
0.0
  0
LINE
  5
4D5A4
330
4D50F
100
AcDbEntity
  8
0
 62
     0
100
AcDbLine
 10
106.4950240000001
 20
15.57504999999992
 30
0.0
 11
106.7499499999999
 21
15.82997599999999
 31
0.0
  0
LINE
  5
4D5A5
330
4D50F
100
AcDbEntity
  8
0
 62
     0
100
AcDbLine
 10
106.578246
 20
15.58755999999994
 30
0.0
 11
106.7374399999999
 21
15.74675399999978
 31
0.0
  0
LINE
  5
4D5A6
330
4D50F
100
AcDbEntity
  8
0
 62
     0
100
AcDbLine
 10
106.2652390000001
 20
15.91094999999996
 30
0.0
 11
106.4140499999999
 21
16.05976099999998
 31
0.0
  0
LINE
  5
4D5A7
330
4D50F
100
AcDbEntity
  8
0
 62
     0
100
AcDbLine
 10
97.25
 20
15.82499999999982
 30
0.0
 11
97.5
 21
15.57499999999982
 31
0.0
  0
LINE
  5
4D5A8
330
4D50F
100
AcDbEntity
  8
0
 62
     0
100
AcDbLine
 10
97.25799400000005
 20
15.88771600000018
 30
0.0
 11
97.56271599999991
 21
15.58299399999987
 31
0.0
  0
LINE
  5
4D5A9
330
4D50F
100
AcDbEntity
  8
0
 62
     0
100
AcDbLine
 10
97.27747700000009
 20
15.93894499999988
 30
0.0
 11
97.61394500000006
 21
15.60247699999991
 31
0.0
  0
LINE
  5
4D5AA
330
4D50F
100
AcDbEntity
  8
0
 62
     0
100
AcDbLine
 10
97.30530599999997
 20
15.98182600000018
 30
0.0
 11
97.65682599999991
 21
15.63030600000002
 31
0.0
  0
LINE
  5
4D5AB
330
4D50F
100
AcDbEntity
  8
0
 62
     0
100
AcDbLine
 10
97.34040899999991
 20
16.01743399999987
 30
0.0
 11
97.69243400000005
 21
15.66540900000018
 31
0.0
  0
LINE
  5
4D5AC
330
4D50F
100
AcDbEntity
  8
0
 62
     0
100
AcDbLine
 10
97.38275299999987
 20
16.04580100000021
 30
0.0
 11
97.72080099999994
 21
15.70775300000014
 31
0.0
  0
LINE
  5
4D5AD
330
4D50F
100
AcDbEntity
  8
0
 62
     0
100
AcDbLine
 10
97.4333200000001
 20
16.06594399999994
 30
0.0
 11
97.74094400000013
 21
15.75831999999991
 31
0.0
  0
LINE
  5
4D5AE
330
4D50F
100
AcDbEntity
  8
0
 62
     0
100
AcDbLine
 10
97.49502400000006
 20
16.07495000000017
 30
0.0
 11
97.7499499999999
 21
15.8200240000001
 31
0.0
  0
LINE
  5
4D5AF
330
4D50F
100
AcDbEntity
  8
0
 62
     0
100
AcDbLine
 10
97.57824600000004
 20
16.06244000000015
 30
0.0
 11
97.73743999999988
 21
15.90324599999985
 31
0.0
  0
LINE
  5
4D5B0
330
4D50F
100
AcDbEntity
  8
0
 62
     0
100
AcDbLine
 10
97.26523899999984
 20
15.73905000000013
 30
0.0
 11
97.41404999999986
 21
15.59023900000011
 31
0.0
  0
LINE
  5
4D5B1
330
4D50F
100
AcDbEntity
  8
0
 62
     0
100
AcDbLine
 10
97.25
 20
15.82499999999982
 30
0.0
 11
97.5
 21
16.07499999999982
 31
0.0
  0
LINE
  5
4D5B2
330
4D50F
100
AcDbEntity
  8
0
 62
     0
100
AcDbLine
 10
97.25799400000005
 20
15.76228399999991
 30
0.0
 11
97.56271599999991
 21
16.06700600000022
 31
0.0
  0
LINE
  5
4D5B3
330
4D50F
100
AcDbEntity
  8
0
 62
     0
100
AcDbLine
 10
97.27747700000009
 20
15.71105500000021
 30
0.0
 11
97.61394500000006
 21
16.04752300000018
 31
0.0
  0
LINE
  5
4D5B4
330
4D50F
100
AcDbEntity
  8
0
 62
     0
100
AcDbLine
 10
97.30530599999997
 20
15.66817399999991
 30
0.0
 11
97.65682599999991
 21
16.01969400000007
 31
0.0
  0
LINE
  5
4D5B5
330
4D50F
100
AcDbEntity
  8
0
 62
     0
100
AcDbLine
 10
97.34040899999991
 20
15.63256600000022
 30
0.0
 11
97.69243400000005
 21
15.98459099999991
 31
0.0
  0
LINE
  5
4D5B6
330
4D50F
100
AcDbEntity
  8
0
 62
     0
100
AcDbLine
 10
97.38275299999987
 20
15.60419899999988
 30
0.0
 11
97.72080099999994
 21
15.94224699999995
 31
0.0
  0
LINE
  5
4D5B7
330
4D50F
100
AcDbEntity
  8
0
 62
     0
100
AcDbLine
 10
97.4333200000001
 20
15.58405600000015
 30
0.0
 11
97.74094400000013
 21
15.89168000000018
 31
0.0
  0
LINE
  5
4D5B8
330
4D50F
100
AcDbEntity
  8
0
 62
     0
100
AcDbLine
 10
97.49502400000006
 20
15.57504999999992
 30
0.0
 11
97.7499499999999
 21
15.82997599999999
 31
0.0
  0
LINE
  5
4D5B9
330
4D50F
100
AcDbEntity
  8
0
 62
     0
100
AcDbLine
 10
97.57824600000004
 20
15.58755999999994
 30
0.0
 11
97.73743999999988
 21
15.74675399999978
 31
0.0
  0
LINE
  5
4D5BA
330
4D50F
100
AcDbEntity
  8
0
 62
     0
100
AcDbLine
 10
97.26523899999984
 20
15.91094999999996
 30
0.0
 11
97.41404999999986
 21
16.05976099999998
 31
0.0
  0
LINE
  5
4D5BB
330
4D50F
100
AcDbEntity
  8
0
 62
     0
100
AcDbLine
 10
106.25
 20
10.40000000000009
 30
0.0
 11
106.5
 21
10.15000000000009
 31
0.0
  0
LINE
  5
4D5BC
330
4D50F
100
AcDbEntity
  8
0
 62
     0
100
AcDbLine
 10
106.2579940000001
 20
10.462716
 30
0.0
 11
106.5627159999999
 21
10.15799400000014
 31
0.0
  0
LINE
  5
4D5BD
330
4D50F
100
AcDbEntity
  8
0
 62
     0
100
AcDbLine
 10
106.2774770000001
 20
10.51394500000015
 30
0.0
 11
106.6139450000001
 21
10.17747700000018
 31
0.0
  0
LINE
  5
4D5BE
330
4D50F
100
AcDbEntity
  8
0
 62
     0
100
AcDbLine
 10
106.305306
 20
10.556826
 30
0.0
 11
106.6568259999999
 21
10.20530599999984
 31
0.0
  0
LINE
  5
4D5BF
330
4D50F
100
AcDbEntity
  8
0
 62
     0
100
AcDbLine
 10
106.3404089999999
 20
10.59243400000014
 30
0.0
 11
106.692434
 21
10.240409
 31
0.0
  0
LINE
  5
4D5C0
330
4D50F
100
AcDbEntity
  8
0
 62
     0
100
AcDbLine
 10
106.3827529999999
 20
10.62080100000003
 30
0.0
 11
106.7208009999999
 21
10.28275299999996
 31
0.0
  0
LINE
  5
4D5C1
330
4D50F
100
AcDbEntity
  8
0
 62
     0
100
AcDbLine
 10
106.4333200000001
 20
10.64094399999976
 30
0.0
 11
106.7409440000001
 21
10.33332000000019
 31
0.0
  0
LINE
  5
4D5C2
330
4D50F
100
AcDbEntity
  8
0
 62
     0
100
AcDbLine
 10
106.4950240000001
 20
10.64994999999999
 30
0.0
 11
106.7499499999999
 21
10.39502399999992
 31
0.0
  0
LINE
  5
4D5C3
330
4D50F
100
AcDbEntity
  8
0
 62
     0
100
AcDbLine
 10
106.578246
 20
10.63743999999997
 30
0.0
 11
106.7374399999999
 21
10.47824600000013
 31
0.0
  0
LINE
  5
4D5C4
330
4D50F
100
AcDbEntity
  8
0
 62
     0
100
AcDbLine
 10
106.2652390000001
 20
10.31404999999995
 30
0.0
 11
106.4140499999999
 21
10.16523899999993
 31
0.0
  0
LINE
  5
4D5C5
330
4D50F
100
AcDbEntity
  8
0
 62
     0
100
AcDbLine
 10
106.25
 20
10.40000000000009
 30
0.0
 11
106.5
 21
10.65000000000009
 31
0.0
  0
LINE
  5
4D5C6
330
4D50F
100
AcDbEntity
  8
0
 62
     0
100
AcDbLine
 10
106.2579940000001
 20
10.33728400000018
 30
0.0
 11
106.5627159999999
 21
10.64200600000004
 31
0.0
  0
LINE
  5
4D5C7
330
4D50F
100
AcDbEntity
  8
0
 62
     0
100
AcDbLine
 10
106.2774770000001
 20
10.28605500000003
 30
0.0
 11
106.6139450000001
 21
10.622523
 31
0.0
  0
LINE
  5
4D5C8
330
4D50F
100
AcDbEntity
  8
0
 62
     0
100
AcDbLine
 10
106.305306
 20
10.24317400000018
 30
0.0
 11
106.6568259999999
 21
10.59469399999989
 31
0.0
  0
LINE
  5
4D5C9
330
4D50F
100
AcDbEntity
  8
0
 62
     0
100
AcDbLine
 10
106.3404089999999
 20
10.20756600000004
 30
0.0
 11
106.692434
 21
10.55959100000018
 31
0.0
  0
LINE
  5
4D5CA
330
4D50F
100
AcDbEntity
  8
0
 62
     0
100
AcDbLine
 10
106.3827529999999
 20
10.17919900000015
 30
0.0
 11
106.7208009999999
 21
10.51724699999977
 31
0.0
  0
LINE
  5
4D5CB
330
4D50F
100
AcDbEntity
  8
0
 62
     0
100
AcDbLine
 10
106.4333200000001
 20
10.15905599999996
 30
0.0
 11
106.7409440000001
 21
10.46668
 31
0.0
  0
LINE
  5
4D5CC
330
4D50F
100
AcDbEntity
  8
0
 62
     0
100
AcDbLine
 10
106.4950240000001
 20
10.15005000000019
 30
0.0
 11
106.7499499999999
 21
10.40497599999981
 31
0.0
  0
LINE
  5
4D5CD
330
4D50F
100
AcDbEntity
  8
0
 62
     0
100
AcDbLine
 10
106.578246
 20
10.16256000000021
 30
0.0
 11
106.7374399999999
 21
10.32175400000006
 31
0.0
  0
LINE
  5
4D5CE
330
4D50F
100
AcDbEntity
  8
0
 62
     0
100
AcDbLine
 10
106.2652390000001
 20
10.48595000000023
 30
0.0
 11
106.4140499999999
 21
10.6347609999998
 31
0.0
  0
LINE
  5
4D5CF
330
4D50F
100
AcDbEntity
  8
0
 62
     0
100
AcDbLine
 10
97.25
 20
10.40000000000009
 30
0.0
 11
97.5
 21
10.15000000000009
 31
0.0
  0
LINE
  5
4D5D0
330
4D50F
100
AcDbEntity
  8
0
 62
     0
100
AcDbLine
 10
97.25799400000005
 20
10.462716
 30
0.0
 11
97.56271599999991
 21
10.15799400000014
 31
0.0
  0
LINE
  5
4D5D1
330
4D50F
100
AcDbEntity
  8
0
 62
     0
100
AcDbLine
 10
97.27747700000009
 20
10.51394500000015
 30
0.0
 11
97.61394500000006
 21
10.17747700000018
 31
0.0
  0
LINE
  5
4D5D2
330
4D50F
100
AcDbEntity
  8
0
 62
     0
100
AcDbLine
 10
97.30530599999997
 20
10.556826
 30
0.0
 11
97.65682599999991
 21
10.20530599999984
 31
0.0
  0
LINE
  5
4D5D3
330
4D50F
100
AcDbEntity
  8
0
 62
     0
100
AcDbLine
 10
97.34040899999991
 20
10.59243400000014
 30
0.0
 11
97.69243400000005
 21
10.240409
 31
0.0
  0
LINE
  5
4D5D4
330
4D50F
100
AcDbEntity
  8
0
 62
     0
100
AcDbLine
 10
97.38275299999987
 20
10.62080100000003
 30
0.0
 11
97.72080099999994
 21
10.28275299999996
 31
0.0
  0
LINE
  5
4D5D5
330
4D50F
100
AcDbEntity
  8
0
 62
     0
100
AcDbLine
 10
97.4333200000001
 20
10.64094399999976
 30
0.0
 11
97.74094400000013
 21
10.33332000000019
 31
0.0
  0
LINE
  5
4D5D6
330
4D50F
100
AcDbEntity
  8
0
 62
     0
100
AcDbLine
 10
97.49502400000006
 20
10.64994999999999
 30
0.0
 11
97.7499499999999
 21
10.39502399999992
 31
0.0
  0
LINE
  5
4D5D7
330
4D50F
100
AcDbEntity
  8
0
 62
     0
100
AcDbLine
 10
97.57824600000004
 20
10.63743999999997
 30
0.0
 11
97.73743999999988
 21
10.47824600000013
 31
0.0
  0
LINE
  5
4D5D8
330
4D50F
100
AcDbEntity
  8
0
 62
     0
100
AcDbLine
 10
97.26523899999984
 20
10.31404999999995
 30
0.0
 11
97.41404999999986
 21
10.16523899999993
 31
0.0
  0
LINE
  5
4D5D9
330
4D50F
100
AcDbEntity
  8
0
 62
     0
100
AcDbLine
 10
97.25
 20
10.40000000000009
 30
0.0
 11
97.5
 21
10.65000000000009
 31
0.0
  0
LINE
  5
4D5DA
330
4D50F
100
AcDbEntity
  8
0
 62
     0
100
AcDbLine
 10
97.25799400000005
 20
10.33728400000018
 30
0.0
 11
97.56271599999991
 21
10.64200600000004
 31
0.0
  0
LINE
  5
4D5DB
330
4D50F
100
AcDbEntity
  8
0
 62
     0
100
AcDbLine
 10
97.27747700000009
 20
10.28605500000003
 30
0.0
 11
97.61394500000006
 21
10.622523
 31
0.0
  0
LINE
  5
4D5DC
330
4D50F
100
AcDbEntity
  8
0
 62
     0
100
AcDbLine
 10
97.30530599999997
 20
10.24317400000018
 30
0.0
 11
97.65682599999991
 21
10.59469399999989
 31
0.0
  0
LINE
  5
4D5DD
330
4D50F
100
AcDbEntity
  8
0
 62
     0
100
AcDbLine
 10
97.34040899999991
 20
10.20756600000004
 30
0.0
 11
97.69243400000005
 21
10.55959100000018
 31
0.0
  0
LINE
  5
4D5DE
330
4D50F
100
AcDbEntity
  8
0
 62
     0
100
AcDbLine
 10
97.38275299999987
 20
10.17919900000015
 30
0.0
 11
97.72080099999994
 21
10.51724699999977
 31
0.0
  0
LINE
  5
4D5DF
330
4D50F
100
AcDbEntity
  8
0
 62
     0
100
AcDbLine
 10
97.4333200000001
 20
10.15905599999996
 30
0.0
 11
97.74094400000013
 21
10.46668
 31
0.0
  0
LINE
  5
4D5E0
330
4D50F
100
AcDbEntity
  8
0
 62
     0
100
AcDbLine
 10
97.49502400000006
 20
10.15005000000019
 30
0.0
 11
97.7499499999999
 21
10.40497599999981
 31
0.0
  0
LINE
  5
4D5E1
330
4D50F
100
AcDbEntity
  8
0
 62
     0
100
AcDbLine
 10
97.57824600000004
 20
10.16256000000021
 30
0.0
 11
97.73743999999988
 21
10.32175400000006
 31
0.0
  0
LINE
  5
4D5E2
330
4D50F
100
AcDbEntity
  8
0
 62
     0
100
AcDbLine
 10
97.26523899999984
 20
10.48595000000023
 30
0.0
 11
97.41404999999986
 21
10.6347609999998
 31
0.0
  0
LINE
  5
4D5E3
330
4D50F
100
AcDbEntity
  8
0
 62
     0
100
AcDbLine
 10
174.4749999999999
 20
33.0
 30
0.0
 11
174.4749999999999
 21
9.0
 31
0.0
  0
LINE
  5
4D5E4
330
4D50F
100
AcDbEntity
  8
0
 62
     0
100
AcDbLine
 10
174.5250000000001
 20
33.0
 30
0.0
 11
174.5250000000001
 21
9.0
 31
0.0
  0
LINE
  5
4D5E5
330
4D50F
100
AcDbEntity
  8
0
 62
     0
100
AcDbLine
 10
214.1500001919297
 20
34.59999999999991
 30
0.0
 11
214.7500001919296
 21
34.0
 31
0.0
  0
LINE
  5
4D5E6
330
4D50F
100
AcDbEntity
  8
0
 62
     0
100
AcDbLine
 10
214.1537481919295
 20
34.66696200000024
 30
0.0
 11
214.8169621919295
 21
34.00374800000009
 31
0.0
  0
LINE
  5
4D5E7
330
4D50F
100
AcDbEntity
  8
0
 62
     0
100
AcDbLine
 10
214.1637421919295
 20
34.72767900000008
 30
0.0
 11
214.8776791919295
 21
34.01374200000009
 31
0.0
  0
LINE
  5
4D5E8
330
4D50F
100
AcDbEntity
  8
0
 62
     0
100
AcDbLine
 10
214.1787211919296
 20
34.78341099999989
 30
0.0
 11
214.9334111919296
 21
34.02872100000013
 31
0.0
  0
LINE
  5
4D5E9
330
4D50F
100
AcDbEntity
  8
0
 62
     0
100
AcDbLine
 10
214.1979081919297
 20
34.83493499999986
 30
0.0
 11
214.9849351919295
 21
34.04790800000001
 31
0.0
  0
LINE
  5
4D5EA
330
4D50F
100
AcDbEntity
  8
0
 62
     0
100
AcDbLine
 10
214.2208011919295
 20
34.88275199999998
 30
0.0
 11
215.0327521919297
 21
34.07080099999985
 31
0.0
  0
LINE
  5
4D5EB
330
4D50F
100
AcDbEntity
  8
0
 62
     0
100
AcDbLine
 10
214.2470671919296
 20
34.92719699999998
 30
0.0
 11
215.0771971919297
 21
34.09706700000015
 31
0.0
  0
LINE
  5
4D5EC
330
4D50F
100
AcDbEntity
  8
0
 62
     0
100
AcDbLine
 10
214.2764861919296
 20
34.96848899999986
 30
0.0
 11
215.1184891919295
 21
34.12648600000011
 31
0.0
  0
LINE
  5
4D5ED
330
4D50F
100
AcDbEntity
  8
0
 62
     0
100
AcDbLine
 10
214.3089261919297
 20
35.00676000000021
 30
0.0
 11
215.1567601919294
 21
34.15892600000006
 31
0.0
  0
LINE
  5
4D5EE
330
4D50F
100
AcDbEntity
  8
0
 62
     0
100
AcDbLine
 10
214.3443241919297
 20
35.04207200000019
 30
0.0
 11
215.1920721919296
 21
34.19432400000005
 31
0.0
  0
LINE
  5
4D5EF
330
4D50F
100
AcDbEntity
  8
0
 62
     0
100
AcDbLine
 10
214.3826831919296
 20
35.07442399999991
 30
0.0
 11
215.2244241919296
 21
34.23268300000018
 31
0.0
  0
LINE
  5
4D5F0
330
4D50F
100
AcDbEntity
  8
0
 62
     0
100
AcDbLine
 10
214.1547661919297
 20
34.52452300000004
 30
0.0
 11
214.6745231919297
 21
34.00476600000002
 31
0.0
  0
LINE
  5
4D5F1
330
4D50F
100
AcDbEntity
  8
0
 62
     0
100
AcDbLine
 10
214.1729561919295
 20
34.43562299999985
 30
0.0
 11
214.5856231919295
 21
34.02295599999979
 31
0.0
  0
LINE
  5
4D5F2
330
4D50F
100
AcDbEntity
  8
0
 62
     0
100
AcDbLine
 10
214.2210101919296
 20
34.31685800000014
 30
0.0
 11
214.4668581919296
 21
34.07101000000011
 31
0.0
  0
LINE
  5
4D5F3
330
4D50F
100
AcDbEntity
  8
0
 62
     0
100
AcDbLine
 10
214.1500001919297
 20
34.59999999999991
 30
0.0
 11
214.7500001919296
 21
35.19999999999982
 31
0.0
  0
LINE
  5
4D5F4
330
4D50F
100
AcDbEntity
  8
0
 62
     0
100
AcDbLine
 10
214.1537481919295
 20
34.53303800000003
 30
0.0
 11
214.8169621919295
 21
35.19625200000019
 31
0.0
  0
LINE
  5
4D5F5
330
4D50F
100
AcDbEntity
  8
0
 62
     0
100
AcDbLine
 10
214.1637421919295
 20
34.47232100000019
 30
0.0
 11
214.8776791919295
 21
35.18625800000018
 31
0.0
  0
LINE
  5
4D5F6
330
4D50F
100
AcDbEntity
  8
0
 62
     0
100
AcDbLine
 10
214.1787211919296
 20
34.41658899999993
 30
0.0
 11
214.9334111919296
 21
35.17127900000014
 31
0.0
  0
LINE
  5
4D5F7
330
4D50F
100
AcDbEntity
  8
0
 62
     0
100
AcDbLine
 10
214.1979081919297
 20
34.36506499999996
 30
0.0
 11
214.9849351919295
 21
35.15209199999981
 31
0.0
  0
LINE
  5
4D5F8
330
4D50F
100
AcDbEntity
  8
0
 62
     0
100
AcDbLine
 10
214.2208011919295
 20
34.31724799999984
 30
0.0
 11
215.0327521919297
 21
35.12919899999997
 31
0.0
  0
LINE
  5
4D5F9
330
4D50F
100
AcDbEntity
  8
0
 62
     0
100
AcDbLine
 10
214.2470671919296
 20
34.27280299999984
 30
0.0
 11
215.0771971919297
 21
35.10293300000012
 31
0.0
  0
LINE
  5
4D5FA
330
4D50F
100
AcDbEntity
  8
0
 62
     0
100
AcDbLine
 10
214.2764861919296
 20
34.23151099999995
 30
0.0
 11
215.1184891919295
 21
35.07351400000016
 31
0.0
  0
LINE
  5
4D5FB
330
4D50F
100
AcDbEntity
  8
0
 62
     0
100
AcDbLine
 10
214.3089261919297
 20
34.19324000000006
 30
0.0
 11
215.1567601919294
 21
35.04107400000021
 31
0.0
  0
LINE
  5
4D5FC
330
4D50F
100
AcDbEntity
  8
0
 62
     0
100
AcDbLine
 10
214.3443241919297
 20
34.15792800000008
 30
0.0
 11
215.1920721919296
 21
35.00567599999977
 31
0.0
  0
LINE
  5
4D5FD
330
4D50F
100
AcDbEntity
  8
0
 62
     0
100
AcDbLine
 10
214.3826831919296
 20
34.12557599999991
 30
0.0
 11
215.2244241919296
 21
34.96731700000009
 31
0.0
  0
LINE
  5
4D5FE
330
4D50F
100
AcDbEntity
  8
0
 62
     0
100
AcDbLine
 10
214.1547661919297
 20
34.67547699999977
 30
0.0
 11
214.6745231919297
 21
35.1952339999998
 31
0.0
  0
LINE
  5
4D5FF
330
4D50F
100
AcDbEntity
  8
0
 62
     0
100
AcDbLine
 10
214.1729561919295
 20
34.76437699999997
 30
0.0
 11
214.5856231919295
 21
35.17704400000002
 31
0.0
  0
LINE
  5
4D600
330
4D50F
100
AcDbEntity
  8
0
 62
     0
100
AcDbLine
 10
214.2210101919296
 20
34.88314200000013
 30
0.0
 11
214.4668581919296
 21
35.12899000000016
 31
0.0
  0
LINE
  5
4D601
330
4D50F
100
AcDbEntity
  8
0
 62
     0
100
AcDbLine
 10
214.4240651919297
 20
35.10375199999999
 30
0.0
 11
215.2537521919297
 21
34.27406500000006
 31
0.0
  0
LINE
  5
4D602
330
4D50F
100
AcDbEntity
  8
0
 62
     0
100
AcDbLine
 10
214.4686061919295
 20
35.12992200000008
 30
0.0
 11
215.2799221919298
 21
34.31860599999982
 31
0.0
  0
LINE
  5
4D603
330
4D50F
100
AcDbEntity
  8
0
 62
     0
100
AcDbLine
 10
214.5165271919296
 20
35.15271200000007
 30
0.0
 11
215.3027121919297
 21
34.36652700000013
 31
0.0
  0
LINE
  5
4D604
330
4D50F
100
AcDbEntity
  8
0
 62
     0
100
AcDbLine
 10
214.5681661919296
 20
35.17178400000012
 30
0.0
 11
215.3217841919296
 21
34.41816599999993
 31
0.0
  0
LINE
  5
4D605
330
4D50F
100
AcDbEntity
  8
0
 62
     0
100
AcDbLine
 10
214.6240321919298
 20
35.18662799999993
 30
0.0
 11
215.3366281919296
 21
34.47403200000008
 31
0.0
  0
LINE
  5
4D606
330
4D50F
100
AcDbEntity
  8
0
 62
     0
100
AcDbLine
 10
214.6849121919298
 20
35.19645899999978
 30
0.0
 11
215.3464591919295
 21
34.53491200000008
 31
0.0
  0
LINE
  5
4D607
330
4D50F
100
AcDbEntity
  8
0
 62
     0
100
AcDbLine
 10
214.7520851919297
 20
35.19999599999983
 30
0.0
 11
215.3499961919295
 21
34.60208499999999
 31
0.0
  0
LINE
  5
4D608
330
4D50F
100
AcDbEntity
  8
0
 62
     0
100
AcDbLine
 10
214.8278661919297
 20
35.19492600000012
 30
0.0
 11
215.3449261919296
 21
34.67786599999999
 31
0.0
  0
LINE
  5
4D609
330
4D50F
100
AcDbEntity
  8
0
 62
     0
100
AcDbLine
 10
214.9172991919295
 20
35.17620399999987
 30
0.0
 11
215.3262041919295
 21
34.76729900000009
 31
0.0
  0
LINE
  5
4D60A
330
4D50F
100
AcDbEntity
  8
0
 62
     0
100
AcDbLine
 10
215.0376741919297
 20
35.12653899999987
 30
0.0
 11
215.2765391919295
 21
34.88767400000006
 31
0.0
  0
LINE
  5
4D60B
330
4D50F
100
AcDbEntity
  8
0
 62
     0
100
AcDbLine
 10
214.4240651919297
 20
34.09624799999983
 30
0.0
 11
215.2537521919297
 21
34.92593500000021
 31
0.0
  0
LINE
  5
4D60C
330
4D50F
100
AcDbEntity
  8
0
 62
     0
100
AcDbLine
 10
214.4686061919295
 20
34.07007800000019
 30
0.0
 11
215.2799221919298
 21
34.881394
 31
0.0
  0
LINE
  5
4D60D
330
4D50F
100
AcDbEntity
  8
0
 62
     0
100
AcDbLine
 10
214.5165271919296
 20
34.04728800000021
 30
0.0
 11
215.3027121919297
 21
34.83347300000014
 31
0.0
  0
LINE
  5
4D60E
330
4D50F
100
AcDbEntity
  8
0
 62
     0
100
AcDbLine
 10
214.5681661919296
 20
34.02821600000016
 30
0.0
 11
215.3217841919296
 21
34.78183399999989
 31
0.0
  0
LINE
  5
4D60F
330
4D50F
100
AcDbEntity
  8
0
 62
     0
100
AcDbLine
 10
214.6240321919298
 20
34.01337199999989
 30
0.0
 11
215.3366281919296
 21
34.72596800000019
 31
0.0
  0
LINE
  5
4D610
330
4D50F
100
AcDbEntity
  8
0
 62
     0
100
AcDbLine
 10
214.6849121919298
 20
34.00354100000004
 30
0.0
 11
215.3464591919295
 21
34.6650880000002
 31
0.0
  0
LINE
  5
4D611
330
4D50F
100
AcDbEntity
  8
0
 62
     0
100
AcDbLine
 10
214.7520851919297
 20
34.00000399999999
 30
0.0
 11
215.3499961919295
 21
34.59791499999983
 31
0.0
  0
LINE
  5
4D612
330
4D50F
100
AcDbEntity
  8
0
 62
     0
100
AcDbLine
 10
214.8278661919297
 20
34.00507400000015
 30
0.0
 11
215.3449261919296
 21
34.52213399999982
 31
0.0
  0
LINE
  5
4D613
330
4D50F
100
AcDbEntity
  8
0
 62
     0
100
AcDbLine
 10
214.9172991919295
 20
34.02379599999995
 30
0.0
 11
215.3262041919295
 21
34.43270100000018
 31
0.0
  0
LINE
  5
4D614
330
4D50F
100
AcDbEntity
  8
0
 62
     0
100
AcDbLine
 10
215.0376741919297
 20
34.07346099999995
 30
0.0
 11
215.2765391919295
 21
34.31232600000021
 31
0.0
  0
LINE
  5
4D615
330
4D50F
100
AcDbEntity
  8
0
 62
     0
100
AcDbLine
 10
323.5
 20
16.97499999999991
 30
0.0
 11
393.5
 21
16.97499999999991
 31
0.0
  0
LINE
  5
4D616
330
4D50F
100
AcDbEntity
  8
0
 62
     0
100
AcDbLine
 10
323.5
 20
17.02500000000009
 30
0.0
 11
393.5
 21
17.02500000000009
 31
0.0
  0
LINE
  5
4D617
330
4D50F
100
AcDbEntity
  8
0
 62
     0
100
AcDbLine
 10
323.5
 20
24.97499999999991
 30
0.0
 11
393.5
 21
24.97499999999991
 31
0.0
  0
LINE
  5
4D618
330
4D50F
100
AcDbEntity
  8
0
 62
     0
100
AcDbLine
 10
323.5
 20
25.02500000000009
 30
0.0
 11
393.5
 21
25.02500000000009
 31
0.0
  0
LINE
  5
4D619
330
4D50F
100
AcDbEntity
  8
0
 62
     0
100
AcDbLine
 10
246.5
 20
16.97499999999991
 30
0.0
 11
321.5
 21
16.97499999999991
 31
0.0
  0
LINE
  5
4D61A
330
4D50F
100
AcDbEntity
  8
0
 62
     0
100
AcDbLine
 10
246.5
 20
24.97499999999991
 30
0.0
 11
321.5
 21
24.97499999999991
 31
0.0
  0
LINE
  5
4D61B
330
4D50F
100
AcDbEntity
  8
0
 62
     0
100
AcDbLine
 10
246.5
 20
17.02500000000009
 30
0.0
 11
321.5
 21
17.02500000000009
 31
0.0
  0
LINE
  5
4D61C
330
4D50F
100
AcDbEntity
  8
0
 62
     0
100
AcDbLine
 10
246.5
 20
25.02500000000009
 30
0.0
 11
321.5
 21
25.02500000000009
 31
0.0
  0
TEXT
  5
4D61D
330
4D50F
100
AcDbEntity
  8
0
 62
     0
100
AcDbText
 10
244.8585210000001
 20
30.1
 30
0.0
 40
2.0
  1
PROJECT
  7
BIGFONT
100
AcDbText
  0
LINE
  5
4D61E
330
4D50F
100
AcDbEntity
  8
0
 62
     0
100
AcDbLine
 10
244.4749999999999
 20
33.0
 30
0.0
 11
244.4749999999999
 21
9.0
 31
0.0
  0
LINE
  5
4D61F
330
4D50F
100
AcDbEntity
  8
0
 62
     0
100
AcDbLine
 10
244.5250000000001
 20
33.0
 30
0.0
 11
244.5250000000001
 21
9.0
 31
0.0
  0
TEXT
  5
4D620
330
4D50F
100
AcDbEntity
  8
0
 62
     0
100
AcDbText
 10
323.943481
 20
30.1
 30
0.0
 40
2.0
  1
DATE
  7
BIGFONT
100
AcDbText
  0
LINE
  5
4D621
330
4D50F
100
AcDbEntity
  8
0
 62
     0
100
AcDbLine
 10
344.4749999999999
 20
25.0
 30
0.0
 11
344.4749999999999
 21
17.0
 31
0.0
  0
LINE
  5
4D622
330
4D50F
100
AcDbEntity
  8
0
 62
     0
100
AcDbLine
 10
344.5250000000001
 20
25.0
 30
0.0
 11
344.5250000000001
 21
17.0
 31
0.0
  0
TEXT
  5
4D623
330
4D50F
100
AcDbEntity
  8
0
 62
     0
100
AcDbText
 10
323.943481
 20
22.57499999999991
 30
0.0
 40
2.0
  1
DRAWN
  7
BIGFONT
100
AcDbText
  0
TEXT
  5
4D624
330
4D50F
100
AcDbEntity
  8
0
 62
     0
100
AcDbText
 10
323.943481
 20
14.57499999999991
 30
0.0
 40
2.0
  1
DWG. NO.
  7
BIGFONT
100
AcDbText
  0
TEXT
  5
4D625
330
4D50F
100
AcDbEntity
  8
0
 62
     0
100
AcDbText
 10
344.4281310000001
 20
22.61124400000017
 30
0.0
 40
2.0
  1
CHECKED
  7
BIGFONT
100
AcDbText
  0
LINE
  5
4D626
330
4D50F
100
AcDbEntity
  8
0
 62
     0
100
AcDbLine
 10
323.4749999999999
 20
33.0
 30
0.0
 11
323.4749999999999
 21
9.0
 31
0.0
  0
LINE
  5
4D627
330
4D50F
100
AcDbEntity
  8
0
 62
     0
100
AcDbLine
 10
323.5250000000001
 20
33.0
 30
0.0
 11
323.5250000000001
 21
9.0
 31
0.0
  0
TEXT
  5
4D628
330
4D50F
100
AcDbEntity
  8
0
 62
     0
100
AcDbText
 10
365.671509
 20
30.1
 30
0.0
 40
2.0
  1
SCALE
  7
BIGFONT
100
AcDbText
  0
TEXT
  5
4D629
330
4D50F
100
AcDbEntity
  8
0
 62
     0
100
AcDbText
 10
393.743011
 20
30.1
 30
0.0
 40
2.0
  1
FILE NO.
  7
BIGFONT
100
AcDbText
  0
TEXT
  5
4D62A
330
4D50F
100
AcDbEntity
  8
0
 62
     0
100
AcDbText
 10
365.671509
 20
22.57499999999991
 30
0.0
 40
2.0
  1
APPROVED
  7
BIGFONT
100
AcDbText
  0
LINE
  5
4D62B
330
4D50F
100
AcDbEntity
  8
0
 62
     0
100
AcDbLine
 10
365.4749999999999
 20
17.0
 30
0.0
 11
365.4749999999999
 21
33.0
 31
0.0
  0
LINE
  5
4D62C
330
4D50F
100
AcDbEntity
  8
0
 62
     0
100
AcDbLine
 10
365.5250000000001
 20
17.0
 30
0.0
 11
365.5250000000001
 21
33.0
 31
0.0
  0
LINE
  5
4D62D
330
4D50F
100
AcDbEntity
  8
0
 62
     0
100
AcDbLine
 10
393.4749999999999
 20
33.0
 30
0.0
 11
393.4749999999999
 21
9.0
 31
0.0
  0
LINE
  5
4D62E
330
4D50F
100
AcDbEntity
  8
0
 62
     0
100
AcDbLine
 10
393.5250000000001
 20
33.0
 30
0.0
 11
393.5250000000001
 21
9.0
 31
0.0
  0
LINE
  5
4D62F
330
4D50F
100
AcDbEntity
  8
0
 62
     0
100
AcDbLine
 10
21.5
 20
286.5999999999999
 30
0.0
 11
408.0
 21
286.5999999999999
 31
0.0
  0
LINE
  5
4D630
330
4D50F
100
AcDbEntity
  8
0
 62
     0
100
AcDbLine
 10
21.5
 20
286.5500000000002
 30
0.0
 11
408.0
 21
286.5500000000002
 31
0.0
  0
LINE
  5
4D631
330
4D50F
100
AcDbEntity
  8
0
 62
     0
100
AcDbLine
 10
21.5
 20
286.5
 30
0.0
 11
408.0
 21
286.5
 31
0.0
  0
LINE
  5
4D632
330
4D50F
100
AcDbEntity
  8
0
 62
     0
100
AcDbLine
 10
21.5
 20
286.4499999999998
 30
0.0
 11
408.0
 21
286.4499999999998
 31
0.0
  0
LINE
  5
4D633
330
4D50F
100
AcDbEntity
  8
0
 62
     0
100
AcDbLine
 10
21.5
 20
286.0
 30
0.0
 11
408.0
 21
286.0
 31
0.0
  0
LINE
  5
4D634
330
4D50F
100
AcDbEntity
  8
0
 62
     0
100
AcDbLine
 10
21.5
 20
286.0500000000002
 30
0.0
 11
408.0
 21
286.0500000000002
 31
0.0
  0
LINE
  5
4D635
330
4D50F
100
AcDbEntity
  8
0
 62
     0
100
AcDbLine
 10
21.5
 20
286.0999999999999
 30
0.0
 11
408.0
 21
286.0999999999999
 31
0.0
  0
LINE
  5
4D636
330
4D50F
100
AcDbEntity
  8
0
 62
     0
100
AcDbLine
 10
21.5
 20
286.1999999999998
 30
0.0
 11
408.0
 21
286.1999999999998
 31
0.0
  0
LINE
  5
4D637
330
4D50F
100
AcDbEntity
  8
0
 62
     0
100
AcDbLine
 10
21.5
 20
286.3000000000002
 30
0.0
 11
408.0
 21
286.3000000000002
 31
0.0
  0
LINE
  5
4D638
330
4D50F
100
AcDbEntity
  8
0
 62
     0
100
AcDbLine
 10
21.5
 20
286.4000000000001
 30
0.0
 11
408.0
 21
286.4000000000001
 31
0.0
  0
LINE
  5
4D639
330
4D50F
100
AcDbEntity
  8
0
 62
     0
100
AcDbLine
 10
21.5
 20
285.5999999999999
 30
0.0
 11
408.0
 21
285.5999999999999
 31
0.0
  0
LINE
  5
4D63A
330
4D50F
100
AcDbEntity
  8
0
 62
     0
100
AcDbLine
 10
21.5
 20
285.6999999999998
 30
0.0
 11
408.0
 21
285.6999999999998
 31
0.0
  0
LINE
  5
4D63B
330
4D50F
100
AcDbEntity
  8
0
 62
     0
100
AcDbLine
 10
21.5
 20
285.75
 30
0.0
 11
408.0
 21
285.75
 31
0.0
  0
LINE
  5
4D63C
330
4D50F
100
AcDbEntity
  8
0
 62
     0
100
AcDbLine
 10
21.5
 20
285.8000000000002
 30
0.0
 11
408.0
 21
285.8000000000002
 31
0.0
  0
LINE
  5
4D63D
330
4D50F
100
AcDbEntity
  8
0
 62
     0
100
AcDbLine
 10
21.5
 20
285.8499999999999
 30
0.0
 11
408.0
 21
285.8499999999999
 31
0.0
  0
LINE
  5
4D63E
330
4D50F
100
AcDbEntity
  8
0
 62
     0
100
AcDbLine
 10
21.5
 20
285.9000000000001
 30
0.0
 11
408.0
 21
285.9000000000001
 31
0.0
  0
LINE
  5
4D63F
330
4D50F
100
AcDbEntity
  8
0
 62
     0
100
AcDbLine
 10
21.5
 20
285.9499999999998
 30
0.0
 11
408.0
 21
285.9499999999998
 31
0.0
  0
LINE
  5
4D640
330
4D50F
100
AcDbEntity
  8
0
 62
     0
100
AcDbLine
 10
408.0
 20
286.3499999999999
 30
0.0
 11
21.5
 21
286.3499999999999
 31
0.0
  0
LINE
  5
4D641
330
4D50F
100
AcDbEntity
  8
0
 62
     0
100
AcDbLine
 10
408.0
 20
286.25
 30
0.0
 11
21.5
 21
286.25
 31
0.0
  0
LINE
  5
4D642
330
4D50F
100
AcDbEntity
  8
0
 62
     0
100
AcDbLine
 10
408.0
 20
286.1500000000001
 30
0.0
 11
21.5
 21
286.1500000000001
 31
0.0
  0
LINE
  5
4D643
330
4D50F
100
AcDbEntity
  8
0
 62
     0
100
AcDbLine
 10
408.0
 20
285.6500000000001
 30
0.0
 11
21.5
 21
285.6500000000001
 31
0.0
  0
LINE
  5
4D644
330
4D50F
100
AcDbEntity
  8
DEFPOINTS
 62
     0
100
AcDbLine
 10
0.0
 20
297.0
 30
0.0
 11
420.0
 21
297.0
 31
0.0
  0
LINE
  5
4D645
330
4D50F
100
AcDbEntity
  8
0
 62
     0
100
AcDbLine
 10
21.97403199999985
 20
160.136628
 30
0.0
 11
22.68662799999993
 21
159.4240320000002
 31
0.0
  0
LINE
  5
4D646
330
4D50F
100
AcDbEntity
  8
0
 62
     0
100
AcDbLine
 10
22.03491199999985
 20
160.1464589999999
 30
0.0
 11
22.69645899999978
 21
159.4849120000002
 31
0.0
  0
LINE
  5
4D647
330
4D50F
100
AcDbEntity
  8
0
 62
     0
100
AcDbLine
 10
22.10208499999999
 20
160.1499959999999
 30
0.0
 11
22.69999599999983
 21
159.5520850000001
 31
0.0
  0
LINE
  5
4D648
330
4D50F
100
AcDbEntity
  8
0
 62
     0
100
AcDbLine
 10
22.17786599999999
 20
160.1449260000002
 30
0.0
 11
22.6949259999999
 21
159.6278660000001
 31
0.0
  0
LINE
  5
4D649
330
4D50F
100
AcDbEntity
  8
0
 62
     0
100
AcDbLine
 10
22.26729899999987
 20
160.1262039999999
 30
0.0
 11
22.67620399999987
 21
159.7172990000002
 31
0.0
  0
LINE
  5
4D64A
330
4D50F
100
AcDbEntity
  8
0
 62
     0
100
AcDbLine
 10
22.38767400000006
 20
160.0765389999999
 30
0.0
 11
22.62653899999987
 21
159.8376740000001
 31
0.0
  0
LINE
  5
4D64B
330
4D50F
100
AcDbEntity
  8
0
 62
     0
100
AcDbLine
 10
21.97403199999985
 20
158.963372
 30
0.0
 11
22.68662799999993
 21
159.6759679999998
 31
0.0
  0
LINE
  5
4D64C
330
4D50F
100
AcDbEntity
  8
0
 62
     0
100
AcDbLine
 10
22.03491199999985
 20
158.9535410000001
 30
0.0
 11
22.69645899999978
 21
159.6150879999998
 31
0.0
  0
LINE
  5
4D64D
330
4D50F
100
AcDbEntity
  8
0
 62
     0
100
AcDbLine
 10
22.10208499999999
 20
158.9500040000001
 30
0.0
 11
22.69999599999983
 21
159.5479149999999
 31
0.0
  0
LINE
  5
4D64E
330
4D50F
100
AcDbEntity
  8
0
 62
     0
100
AcDbLine
 10
22.17786599999999
 20
158.9550739999998
 30
0.0
 11
22.6949259999999
 21
159.4721339999999
 31
0.0
  0
LINE
  5
4D64F
330
4D50F
100
AcDbEntity
  8
0
 62
     0
100
AcDbLine
 10
22.26729899999987
 20
158.973796
 30
0.0
 11
22.67620399999987
 21
159.3827009999998
 31
0.0
  0
LINE
  5
4D650
330
4D50F
100
AcDbEntity
  8
0
 62
     0
100
AcDbLine
 10
22.38767400000006
 20
159.023461
 30
0.0
 11
22.62653899999987
 21
159.2623259999998
 31
0.0
  0
LINE
  5
4D651
330
4D50F
100
AcDbEntity
  8
0
 62
     0
100
AcDbLine
 10
21.57100999999989
 20
159.2668579999998
 30
0.0
 11
21.81685799999991
 21
159.0210100000002
 31
0.0
  0
LINE
  5
4D652
330
4D50F
100
AcDbEntity
  8
0
 62
     0
100
AcDbLine
 10
21.57100999999989
 20
159.8331420000002
 30
0.0
 11
21.81685799999991
 21
160.0789899999998
 31
0.0
  0
LINE
  5
4D653
330
4D50F
100
AcDbEntity
  8
0
 62
     0
100
AcDbLine
 10
21.5
 20
159.55
 30
0.0
 11
22.09999999999991
 21
158.9500000000001
 31
0.0
  0
LINE
  5
4D654
330
4D50F
100
AcDbEntity
  8
0
 62
     0
100
AcDbLine
 10
21.50374799999986
 20
159.6169619999999
 30
0.0
 11
22.16696199999978
 21
158.9537480000002
 31
0.0
  0
LINE
  5
4D655
330
4D50F
100
AcDbEntity
  8
0
 62
     0
100
AcDbLine
 10
21.51374199999987
 20
159.6776790000002
 30
0.0
 11
22.22767899999985
 21
158.9637420000002
 31
0.0
  0
LINE
  5
4D656
330
4D50F
100
AcDbEntity
  8
0
 62
     0
100
AcDbLine
 10
21.5287209999999
 20
159.733411
 30
0.0
 11
22.28341099999989
 21
158.9787210000002
 31
0.0
  0
LINE
  5
4D657
330
4D50F
100
AcDbEntity
  8
0
 62
     0
100
AcDbLine
 10
21.54790800000001
 20
159.7849349999999
 30
0.0
 11
22.33493499999986
 21
158.9979080000001
 31
0.0
  0
LINE
  5
4D658
330
4D50F
100
AcDbEntity
  8
0
 62
     0
100
AcDbLine
 10
21.57080099999985
 20
159.8327520000001
 30
0.0
 11
22.38275199999998
 21
159.0208009999999
 31
0.0
  0
LINE
  5
4D659
330
4D50F
100
AcDbEntity
  8
0
 62
     0
100
AcDbLine
 10
21.59706699999992
 20
159.8771970000001
 30
0.0
 11
22.42719699999998
 21
159.0470669999998
 31
0.0
  0
LINE
  5
4D65A
330
4D50F
100
AcDbEntity
  8
0
 62
     0
100
AcDbLine
 10
21.62648599999989
 20
159.9184889999999
 30
0.0
 11
22.46848899999986
 21
159.0764860000002
 31
0.0
  0
LINE
  5
4D65B
330
4D50F
100
AcDbEntity
  8
0
 62
     0
100
AcDbLine
 10
21.65892600000006
 20
159.9567599999998
 30
0.0
 11
22.50675999999999
 21
159.1089260000001
 31
0.0
  0
LINE
  5
4D65C
330
4D50F
100
AcDbEntity
  8
0
 62
     0
100
AcDbLine
 10
21.69432400000005
 20
159.9920719999998
 30
0.0
 11
22.54207199999996
 21
159.1443240000001
 31
0.0
  0
LINE
  5
4D65D
330
4D50F
100
AcDbEntity
  8
0
 62
     0
100
AcDbLine
 10
21.73268299999995
 20
160.024424
 30
0.0
 11
22.57442399999991
 21
159.1826829999998
 31
0.0
  0
LINE
  5
4D65E
330
4D50F
100
AcDbEntity
  8
0
 62
     0
100
AcDbLine
 10
21.77406499999984
 20
160.0537520000001
 30
0.0
 11
22.60375199999999
 21
159.2240650000001
 31
0.0
  0
LINE
  5
4D65F
330
4D50F
100
AcDbEntity
  8
0
 62
     0
100
AcDbLine
 10
21.81860599999982
 20
160.0799220000002
 30
0.0
 11
22.62992199999985
 21
159.2686059999999
 31
0.0
  0
LINE
  5
4D660
330
4D50F
100
AcDbEntity
  8
0
 62
     0
100
AcDbLine
 10
21.86652699999991
 20
160.1027120000001
 30
0.0
 11
22.65271200000007
 21
159.3165270000002
 31
0.0
  0
LINE
  5
4D661
330
4D50F
100
AcDbEntity
  8
0
 62
     0
100
AcDbLine
 10
21.91816599999993
 20
160.1217840000002
 30
0.0
 11
22.67178399999989
 21
159.368166
 31
0.0
  0
LINE
  5
4D662
330
4D50F
100
AcDbEntity
  8
0
 62
     0
100
AcDbLine
 10
21.50476600000002
 20
159.4745230000001
 30
0.0
 11
22.02452300000004
 21
158.9547660000001
 31
0.0
  0
LINE
  5
4D663
330
4D50F
100
AcDbEntity
  8
0
 62
     0
100
AcDbLine
 10
21.52295599999979
 20
159.3856229999999
 30
0.0
 11
21.93562299999985
 21
158.9729559999999
 31
0.0
  0
LINE
  5
4D664
330
4D50F
100
AcDbEntity
  8
0
 62
     0
100
AcDbLine
 10
21.5
 20
159.55
 30
0.0
 11
22.09999999999991
 21
160.1499999999999
 31
0.0
  0
LINE
  5
4D665
330
4D50F
100
AcDbEntity
  8
0
 62
     0
100
AcDbLine
 10
21.50374799999986
 20
159.4830380000001
 30
0.0
 11
22.16696199999978
 21
160.1462519999998
 31
0.0
  0
LINE
  5
4D666
330
4D50F
100
AcDbEntity
  8
0
 62
     0
100
AcDbLine
 10
21.51374199999987
 20
159.4223209999998
 30
0.0
 11
22.22767899999985
 21
160.1362579999998
 31
0.0
  0
LINE
  5
4D667
330
4D50F
100
AcDbEntity
  8
0
 62
     0
100
AcDbLine
 10
21.5287209999999
 20
159.366589
 30
0.0
 11
22.28341099999989
 21
160.1212789999998
 31
0.0
  0
LINE
  5
4D668
330
4D50F
100
AcDbEntity
  8
0
 62
     0
100
AcDbLine
 10
21.54790800000001
 20
159.315065
 30
0.0
 11
22.33493499999986
 21
160.1020919999999
 31
0.0
  0
LINE
  5
4D669
330
4D50F
100
AcDbEntity
  8
0
 62
     0
100
AcDbLine
 10
21.57080099999985
 20
159.2672479999999
 30
0.0
 11
22.38275199999998
 21
160.079199
 31
0.0
  0
LINE
  5
4D66A
330
4D50F
100
AcDbEntity
  8
0
 62
     0
100
AcDbLine
 10
21.59706699999992
 20
159.2228029999999
 30
0.0
 11
22.42719699999998
 21
160.0529330000002
 31
0.0
  0
LINE
  5
4D66B
330
4D50F
100
AcDbEntity
  8
0
 62
     0
100
AcDbLine
 10
21.62648599999989
 20
159.181511
 30
0.0
 11
22.46848899999986
 21
160.0235139999998
 31
0.0
  0
LINE
  5
4D66C
330
4D50F
100
AcDbEntity
  8
0
 62
     0
100
AcDbLine
 10
21.65892600000006
 20
159.1432400000001
 30
0.0
 11
22.50675999999999
 21
159.9910739999998
 31
0.0
  0
LINE
  5
4D66D
330
4D50F
100
AcDbEntity
  8
0
 62
     0
100
AcDbLine
 10
21.69432400000005
 20
159.1079280000002
 30
0.0
 11
22.54207199999996
 21
159.9556759999998
 31
0.0
  0
LINE
  5
4D66E
330
4D50F
100
AcDbEntity
  8
0
 62
     0
100
AcDbLine
 10
21.73268299999995
 20
159.075576
 30
0.0
 11
22.57442399999991
 21
159.9173170000002
 31
0.0
  0
LINE
  5
4D66F
330
4D50F
100
AcDbEntity
  8
0
 62
     0
100
AcDbLine
 10
21.77406499999984
 20
159.0462479999999
 30
0.0
 11
22.60375199999999
 21
159.8759349999998
 31
0.0
  0
LINE
  5
4D670
330
4D50F
100
AcDbEntity
  8
0
 62
     0
100
AcDbLine
 10
21.81860599999982
 20
159.0200779999998
 30
0.0
 11
22.62992199999985
 21
159.8313940000001
 31
0.0
  0
LINE
  5
4D671
330
4D50F
100
AcDbEntity
  8
0
 62
     0
100
AcDbLine
 10
21.86652699999991
 20
158.9972879999998
 30
0.0
 11
22.65271200000007
 21
159.7834729999998
 31
0.0
  0
LINE
  5
4D672
330
4D50F
100
AcDbEntity
  8
0
 62
     0
100
AcDbLine
 10
21.91816599999993
 20
158.9782159999998
 30
0.0
 11
22.67178399999989
 21
159.731834
 31
0.0
  0
LINE
  5
4D673
330
4D50F
100
AcDbEntity
  8
0
 62
     0
100
AcDbLine
 10
21.50476600000002
 20
159.6254769999998
 30
0.0
 11
22.02452300000004
 21
160.1452339999999
 31
0.0
  0
LINE
  5
4D674
330
4D50F
100
AcDbEntity
  8
0
 62
     0
100
AcDbLine
 10
21.52295599999979
 20
159.714377
 30
0.0
 11
21.93562299999985
 21
160.1270440000001
 31
0.0
  0
LINE
  5
4D675
330
4D50F
100
AcDbEntity
  8
0
 62
     0
100
AcDbLine
 10
21.76123700000007
 20
279.27484
 30
0.0
 11
22.27516000000005
 21
279.788763
 31
0.0
  0
LINE
  5
4D676
330
4D50F
100
AcDbEntity
  8
0
 62
     0
100
AcDbLine
 10
21.81602199999988
 20
279.2589149999999
 30
0.0
 11
22.29108499999997
 21
279.7339780000002
 31
0.0
  0
LINE
  5
4D677
330
4D50F
100
AcDbEntity
  8
0
 62
     0
100
AcDbLine
 10
21.87840099999985
 20
279.2505839999999
 30
0.0
 11
22.29941599999997
 21
279.6715989999998
 31
0.0
  0
LINE
  5
4D678
330
4D50F
100
AcDbEntity
  8
0
 62
     0
100
AcDbLine
 10
21.95191100000002
 20
279.2533830000002
 30
0.0
 11
22.29661699999988
 21
279.5980890000001
 31
0.0
  0
LINE
  5
4D679
330
4D50F
100
AcDbEntity
  8
0
 62
     0
100
AcDbLine
 10
22.04737999999988
 20
279.2781409999998
 30
0.0
 11
22.27185899999986
 21
279.5026200000002
 31
0.0
  0
LINE
  5
4D67A
330
4D50F
100
AcDbEntity
  8
0
 62
     0
100
AcDbLine
 10
21.76123700000007
 20
280.0251600000001
 30
0.0
 11
22.27516000000005
 21
279.5112370000002
 31
0.0
  0
LINE
  5
4D67B
330
4D50F
100
AcDbEntity
  8
0
 62
     0
100
AcDbLine
 10
21.81602199999988
 20
280.0410849999998
 30
0.0
 11
22.29108499999997
 21
279.566022
 31
0.0
  0
LINE
  5
4D67C
330
4D50F
100
AcDbEntity
  8
0
 62
     0
100
AcDbLine
 10
21.87840099999985
 20
280.0494159999998
 30
0.0
 11
22.29941599999997
 21
279.6284009999999
 31
0.0
  0
LINE
  5
4D67D
330
4D50F
100
AcDbEntity
  8
0
 62
     0
100
AcDbLine
 10
21.95191100000002
 20
280.046617
 30
0.0
 11
22.29661699999988
 21
279.7019110000001
 31
0.0
  0
LINE
  5
4D67E
330
4D50F
100
AcDbEntity
  8
0
 62
     0
100
AcDbLine
 10
22.04737999999988
 20
280.0218589999999
 30
0.0
 11
22.27185899999986
 21
279.79738
 31
0.0
  0
LINE
  5
4D67F
330
4D50F
100
AcDbEntity
  8
0
 62
     0
100
AcDbLine
 10
21.54733999999998
 20
279.838761
 30
0.0
 11
21.71123900000011
 21
280.0026600000001
 31
0.0
  0
LINE
  5
4D680
330
4D50F
100
AcDbEntity
  8
0
 62
     0
100
AcDbLine
 10
21.54733999999998
 20
279.4612390000002
 30
0.0
 11
21.71123900000011
 21
279.2973400000001
 31
0.0
  0
LINE
  5
4D681
330
4D50F
100
AcDbEntity
  8
0
 62
     0
100
AcDbLine
 10
21.49999999999991
 20
279.6500000000001
 30
0.0
 11
21.9
 21
280.0500000000002
 31
0.0
  0
LINE
  5
4D682
330
4D50F
100
AcDbEntity
  8
0
 62
     0
100
AcDbLine
 10
21.50777600000006
 20
279.728486
 30
0.0
 11
21.82151400000011
 21
280.0422239999998
 31
0.0
  0
LINE
  5
4D683
330
4D50F
100
AcDbEntity
  8
0
 62
     0
100
AcDbLine
 10
21.50537199999999
 20
279.5846620000002
 30
0.0
 11
21.96533799999988
 21
280.0446280000001
 31
0.0
  0
LINE
  5
4D684
330
4D50F
100
AcDbEntity
  8
0
 62
     0
100
AcDbLine
 10
21.51914699999988
 20
279.5277259999998
 30
0.0
 11
22.02227400000006
 21
280.0308530000002
 31
0.0
  0
LINE
  5
4D685
330
4D50F
100
AcDbEntity
  8
0
 62
     0
100
AcDbLine
 10
21.53927699999999
 20
279.4771449999998
 30
0.0
 11
22.07285500000003
 21
280.0107229999999
 31
0.0
  0
LINE
  5
4D686
330
4D50F
100
AcDbEntity
  8
0
 62
     0
100
AcDbLine
 10
21.5647109999999
 20
279.4318680000001
 30
0.0
 11
22.11813199999997
 21
279.9852890000002
 31
0.0
  0
LINE
  5
4D687
330
4D50F
100
AcDbEntity
  8
0
 62
     0
100
AcDbLine
 10
21.59488899999987
 20
279.3913360000001
 30
0.0
 11
22.15866399999995
 21
279.9551110000002
 31
0.0
  0
LINE
  5
4D688
330
4D50F
100
AcDbEntity
  8
0
 62
     0
100
AcDbLine
 10
21.62955000000002
 20
279.355286
 30
0.0
 11
22.19471400000011
 21
279.9204500000001
 31
0.0
  0
LINE
  5
4D689
330
4D50F
100
AcDbEntity
  8
0
 62
     0
100
AcDbLine
 10
21.66865999999995
 20
279.3236849999998
 30
0.0
 11
22.22631500000002
 21
279.8813399999999
 31
0.0
  0
LINE
  5
4D68A
330
4D50F
100
AcDbEntity
  8
0
 62
     0
100
AcDbLine
 10
21.71240400000001
 20
279.2967189999999
 30
0.0
 11
22.25328100000015
 21
279.8375959999998
 31
0.0
  0
LINE
  5
4D68B
330
4D50F
100
AcDbEntity
  8
0
 62
     0
100
AcDbLine
 10
21.49999999999991
 20
279.6500000000001
 30
0.0
 11
21.9
 21
279.25
 31
0.0
  0
LINE
  5
4D68C
330
4D50F
100
AcDbEntity
  8
0
 62
     0
100
AcDbLine
 10
21.50537199999999
 20
279.715338
 30
0.0
 11
21.96533799999988
 21
279.2553720000001
 31
0.0
  0
LINE
  5
4D68D
330
4D50F
100
AcDbEntity
  8
0
 62
     0
100
AcDbLine
 10
21.51914699999988
 20
279.7722739999999
 30
0.0
 11
22.02227400000006
 21
279.269147
 31
0.0
  0
LINE
  5
4D68E
330
4D50F
100
AcDbEntity
  8
0
 62
     0
100
AcDbLine
 10
21.53927699999999
 20
279.8228549999999
 30
0.0
 11
22.07285500000003
 21
279.2892769999999
 31
0.0
  0
LINE
  5
4D68F
330
4D50F
100
AcDbEntity
  8
0
 62
     0
100
AcDbLine
 10
21.5647109999999
 20
279.8681320000001
 30
0.0
 11
22.11813199999997
 21
279.314711
 31
0.0
  0
LINE
  5
4D690
330
4D50F
100
AcDbEntity
  8
0
 62
     0
100
AcDbLine
 10
21.59488899999987
 20
279.908664
 30
0.0
 11
22.15866399999995
 21
279.344889
 31
0.0
  0
LINE
  5
4D691
330
4D50F
100
AcDbEntity
  8
0
 62
     0
100
AcDbLine
 10
21.62955000000002
 20
279.9447140000002
 30
0.0
 11
22.19471400000011
 21
279.3795500000001
 31
0.0
  0
LINE
  5
4D692
330
4D50F
100
AcDbEntity
  8
0
 62
     0
100
AcDbLine
 10
21.66865999999995
 20
279.9763149999999
 30
0.0
 11
22.22631500000002
 21
279.4186599999998
 31
0.0
  0
LINE
  5
4D693
330
4D50F
100
AcDbEntity
  8
0
 62
     0
100
AcDbLine
 10
21.71240400000001
 20
280.0032810000002
 30
0.0
 11
22.25328100000015
 21
279.4624039999999
 31
0.0
  0
LINE
  5
4D694
330
4D50F
100
AcDbEntity
  8
0
 62
     0
100
AcDbLine
 10
21.50777600000006
 20
279.5715140000002
 30
0.0
 11
21.82151400000011
 21
279.2577759999999
 31
0.0
  0
LINE
  5
4D695
330
4D50F
100
AcDbEntity
  8
0
 62
     0
100
AcDbLine
 10
21.76123700000007
 20
273.27484
 30
0.0
 11
22.27516000000005
 21
273.788763
 31
0.0
  0
LINE
  5
4D696
330
4D50F
100
AcDbEntity
  8
0
 62
     0
100
AcDbLine
 10
21.81602199999988
 20
273.2589149999999
 30
0.0
 11
22.29108499999997
 21
273.7339780000002
 31
0.0
  0
LINE
  5
4D697
330
4D50F
100
AcDbEntity
  8
0
 62
     0
100
AcDbLine
 10
21.87840099999985
 20
273.2505839999999
 30
0.0
 11
22.29941599999997
 21
273.6715989999998
 31
0.0
  0
LINE
  5
4D698
330
4D50F
100
AcDbEntity
  8
0
 62
     0
100
AcDbLine
 10
21.95191100000002
 20
273.2533830000002
 30
0.0
 11
22.29661699999988
 21
273.5980890000001
 31
0.0
  0
LINE
  5
4D699
330
4D50F
100
AcDbEntity
  8
0
 62
     0
100
AcDbLine
 10
22.04737999999988
 20
273.2781409999998
 30
0.0
 11
22.27185899999986
 21
273.5026200000002
 31
0.0
  0
LINE
  5
4D69A
330
4D50F
100
AcDbEntity
  8
0
 62
     0
100
AcDbLine
 10
21.76123700000007
 20
274.0251600000001
 30
0.0
 11
22.27516000000005
 21
273.5112370000002
 31
0.0
  0
LINE
  5
4D69B
330
4D50F
100
AcDbEntity
  8
0
 62
     0
100
AcDbLine
 10
21.81602199999988
 20
274.0410849999998
 30
0.0
 11
22.29108499999997
 21
273.566022
 31
0.0
  0
LINE
  5
4D69C
330
4D50F
100
AcDbEntity
  8
0
 62
     0
100
AcDbLine
 10
21.87840099999985
 20
274.0494159999998
 30
0.0
 11
22.29941599999997
 21
273.6284009999999
 31
0.0
  0
LINE
  5
4D69D
330
4D50F
100
AcDbEntity
  8
0
 62
     0
100
AcDbLine
 10
21.95191100000002
 20
274.046617
 30
0.0
 11
22.29661699999988
 21
273.7019110000001
 31
0.0
  0
LINE
  5
4D69E
330
4D50F
100
AcDbEntity
  8
0
 62
     0
100
AcDbLine
 10
22.04737999999988
 20
274.0218589999999
 30
0.0
 11
22.27185899999986
 21
273.79738
 31
0.0
  0
LINE
  5
4D69F
330
4D50F
100
AcDbEntity
  8
0
 62
     0
100
AcDbLine
 10
21.76123700000007
 20
267.27484
 30
0.0
 11
22.27516000000005
 21
267.788763
 31
0.0
  0
LINE
  5
4D6A0
330
4D50F
100
AcDbEntity
  8
0
 62
     0
100
AcDbLine
 10
21.81602199999988
 20
267.2589149999999
 30
0.0
 11
22.29108499999997
 21
267.7339780000002
 31
0.0
  0
LINE
  5
4D6A1
330
4D50F
100
AcDbEntity
  8
0
 62
     0
100
AcDbLine
 10
21.87840099999985
 20
267.2505839999999
 30
0.0
 11
22.29941599999997
 21
267.6715989999998
 31
0.0
  0
LINE
  5
4D6A2
330
4D50F
100
AcDbEntity
  8
0
 62
     0
100
AcDbLine
 10
21.95191100000002
 20
267.2533830000002
 30
0.0
 11
22.29661699999988
 21
267.5980890000001
 31
0.0
  0
LINE
  5
4D6A3
330
4D50F
100
AcDbEntity
  8
0
 62
     0
100
AcDbLine
 10
22.04737999999988
 20
267.2781409999998
 30
0.0
 11
22.27185899999986
 21
267.5026200000002
 31
0.0
  0
LINE
  5
4D6A4
330
4D50F
100
AcDbEntity
  8
0
 62
     0
100
AcDbLine
 10
21.76123700000007
 20
268.0251600000001
 30
0.0
 11
22.27516000000005
 21
267.5112370000002
 31
0.0
  0
LINE
  5
4D6A5
330
4D50F
100
AcDbEntity
  8
0
 62
     0
100
AcDbLine
 10
21.81602199999988
 20
268.0410849999998
 30
0.0
 11
22.29108499999997
 21
267.566022
 31
0.0
  0
LINE
  5
4D6A6
330
4D50F
100
AcDbEntity
  8
0
 62
     0
100
AcDbLine
 10
21.87840099999985
 20
268.0494159999998
 30
0.0
 11
22.29941599999997
 21
267.6284009999999
 31
0.0
  0
LINE
  5
4D6A7
330
4D50F
100
AcDbEntity
  8
0
 62
     0
100
AcDbLine
 10
21.95191100000002
 20
268.046617
 30
0.0
 11
22.29661699999988
 21
267.7019110000001
 31
0.0
  0
LINE
  5
4D6A8
330
4D50F
100
AcDbEntity
  8
0
 62
     0
100
AcDbLine
 10
22.04737999999988
 20
268.0218589999999
 30
0.0
 11
22.27185899999986
 21
267.79738
 31
0.0
  0
LINE
  5
4D6A9
330
4D50F
100
AcDbEntity
  8
0
 62
     0
100
AcDbLine
 10
21.54733999999998
 20
273.838761
 30
0.0
 11
21.71123900000011
 21
274.0026600000001
 31
0.0
  0
LINE
  5
4D6AA
330
4D50F
100
AcDbEntity
  8
0
 62
     0
100
AcDbLine
 10
21.54733999999998
 20
273.4612390000002
 30
0.0
 11
21.71123900000011
 21
273.2973400000001
 31
0.0
  0
LINE
  5
4D6AB
330
4D50F
100
AcDbEntity
  8
0
 62
     0
100
AcDbLine
 10
21.54733999999998
 20
267.838761
 30
0.0
 11
21.71123900000011
 21
268.0026600000001
 31
0.0
  0
LINE
  5
4D6AC
330
4D50F
100
AcDbEntity
  8
0
 62
     0
100
AcDbLine
 10
21.54733999999998
 20
267.4612390000002
 30
0.0
 11
21.71123900000011
 21
267.2973400000001
 31
0.0
  0
LINE
  5
4D6AD
330
4D50F
100
AcDbEntity
  8
0
 62
     0
100
AcDbLine
 10
21.49999999999991
 20
273.6500000000001
 30
0.0
 11
21.9
 21
274.0500000000002
 31
0.0
  0
LINE
  5
4D6AE
330
4D50F
100
AcDbEntity
  8
0
 62
     0
100
AcDbLine
 10
21.50777600000006
 20
273.728486
 30
0.0
 11
21.82151400000011
 21
274.0422239999998
 31
0.0
  0
LINE
  5
4D6AF
330
4D50F
100
AcDbEntity
  8
0
 62
     0
100
AcDbLine
 10
21.50537199999999
 20
273.5846620000002
 30
0.0
 11
21.96533799999988
 21
274.0446280000001
 31
0.0
  0
LINE
  5
4D6B0
330
4D50F
100
AcDbEntity
  8
0
 62
     0
100
AcDbLine
 10
21.51914699999988
 20
273.5277259999998
 30
0.0
 11
22.02227400000006
 21
274.0308530000002
 31
0.0
  0
LINE
  5
4D6B1
330
4D50F
100
AcDbEntity
  8
0
 62
     0
100
AcDbLine
 10
21.53927699999999
 20
273.4771449999998
 30
0.0
 11
22.07285500000003
 21
274.0107229999999
 31
0.0
  0
LINE
  5
4D6B2
330
4D50F
100
AcDbEntity
  8
0
 62
     0
100
AcDbLine
 10
21.5647109999999
 20
273.4318680000001
 30
0.0
 11
22.11813199999997
 21
273.9852890000002
 31
0.0
  0
LINE
  5
4D6B3
330
4D50F
100
AcDbEntity
  8
0
 62
     0
100
AcDbLine
 10
21.59488899999987
 20
273.3913360000001
 30
0.0
 11
22.15866399999995
 21
273.9551110000002
 31
0.0
  0
LINE
  5
4D6B4
330
4D50F
100
AcDbEntity
  8
0
 62
     0
100
AcDbLine
 10
21.62955000000002
 20
273.355286
 30
0.0
 11
22.19471400000011
 21
273.9204500000001
 31
0.0
  0
LINE
  5
4D6B5
330
4D50F
100
AcDbEntity
  8
0
 62
     0
100
AcDbLine
 10
21.66865999999995
 20
273.3236849999998
 30
0.0
 11
22.22631500000002
 21
273.8813399999999
 31
0.0
  0
LINE
  5
4D6B6
330
4D50F
100
AcDbEntity
  8
0
 62
     0
100
AcDbLine
 10
21.71240400000001
 20
273.2967189999999
 30
0.0
 11
22.25328100000015
 21
273.8375959999998
 31
0.0
  0
LINE
  5
4D6B7
330
4D50F
100
AcDbEntity
  8
0
 62
     0
100
AcDbLine
 10
21.49999999999991
 20
273.6500000000001
 30
0.0
 11
21.9
 21
273.25
 31
0.0
  0
LINE
  5
4D6B8
330
4D50F
100
AcDbEntity
  8
0
 62
     0
100
AcDbLine
 10
21.50537199999999
 20
273.715338
 30
0.0
 11
21.96533799999988
 21
273.2553720000001
 31
0.0
  0
LINE
  5
4D6B9
330
4D50F
100
AcDbEntity
  8
0
 62
     0
100
AcDbLine
 10
21.51914699999988
 20
273.7722739999999
 30
0.0
 11
22.02227400000006
 21
273.269147
 31
0.0
  0
LINE
  5
4D6BA
330
4D50F
100
AcDbEntity
  8
0
 62
     0
100
AcDbLine
 10
21.53927699999999
 20
273.8228549999999
 30
0.0
 11
22.07285500000003
 21
273.2892769999999
 31
0.0
  0
LINE
  5
4D6BB
330
4D50F
100
AcDbEntity
  8
0
 62
     0
100
AcDbLine
 10
21.5647109999999
 20
273.8681320000001
 30
0.0
 11
22.11813199999997
 21
273.314711
 31
0.0
  0
LINE
  5
4D6BC
330
4D50F
100
AcDbEntity
  8
0
 62
     0
100
AcDbLine
 10
21.59488899999987
 20
273.908664
 30
0.0
 11
22.15866399999995
 21
273.344889
 31
0.0
  0
LINE
  5
4D6BD
330
4D50F
100
AcDbEntity
  8
0
 62
     0
100
AcDbLine
 10
21.62955000000002
 20
273.9447140000002
 30
0.0
 11
22.19471400000011
 21
273.3795500000001
 31
0.0
  0
LINE
  5
4D6BE
330
4D50F
100
AcDbEntity
  8
0
 62
     0
100
AcDbLine
 10
21.66865999999995
 20
273.9763149999999
 30
0.0
 11
22.22631500000002
 21
273.4186599999998
 31
0.0
  0
LINE
  5
4D6BF
330
4D50F
100
AcDbEntity
  8
0
 62
     0
100
AcDbLine
 10
21.71240400000001
 20
274.0032809999998
 30
0.0
 11
22.25328100000015
 21
273.4624039999999
 31
0.0
  0
LINE
  5
4D6C0
330
4D50F
100
AcDbEntity
  8
0
 62
     0
100
AcDbLine
 10
21.50777600000006
 20
273.5715140000002
 30
0.0
 11
21.82151400000011
 21
273.2577759999999
 31
0.0
  0
LINE
  5
4D6C1
330
4D50F
100
AcDbEntity
  8
0
 62
     0
100
AcDbLine
 10
21.49999999999991
 20
267.6500000000001
 30
0.0
 11
21.9
 21
268.0500000000002
 31
0.0
  0
LINE
  5
4D6C2
330
4D50F
100
AcDbEntity
  8
0
 62
     0
100
AcDbLine
 10
21.50777600000006
 20
267.728486
 30
0.0
 11
21.82151400000011
 21
268.0422239999998
 31
0.0
  0
LINE
  5
4D6C3
330
4D50F
100
AcDbEntity
  8
0
 62
     0
100
AcDbLine
 10
21.50537199999999
 20
267.5846620000002
 30
0.0
 11
21.96533799999988
 21
268.0446280000001
 31
0.0
  0
LINE
  5
4D6C4
330
4D50F
100
AcDbEntity
  8
0
 62
     0
100
AcDbLine
 10
21.51914699999988
 20
267.5277259999998
 30
0.0
 11
22.02227400000006
 21
268.0308530000002
 31
0.0
  0
LINE
  5
4D6C5
330
4D50F
100
AcDbEntity
  8
0
 62
     0
100
AcDbLine
 10
21.53927699999999
 20
267.4771449999998
 30
0.0
 11
22.07285500000003
 21
268.0107229999999
 31
0.0
  0
LINE
  5
4D6C6
330
4D50F
100
AcDbEntity
  8
0
 62
     0
100
AcDbLine
 10
21.5647109999999
 20
267.4318680000001
 30
0.0
 11
22.11813199999997
 21
267.9852890000002
 31
0.0
  0
LINE
  5
4D6C7
330
4D50F
100
AcDbEntity
  8
0
 62
     0
100
AcDbLine
 10
21.59488899999987
 20
267.3913360000001
 30
0.0
 11
22.15866399999995
 21
267.9551110000002
 31
0.0
  0
LINE
  5
4D6C8
330
4D50F
100
AcDbEntity
  8
0
 62
     0
100
AcDbLine
 10
21.62955000000002
 20
267.355286
 30
0.0
 11
22.19471400000011
 21
267.9204500000001
 31
0.0
  0
LINE
  5
4D6C9
330
4D50F
100
AcDbEntity
  8
0
 62
     0
100
AcDbLine
 10
21.66865999999995
 20
267.3236849999998
 30
0.0
 11
22.22631500000002
 21
267.8813399999999
 31
0.0
  0
LINE
  5
4D6CA
330
4D50F
100
AcDbEntity
  8
0
 62
     0
100
AcDbLine
 10
21.71240400000001
 20
267.2967189999999
 30
0.0
 11
22.25328100000015
 21
267.8375959999998
 31
0.0
  0
LINE
  5
4D6CB
330
4D50F
100
AcDbEntity
  8
0
 62
     0
100
AcDbLine
 10
21.49999999999991
 20
267.6500000000001
 30
0.0
 11
21.9
 21
267.25
 31
0.0
  0
LINE
  5
4D6CC
330
4D50F
100
AcDbEntity
  8
0
 62
     0
100
AcDbLine
 10
21.50537199999999
 20
267.715338
 30
0.0
 11
21.96533799999988
 21
267.2553720000001
 31
0.0
  0
LINE
  5
4D6CD
330
4D50F
100
AcDbEntity
  8
0
 62
     0
100
AcDbLine
 10
21.51914699999988
 20
267.7722739999999
 30
0.0
 11
22.02227400000006
 21
267.269147
 31
0.0
  0
LINE
  5
4D6CE
330
4D50F
100
AcDbEntity
  8
0
 62
     0
100
AcDbLine
 10
21.53927699999999
 20
267.8228549999999
 30
0.0
 11
22.07285500000003
 21
267.2892769999999
 31
0.0
  0
LINE
  5
4D6CF
330
4D50F
100
AcDbEntity
  8
0
 62
     0
100
AcDbLine
 10
21.5647109999999
 20
267.8681320000001
 30
0.0
 11
22.11813199999997
 21
267.314711
 31
0.0
  0
LINE
  5
4D6D0
330
4D50F
100
AcDbEntity
  8
0
 62
     0
100
AcDbLine
 10
21.59488899999987
 20
267.908664
 30
0.0
 11
22.15866399999995
 21
267.344889
 31
0.0
  0
LINE
  5
4D6D1
330
4D50F
100
AcDbEntity
  8
0
 62
     0
100
AcDbLine
 10
21.62955000000002
 20
267.9447140000002
 30
0.0
 11
22.19471400000011
 21
267.3795500000001
 31
0.0
  0
LINE
  5
4D6D2
330
4D50F
100
AcDbEntity
  8
0
 62
     0
100
AcDbLine
 10
21.66865999999995
 20
267.9763149999999
 30
0.0
 11
22.22631500000002
 21
267.4186599999998
 31
0.0
  0
LINE
  5
4D6D3
330
4D50F
100
AcDbEntity
  8
0
 62
     0
100
AcDbLine
 10
21.71240400000001
 20
268.0032809999998
 30
0.0
 11
22.25328100000015
 21
267.4624039999999
 31
0.0
  0
LINE
  5
4D6D4
330
4D50F
100
AcDbEntity
  8
0
 62
     0
100
AcDbLine
 10
21.50777600000006
 20
267.5715140000002
 30
0.0
 11
21.82151400000011
 21
267.2577759999999
 31
0.0
  0
LINE
  5
4D6D5
330
4D50F
100
AcDbEntity
  8
0
 62
     0
100
AcDbLine
 10
21.76123700000007
 20
261.27484
 30
0.0
 11
22.27516000000005
 21
261.788763
 31
0.0
  0
LINE
  5
4D6D6
330
4D50F
100
AcDbEntity
  8
0
 62
     0
100
AcDbLine
 10
21.81602199999988
 20
261.2589149999999
 30
0.0
 11
22.29108499999997
 21
261.7339780000002
 31
0.0
  0
LINE
  5
4D6D7
330
4D50F
100
AcDbEntity
  8
0
 62
     0
100
AcDbLine
 10
21.87840099999985
 20
261.2505839999999
 30
0.0
 11
22.29941599999997
 21
261.6715989999998
 31
0.0
  0
LINE
  5
4D6D8
330
4D50F
100
AcDbEntity
  8
0
 62
     0
100
AcDbLine
 10
21.95191100000002
 20
261.2533830000002
 30
0.0
 11
22.29661699999988
 21
261.5980890000001
 31
0.0
  0
LINE
  5
4D6D9
330
4D50F
100
AcDbEntity
  8
0
 62
     0
100
AcDbLine
 10
22.04737999999988
 20
261.2781409999998
 30
0.0
 11
22.27185899999986
 21
261.5026200000002
 31
0.0
  0
LINE
  5
4D6DA
330
4D50F
100
AcDbEntity
  8
0
 62
     0
100
AcDbLine
 10
21.76123700000007
 20
262.0251600000001
 30
0.0
 11
22.27516000000005
 21
261.5112370000002
 31
0.0
  0
LINE
  5
4D6DB
330
4D50F
100
AcDbEntity
  8
0
 62
     0
100
AcDbLine
 10
21.81602199999988
 20
262.0410849999998
 30
0.0
 11
22.29108499999997
 21
261.566022
 31
0.0
  0
LINE
  5
4D6DC
330
4D50F
100
AcDbEntity
  8
0
 62
     0
100
AcDbLine
 10
21.87840099999985
 20
262.0494159999998
 30
0.0
 11
22.29941599999997
 21
261.6284009999999
 31
0.0
  0
LINE
  5
4D6DD
330
4D50F
100
AcDbEntity
  8
0
 62
     0
100
AcDbLine
 10
21.95191100000002
 20
262.046617
 30
0.0
 11
22.29661699999988
 21
261.7019110000001
 31
0.0
  0
LINE
  5
4D6DE
330
4D50F
100
AcDbEntity
  8
0
 62
     0
100
AcDbLine
 10
22.04737999999988
 20
262.0218589999999
 30
0.0
 11
22.27185899999986
 21
261.79738
 31
0.0
  0
LINE
  5
4D6DF
330
4D50F
100
AcDbEntity
  8
0
 62
     0
100
AcDbLine
 10
21.76123700000007
 20
255.27484
 30
0.0
 11
22.27516000000005
 21
255.788763
 31
0.0
  0
LINE
  5
4D6E0
330
4D50F
100
AcDbEntity
  8
0
 62
     0
100
AcDbLine
 10
21.81602199999988
 20
255.2589149999999
 30
0.0
 11
22.29108499999997
 21
255.7339780000002
 31
0.0
  0
LINE
  5
4D6E1
330
4D50F
100
AcDbEntity
  8
0
 62
     0
100
AcDbLine
 10
21.87840099999985
 20
255.2505839999999
 30
0.0
 11
22.29941599999997
 21
255.6715989999998
 31
0.0
  0
LINE
  5
4D6E2
330
4D50F
100
AcDbEntity
  8
0
 62
     0
100
AcDbLine
 10
21.95191100000002
 20
255.2533830000002
 30
0.0
 11
22.29661699999988
 21
255.5980890000001
 31
0.0
  0
LINE
  5
4D6E3
330
4D50F
100
AcDbEntity
  8
0
 62
     0
100
AcDbLine
 10
22.04737999999988
 20
255.2781409999998
 30
0.0
 11
22.27185899999986
 21
255.5026200000002
 31
0.0
  0
LINE
  5
4D6E4
330
4D50F
100
AcDbEntity
  8
0
 62
     0
100
AcDbLine
 10
21.76123700000007
 20
256.0251600000001
 30
0.0
 11
22.27516000000005
 21
255.5112370000002
 31
0.0
  0
LINE
  5
4D6E5
330
4D50F
100
AcDbEntity
  8
0
 62
     0
100
AcDbLine
 10
21.81602199999988
 20
256.0410849999998
 30
0.0
 11
22.29108499999997
 21
255.566022
 31
0.0
  0
LINE
  5
4D6E6
330
4D50F
100
AcDbEntity
  8
0
 62
     0
100
AcDbLine
 10
21.87840099999985
 20
256.0494159999998
 30
0.0
 11
22.29941599999997
 21
255.6284009999999
 31
0.0
  0
LINE
  5
4D6E7
330
4D50F
100
AcDbEntity
  8
0
 62
     0
100
AcDbLine
 10
21.95191100000002
 20
256.046617
 30
0.0
 11
22.29661699999988
 21
255.7019110000001
 31
0.0
  0
LINE
  5
4D6E8
330
4D50F
100
AcDbEntity
  8
0
 62
     0
100
AcDbLine
 10
22.04737999999988
 20
256.0218589999999
 30
0.0
 11
22.27185899999986
 21
255.79738
 31
0.0
  0
LINE
  5
4D6E9
330
4D50F
100
AcDbEntity
  8
0
 62
     0
100
AcDbLine
 10
21.54733999999998
 20
261.838761
 30
0.0
 11
21.71123900000011
 21
262.0026600000001
 31
0.0
  0
LINE
  5
4D6EA
330
4D50F
100
AcDbEntity
  8
0
 62
     0
100
AcDbLine
 10
21.54733999999998
 20
261.4612390000002
 30
0.0
 11
21.71123900000011
 21
261.2973400000001
 31
0.0
  0
LINE
  5
4D6EB
330
4D50F
100
AcDbEntity
  8
0
 62
     0
100
AcDbLine
 10
21.54733999999998
 20
255.838761
 30
0.0
 11
21.71123900000011
 21
256.0026600000001
 31
0.0
  0
LINE
  5
4D6EC
330
4D50F
100
AcDbEntity
  8
0
 62
     0
100
AcDbLine
 10
21.54733999999998
 20
255.4612390000002
 30
0.0
 11
21.71123900000011
 21
255.2973400000001
 31
0.0
  0
LINE
  5
4D6ED
330
4D50F
100
AcDbEntity
  8
0
 62
     0
100
AcDbLine
 10
21.49999999999991
 20
261.6500000000001
 30
0.0
 11
21.9
 21
262.0500000000002
 31
0.0
  0
LINE
  5
4D6EE
330
4D50F
100
AcDbEntity
  8
0
 62
     0
100
AcDbLine
 10
21.50777600000006
 20
261.728486
 30
0.0
 11
21.82151400000011
 21
262.0422239999998
 31
0.0
  0
LINE
  5
4D6EF
330
4D50F
100
AcDbEntity
  8
0
 62
     0
100
AcDbLine
 10
21.50537199999999
 20
261.5846620000002
 30
0.0
 11
21.96533799999988
 21
262.0446280000001
 31
0.0
  0
LINE
  5
4D6F0
330
4D50F
100
AcDbEntity
  8
0
 62
     0
100
AcDbLine
 10
21.51914699999988
 20
261.5277259999998
 30
0.0
 11
22.02227400000006
 21
262.0308530000002
 31
0.0
  0
LINE
  5
4D6F1
330
4D50F
100
AcDbEntity
  8
0
 62
     0
100
AcDbLine
 10
21.53927699999999
 20
261.4771449999998
 30
0.0
 11
22.07285500000003
 21
262.0107229999999
 31
0.0
  0
LINE
  5
4D6F2
330
4D50F
100
AcDbEntity
  8
0
 62
     0
100
AcDbLine
 10
21.5647109999999
 20
261.4318680000001
 30
0.0
 11
22.11813199999997
 21
261.9852890000002
 31
0.0
  0
LINE
  5
4D6F3
330
4D50F
100
AcDbEntity
  8
0
 62
     0
100
AcDbLine
 10
21.59488899999987
 20
261.3913360000001
 30
0.0
 11
22.15866399999995
 21
261.9551110000002
 31
0.0
  0
LINE
  5
4D6F4
330
4D50F
100
AcDbEntity
  8
0
 62
     0
100
AcDbLine
 10
21.62955000000002
 20
261.355286
 30
0.0
 11
22.19471400000011
 21
261.9204500000001
 31
0.0
  0
LINE
  5
4D6F5
330
4D50F
100
AcDbEntity
  8
0
 62
     0
100
AcDbLine
 10
21.66865999999995
 20
261.3236849999998
 30
0.0
 11
22.22631500000002
 21
261.8813399999999
 31
0.0
  0
LINE
  5
4D6F6
330
4D50F
100
AcDbEntity
  8
0
 62
     0
100
AcDbLine
 10
21.71240400000001
 20
261.2967189999999
 30
0.0
 11
22.25328100000015
 21
261.8375959999998
 31
0.0
  0
LINE
  5
4D6F7
330
4D50F
100
AcDbEntity
  8
0
 62
     0
100
AcDbLine
 10
21.49999999999991
 20
261.6500000000001
 30
0.0
 11
21.9
 21
261.25
 31
0.0
  0
LINE
  5
4D6F8
330
4D50F
100
AcDbEntity
  8
0
 62
     0
100
AcDbLine
 10
21.50537199999999
 20
261.715338
 30
0.0
 11
21.96533799999988
 21
261.2553720000001
 31
0.0
  0
LINE
  5
4D6F9
330
4D50F
100
AcDbEntity
  8
0
 62
     0
100
AcDbLine
 10
21.51914699999988
 20
261.7722739999999
 30
0.0
 11
22.02227400000006
 21
261.269147
 31
0.0
  0
LINE
  5
4D6FA
330
4D50F
100
AcDbEntity
  8
0
 62
     0
100
AcDbLine
 10
21.53927699999999
 20
261.8228549999999
 30
0.0
 11
22.07285500000003
 21
261.2892769999999
 31
0.0
  0
LINE
  5
4D6FB
330
4D50F
100
AcDbEntity
  8
0
 62
     0
100
AcDbLine
 10
21.5647109999999
 20
261.8681320000001
 30
0.0
 11
22.11813199999997
 21
261.314711
 31
0.0
  0
LINE
  5
4D6FC
330
4D50F
100
AcDbEntity
  8
0
 62
     0
100
AcDbLine
 10
21.59488899999987
 20
261.908664
 30
0.0
 11
22.15866399999995
 21
261.344889
 31
0.0
  0
LINE
  5
4D6FD
330
4D50F
100
AcDbEntity
  8
0
 62
     0
100
AcDbLine
 10
21.62955000000002
 20
261.9447140000002
 30
0.0
 11
22.19471400000011
 21
261.3795500000001
 31
0.0
  0
LINE
  5
4D6FE
330
4D50F
100
AcDbEntity
  8
0
 62
     0
100
AcDbLine
 10
21.66865999999995
 20
261.9763149999999
 30
0.0
 11
22.22631500000002
 21
261.4186599999998
 31
0.0
  0
LINE
  5
4D6FF
330
4D50F
100
AcDbEntity
  8
0
 62
     0
100
AcDbLine
 10
21.71240400000001
 20
262.0032809999998
 30
0.0
 11
22.25328100000015
 21
261.4624039999999
 31
0.0
  0
LINE
  5
4D700
330
4D50F
100
AcDbEntity
  8
0
 62
     0
100
AcDbLine
 10
21.50777600000006
 20
261.5715140000002
 30
0.0
 11
21.82151400000011
 21
261.2577759999999
 31
0.0
  0
LINE
  5
4D701
330
4D50F
100
AcDbEntity
  8
0
 62
     0
100
AcDbLine
 10
21.49999999999991
 20
255.6500000000001
 30
0.0
 11
21.9
 21
256.0500000000002
 31
0.0
  0
LINE
  5
4D702
330
4D50F
100
AcDbEntity
  8
0
 62
     0
100
AcDbLine
 10
21.50777600000006
 20
255.728486
 30
0.0
 11
21.82151400000011
 21
256.0422239999998
 31
0.0
  0
LINE
  5
4D703
330
4D50F
100
AcDbEntity
  8
0
 62
     0
100
AcDbLine
 10
21.50537199999999
 20
255.5846620000002
 30
0.0
 11
21.96533799999988
 21
256.0446280000001
 31
0.0
  0
LINE
  5
4D704
330
4D50F
100
AcDbEntity
  8
0
 62
     0
100
AcDbLine
 10
21.51914699999988
 20
255.5277259999998
 30
0.0
 11
22.02227400000006
 21
256.0308530000002
 31
0.0
  0
LINE
  5
4D705
330
4D50F
100
AcDbEntity
  8
0
 62
     0
100
AcDbLine
 10
21.53927699999999
 20
255.4771449999998
 30
0.0
 11
22.07285500000003
 21
256.0107229999999
 31
0.0
  0
LINE
  5
4D706
330
4D50F
100
AcDbEntity
  8
0
 62
     0
100
AcDbLine
 10
21.5647109999999
 20
255.4318680000001
 30
0.0
 11
22.11813199999997
 21
255.9852890000002
 31
0.0
  0
LINE
  5
4D707
330
4D50F
100
AcDbEntity
  8
0
 62
     0
100
AcDbLine
 10
21.59488899999987
 20
255.3913360000001
 30
0.0
 11
22.15866399999995
 21
255.9551110000002
 31
0.0
  0
LINE
  5
4D708
330
4D50F
100
AcDbEntity
  8
0
 62
     0
100
AcDbLine
 10
21.62955000000002
 20
255.355286
 30
0.0
 11
22.19471400000011
 21
255.9204500000001
 31
0.0
  0
LINE
  5
4D709
330
4D50F
100
AcDbEntity
  8
0
 62
     0
100
AcDbLine
 10
21.66865999999995
 20
255.3236849999998
 30
0.0
 11
22.22631500000002
 21
255.8813399999999
 31
0.0
  0
LINE
  5
4D70A
330
4D50F
100
AcDbEntity
  8
0
 62
     0
100
AcDbLine
 10
21.71240400000001
 20
255.2967189999999
 30
0.0
 11
22.25328100000015
 21
255.8375959999998
 31
0.0
  0
LINE
  5
4D70B
330
4D50F
100
AcDbEntity
  8
0
 62
     0
100
AcDbLine
 10
21.49999999999991
 20
255.6500000000001
 30
0.0
 11
21.9
 21
255.25
 31
0.0
  0
LINE
  5
4D70C
330
4D50F
100
AcDbEntity
  8
0
 62
     0
100
AcDbLine
 10
21.50537199999999
 20
255.715338
 30
0.0
 11
21.96533799999988
 21
255.2553720000001
 31
0.0
  0
LINE
  5
4D70D
330
4D50F
100
AcDbEntity
  8
0
 62
     0
100
AcDbLine
 10
21.51914699999988
 20
255.7722739999999
 30
0.0
 11
22.02227400000006
 21
255.269147
 31
0.0
  0
LINE
  5
4D70E
330
4D50F
100
AcDbEntity
  8
0
 62
     0
100
AcDbLine
 10
21.53927699999999
 20
255.8228549999999
 30
0.0
 11
22.07285500000003
 21
255.2892769999999
 31
0.0
  0
LINE
  5
4D70F
330
4D50F
100
AcDbEntity
  8
0
 62
     0
100
AcDbLine
 10
21.5647109999999
 20
255.8681320000001
 30
0.0
 11
22.11813199999997
 21
255.314711
 31
0.0
  0
LINE
  5
4D710
330
4D50F
100
AcDbEntity
  8
0
 62
     0
100
AcDbLine
 10
21.59488899999987
 20
255.908664
 30
0.0
 11
22.15866399999995
 21
255.344889
 31
0.0
  0
LINE
  5
4D711
330
4D50F
100
AcDbEntity
  8
0
 62
     0
100
AcDbLine
 10
21.62955000000002
 20
255.9447140000002
 30
0.0
 11
22.19471400000011
 21
255.3795500000001
 31
0.0
  0
LINE
  5
4D712
330
4D50F
100
AcDbEntity
  8
0
 62
     0
100
AcDbLine
 10
21.66865999999995
 20
255.9763149999999
 30
0.0
 11
22.22631500000002
 21
255.4186599999998
 31
0.0
  0
LINE
  5
4D713
330
4D50F
100
AcDbEntity
  8
0
 62
     0
100
AcDbLine
 10
21.71240400000001
 20
256.0032809999998
 30
0.0
 11
22.25328100000015
 21
255.4624039999999
 31
0.0
  0
LINE
  5
4D714
330
4D50F
100
AcDbEntity
  8
0
 62
     0
100
AcDbLine
 10
21.50777600000006
 20
255.5715140000002
 30
0.0
 11
21.82151400000011
 21
255.2577759999999
 31
0.0
  0
LINE
  5
4D715
330
4D50F
100
AcDbEntity
  8
0
 62
     0
100
AcDbLine
 10
21.76123700000007
 20
249.27484
 30
0.0
 11
22.27516000000005
 21
249.788763
 31
0.0
  0
LINE
  5
4D716
330
4D50F
100
AcDbEntity
  8
0
 62
     0
100
AcDbLine
 10
21.81602199999988
 20
249.2589149999999
 30
0.0
 11
22.29108499999997
 21
249.7339780000002
 31
0.0
  0
LINE
  5
4D717
330
4D50F
100
AcDbEntity
  8
0
 62
     0
100
AcDbLine
 10
21.87840099999985
 20
249.2505839999999
 30
0.0
 11
22.29941599999997
 21
249.6715989999998
 31
0.0
  0
LINE
  5
4D718
330
4D50F
100
AcDbEntity
  8
0
 62
     0
100
AcDbLine
 10
21.95191100000002
 20
249.2533830000002
 30
0.0
 11
22.29661699999988
 21
249.5980890000001
 31
0.0
  0
LINE
  5
4D719
330
4D50F
100
AcDbEntity
  8
0
 62
     0
100
AcDbLine
 10
22.04737999999988
 20
249.2781409999998
 30
0.0
 11
22.27185899999986
 21
249.5026200000002
 31
0.0
  0
LINE
  5
4D71A
330
4D50F
100
AcDbEntity
  8
0
 62
     0
100
AcDbLine
 10
21.76123700000007
 20
250.0251600000001
 30
0.0
 11
22.27516000000005
 21
249.5112370000002
 31
0.0
  0
LINE
  5
4D71B
330
4D50F
100
AcDbEntity
  8
0
 62
     0
100
AcDbLine
 10
21.81602199999988
 20
250.0410849999998
 30
0.0
 11
22.29108499999997
 21
249.566022
 31
0.0
  0
LINE
  5
4D71C
330
4D50F
100
AcDbEntity
  8
0
 62
     0
100
AcDbLine
 10
21.87840099999985
 20
250.0494159999998
 30
0.0
 11
22.29941599999997
 21
249.6284009999999
 31
0.0
  0
LINE
  5
4D71D
330
4D50F
100
AcDbEntity
  8
0
 62
     0
100
AcDbLine
 10
21.95191100000002
 20
250.046617
 30
0.0
 11
22.29661699999988
 21
249.7019110000001
 31
0.0
  0
LINE
  5
4D71E
330
4D50F
100
AcDbEntity
  8
0
 62
     0
100
AcDbLine
 10
22.04737999999988
 20
250.0218589999999
 30
0.0
 11
22.27185899999986
 21
249.79738
 31
0.0
  0
LINE
  5
4D71F
330
4D50F
100
AcDbEntity
  8
0
 62
     0
100
AcDbLine
 10
21.76123700000007
 20
243.27484
 30
0.0
 11
22.27516000000005
 21
243.788763
 31
0.0
  0
LINE
  5
4D720
330
4D50F
100
AcDbEntity
  8
0
 62
     0
100
AcDbLine
 10
21.81602199999988
 20
243.2589149999999
 30
0.0
 11
22.29108499999997
 21
243.7339780000002
 31
0.0
  0
LINE
  5
4D721
330
4D50F
100
AcDbEntity
  8
0
 62
     0
100
AcDbLine
 10
21.87840099999985
 20
243.2505839999999
 30
0.0
 11
22.29941599999997
 21
243.6715989999998
 31
0.0
  0
LINE
  5
4D722
330
4D50F
100
AcDbEntity
  8
0
 62
     0
100
AcDbLine
 10
21.95191100000002
 20
243.2533830000002
 30
0.0
 11
22.29661699999988
 21
243.5980890000001
 31
0.0
  0
LINE
  5
4D723
330
4D50F
100
AcDbEntity
  8
0
 62
     0
100
AcDbLine
 10
22.04737999999988
 20
243.2781409999998
 30
0.0
 11
22.27185899999986
 21
243.5026200000002
 31
0.0
  0
LINE
  5
4D724
330
4D50F
100
AcDbEntity
  8
0
 62
     0
100
AcDbLine
 10
21.76123700000007
 20
244.0251600000001
 30
0.0
 11
22.27516000000005
 21
243.5112370000002
 31
0.0
  0
LINE
  5
4D725
330
4D50F
100
AcDbEntity
  8
0
 62
     0
100
AcDbLine
 10
21.81602199999988
 20
244.0410849999998
 30
0.0
 11
22.29108499999997
 21
243.566022
 31
0.0
  0
LINE
  5
4D726
330
4D50F
100
AcDbEntity
  8
0
 62
     0
100
AcDbLine
 10
21.87840099999985
 20
244.0494159999998
 30
0.0
 11
22.29941599999997
 21
243.6284009999999
 31
0.0
  0
LINE
  5
4D727
330
4D50F
100
AcDbEntity
  8
0
 62
     0
100
AcDbLine
 10
21.95191100000002
 20
244.046617
 30
0.0
 11
22.29661699999988
 21
243.7019110000001
 31
0.0
  0
LINE
  5
4D728
330
4D50F
100
AcDbEntity
  8
0
 62
     0
100
AcDbLine
 10
22.04737999999988
 20
244.0218589999999
 30
0.0
 11
22.27185899999986
 21
243.79738
 31
0.0
  0
LINE
  5
4D729
330
4D50F
100
AcDbEntity
  8
0
 62
     0
100
AcDbLine
 10
21.54733999999998
 20
249.838761
 30
0.0
 11
21.71123900000011
 21
250.0026600000001
 31
0.0
  0
LINE
  5
4D72A
330
4D50F
100
AcDbEntity
  8
0
 62
     0
100
AcDbLine
 10
21.54733999999998
 20
249.4612390000002
 30
0.0
 11
21.71123900000011
 21
249.2973400000001
 31
0.0
  0
LINE
  5
4D72B
330
4D50F
100
AcDbEntity
  8
0
 62
     0
100
AcDbLine
 10
21.54733999999998
 20
243.838761
 30
0.0
 11
21.71123900000011
 21
244.0026600000001
 31
0.0
  0
LINE
  5
4D72C
330
4D50F
100
AcDbEntity
  8
0
 62
     0
100
AcDbLine
 10
21.54733999999998
 20
243.4612390000002
 30
0.0
 11
21.71123900000011
 21
243.2973400000001
 31
0.0
  0
LINE
  5
4D72D
330
4D50F
100
AcDbEntity
  8
0
 62
     0
100
AcDbLine
 10
21.49999999999991
 20
249.6500000000001
 30
0.0
 11
21.9
 21
250.0500000000002
 31
0.0
  0
LINE
  5
4D72E
330
4D50F
100
AcDbEntity
  8
0
 62
     0
100
AcDbLine
 10
21.50777600000006
 20
249.728486
 30
0.0
 11
21.82151400000011
 21
250.0422239999998
 31
0.0
  0
LINE
  5
4D72F
330
4D50F
100
AcDbEntity
  8
0
 62
     0
100
AcDbLine
 10
21.50537199999999
 20
249.5846620000002
 30
0.0
 11
21.96533799999988
 21
250.0446280000001
 31
0.0
  0
LINE
  5
4D730
330
4D50F
100
AcDbEntity
  8
0
 62
     0
100
AcDbLine
 10
21.51914699999988
 20
249.5277259999998
 30
0.0
 11
22.02227400000006
 21
250.0308530000002
 31
0.0
  0
LINE
  5
4D731
330
4D50F
100
AcDbEntity
  8
0
 62
     0
100
AcDbLine
 10
21.53927699999999
 20
249.4771449999998
 30
0.0
 11
22.07285500000003
 21
250.0107229999999
 31
0.0
  0
LINE
  5
4D732
330
4D50F
100
AcDbEntity
  8
0
 62
     0
100
AcDbLine
 10
21.5647109999999
 20
249.4318680000001
 30
0.0
 11
22.11813199999997
 21
249.9852890000002
 31
0.0
  0
LINE
  5
4D733
330
4D50F
100
AcDbEntity
  8
0
 62
     0
100
AcDbLine
 10
21.59488899999987
 20
249.3913360000001
 30
0.0
 11
22.15866399999995
 21
249.9551110000002
 31
0.0
  0
LINE
  5
4D734
330
4D50F
100
AcDbEntity
  8
0
 62
     0
100
AcDbLine
 10
21.62955000000002
 20
249.355286
 30
0.0
 11
22.19471400000011
 21
249.9204500000001
 31
0.0
  0
LINE
  5
4D735
330
4D50F
100
AcDbEntity
  8
0
 62
     0
100
AcDbLine
 10
21.66865999999995
 20
249.3236849999998
 30
0.0
 11
22.22631500000002
 21
249.8813399999999
 31
0.0
  0
LINE
  5
4D736
330
4D50F
100
AcDbEntity
  8
0
 62
     0
100
AcDbLine
 10
21.71240400000001
 20
249.2967189999999
 30
0.0
 11
22.25328100000015
 21
249.8375959999998
 31
0.0
  0
LINE
  5
4D737
330
4D50F
100
AcDbEntity
  8
0
 62
     0
100
AcDbLine
 10
21.49999999999991
 20
249.6500000000001
 30
0.0
 11
21.9
 21
249.25
 31
0.0
  0
LINE
  5
4D738
330
4D50F
100
AcDbEntity
  8
0
 62
     0
100
AcDbLine
 10
21.50537199999999
 20
249.715338
 30
0.0
 11
21.96533799999988
 21
249.2553720000001
 31
0.0
  0
LINE
  5
4D739
330
4D50F
100
AcDbEntity
  8
0
 62
     0
100
AcDbLine
 10
21.51914699999988
 20
249.7722739999999
 30
0.0
 11
22.02227400000006
 21
249.269147
 31
0.0
  0
LINE
  5
4D73A
330
4D50F
100
AcDbEntity
  8
0
 62
     0
100
AcDbLine
 10
21.53927699999999
 20
249.8228549999999
 30
0.0
 11
22.07285500000003
 21
249.2892769999999
 31
0.0
  0
LINE
  5
4D73B
330
4D50F
100
AcDbEntity
  8
0
 62
     0
100
AcDbLine
 10
21.5647109999999
 20
249.8681320000001
 30
0.0
 11
22.11813199999997
 21
249.314711
 31
0.0
  0
LINE
  5
4D73C
330
4D50F
100
AcDbEntity
  8
0
 62
     0
100
AcDbLine
 10
21.59488899999987
 20
249.908664
 30
0.0
 11
22.15866399999995
 21
249.344889
 31
0.0
  0
LINE
  5
4D73D
330
4D50F
100
AcDbEntity
  8
0
 62
     0
100
AcDbLine
 10
21.62955000000002
 20
249.9447140000002
 30
0.0
 11
22.19471400000011
 21
249.3795500000001
 31
0.0
  0
LINE
  5
4D73E
330
4D50F
100
AcDbEntity
  8
0
 62
     0
100
AcDbLine
 10
21.66865999999995
 20
249.9763149999999
 30
0.0
 11
22.22631500000002
 21
249.4186599999998
 31
0.0
  0
LINE
  5
4D73F
330
4D50F
100
AcDbEntity
  8
0
 62
     0
100
AcDbLine
 10
21.71240400000001
 20
250.0032809999998
 30
0.0
 11
22.25328100000015
 21
249.4624039999999
 31
0.0
  0
LINE
  5
4D740
330
4D50F
100
AcDbEntity
  8
0
 62
     0
100
AcDbLine
 10
21.50777600000006
 20
249.5715140000002
 30
0.0
 11
21.82151400000011
 21
249.2577759999999
 31
0.0
  0
LINE
  5
4D741
330
4D50F
100
AcDbEntity
  8
0
 62
     0
100
AcDbLine
 10
21.49999999999991
 20
243.6500000000001
 30
0.0
 11
21.9
 21
244.0500000000002
 31
0.0
  0
LINE
  5
4D742
330
4D50F
100
AcDbEntity
  8
0
 62
     0
100
AcDbLine
 10
21.50777600000006
 20
243.728486
 30
0.0
 11
21.82151400000011
 21
244.0422239999998
 31
0.0
  0
LINE
  5
4D743
330
4D50F
100
AcDbEntity
  8
0
 62
     0
100
AcDbLine
 10
21.50537199999999
 20
243.5846620000002
 30
0.0
 11
21.96533799999988
 21
244.0446280000001
 31
0.0
  0
LINE
  5
4D744
330
4D50F
100
AcDbEntity
  8
0
 62
     0
100
AcDbLine
 10
21.51914699999988
 20
243.5277259999998
 30
0.0
 11
22.02227400000006
 21
244.0308530000002
 31
0.0
  0
LINE
  5
4D745
330
4D50F
100
AcDbEntity
  8
0
 62
     0
100
AcDbLine
 10
21.53927699999999
 20
243.4771449999998
 30
0.0
 11
22.07285500000003
 21
244.0107229999999
 31
0.0
  0
LINE
  5
4D746
330
4D50F
100
AcDbEntity
  8
0
 62
     0
100
AcDbLine
 10
21.5647109999999
 20
243.4318680000001
 30
0.0
 11
22.11813199999997
 21
243.9852890000002
 31
0.0
  0
LINE
  5
4D747
330
4D50F
100
AcDbEntity
  8
0
 62
     0
100
AcDbLine
 10
21.59488899999987
 20
243.3913360000001
 30
0.0
 11
22.15866399999995
 21
243.9551110000002
 31
0.0
  0
LINE
  5
4D748
330
4D50F
100
AcDbEntity
  8
0
 62
     0
100
AcDbLine
 10
21.62955000000002
 20
243.355286
 30
0.0
 11
22.19471400000011
 21
243.9204500000001
 31
0.0
  0
LINE
  5
4D749
330
4D50F
100
AcDbEntity
  8
0
 62
     0
100
AcDbLine
 10
21.66865999999995
 20
243.3236849999998
 30
0.0
 11
22.22631500000002
 21
243.8813399999999
 31
0.0
  0
LINE
  5
4D74A
330
4D50F
100
AcDbEntity
  8
0
 62
     0
100
AcDbLine
 10
21.71240400000001
 20
243.2967189999999
 30
0.0
 11
22.25328100000015
 21
243.8375959999998
 31
0.0
  0
LINE
  5
4D74B
330
4D50F
100
AcDbEntity
  8
0
 62
     0
100
AcDbLine
 10
21.49999999999991
 20
243.6500000000001
 30
0.0
 11
21.9
 21
243.25
 31
0.0
  0
LINE
  5
4D74C
330
4D50F
100
AcDbEntity
  8
0
 62
     0
100
AcDbLine
 10
21.50537199999999
 20
243.715338
 30
0.0
 11
21.96533799999988
 21
243.2553720000001
 31
0.0
  0
LINE
  5
4D74D
330
4D50F
100
AcDbEntity
  8
0
 62
     0
100
AcDbLine
 10
21.51914699999988
 20
243.7722739999999
 30
0.0
 11
22.02227400000006
 21
243.269147
 31
0.0
  0
LINE
  5
4D74E
330
4D50F
100
AcDbEntity
  8
0
 62
     0
100
AcDbLine
 10
21.53927699999999
 20
243.8228549999999
 30
0.0
 11
22.07285500000003
 21
243.2892769999999
 31
0.0
  0
LINE
  5
4D74F
330
4D50F
100
AcDbEntity
  8
0
 62
     0
100
AcDbLine
 10
21.5647109999999
 20
243.8681320000001
 30
0.0
 11
22.11813199999997
 21
243.314711
 31
0.0
  0
LINE
  5
4D750
330
4D50F
100
AcDbEntity
  8
0
 62
     0
100
AcDbLine
 10
21.59488899999987
 20
243.908664
 30
0.0
 11
22.15866399999995
 21
243.344889
 31
0.0
  0
LINE
  5
4D751
330
4D50F
100
AcDbEntity
  8
0
 62
     0
100
AcDbLine
 10
21.62955000000002
 20
243.9447140000002
 30
0.0
 11
22.19471400000011
 21
243.3795500000001
 31
0.0
  0
LINE
  5
4D752
330
4D50F
100
AcDbEntity
  8
0
 62
     0
100
AcDbLine
 10
21.66865999999995
 20
243.9763149999999
 30
0.0
 11
22.22631500000002
 21
243.4186599999998
 31
0.0
  0
LINE
  5
4D753
330
4D50F
100
AcDbEntity
  8
0
 62
     0
100
AcDbLine
 10
21.71240400000001
 20
244.0032809999998
 30
0.0
 11
22.25328100000015
 21
243.4624039999999
 31
0.0
  0
LINE
  5
4D754
330
4D50F
100
AcDbEntity
  8
0
 62
     0
100
AcDbLine
 10
21.50777600000006
 20
243.5715140000002
 30
0.0
 11
21.82151400000011
 21
243.2577759999999
 31
0.0
  0
LINE
  5
4D755
330
4D50F
100
AcDbEntity
  8
0
 62
     0
100
AcDbLine
 10
21.76123700000007
 20
237.27484
 30
0.0
 11
22.27516000000005
 21
237.788763
 31
0.0
  0
LINE
  5
4D756
330
4D50F
100
AcDbEntity
  8
0
 62
     0
100
AcDbLine
 10
21.81602199999988
 20
237.2589149999999
 30
0.0
 11
22.29108499999997
 21
237.7339780000002
 31
0.0
  0
LINE
  5
4D757
330
4D50F
100
AcDbEntity
  8
0
 62
     0
100
AcDbLine
 10
21.87840099999985
 20
237.2505839999999
 30
0.0
 11
22.29941599999997
 21
237.6715989999998
 31
0.0
  0
LINE
  5
4D758
330
4D50F
100
AcDbEntity
  8
0
 62
     0
100
AcDbLine
 10
21.95191100000002
 20
237.2533830000002
 30
0.0
 11
22.29661699999988
 21
237.5980890000001
 31
0.0
  0
LINE
  5
4D759
330
4D50F
100
AcDbEntity
  8
0
 62
     0
100
AcDbLine
 10
22.04737999999988
 20
237.2781409999998
 30
0.0
 11
22.27185899999986
 21
237.5026200000002
 31
0.0
  0
LINE
  5
4D75A
330
4D50F
100
AcDbEntity
  8
0
 62
     0
100
AcDbLine
 10
21.76123700000007
 20
238.0251600000001
 30
0.0
 11
22.27516000000005
 21
237.5112370000002
 31
0.0
  0
LINE
  5
4D75B
330
4D50F
100
AcDbEntity
  8
0
 62
     0
100
AcDbLine
 10
21.81602199999988
 20
238.0410849999998
 30
0.0
 11
22.29108499999997
 21
237.566022
 31
0.0
  0
LINE
  5
4D75C
330
4D50F
100
AcDbEntity
  8
0
 62
     0
100
AcDbLine
 10
21.87840099999985
 20
238.0494159999998
 30
0.0
 11
22.29941599999997
 21
237.6284009999999
 31
0.0
  0
LINE
  5
4D75D
330
4D50F
100
AcDbEntity
  8
0
 62
     0
100
AcDbLine
 10
21.95191100000002
 20
238.046617
 30
0.0
 11
22.29661699999988
 21
237.7019110000001
 31
0.0
  0
LINE
  5
4D75E
330
4D50F
100
AcDbEntity
  8
0
 62
     0
100
AcDbLine
 10
22.04737999999988
 20
238.0218589999999
 30
0.0
 11
22.27185899999986
 21
237.79738
 31
0.0
  0
LINE
  5
4D75F
330
4D50F
100
AcDbEntity
  8
0
 62
     0
100
AcDbLine
 10
21.76123700000007
 20
231.27484
 30
0.0
 11
22.27516000000005
 21
231.788763
 31
0.0
  0
LINE
  5
4D760
330
4D50F
100
AcDbEntity
  8
0
 62
     0
100
AcDbLine
 10
21.81602199999988
 20
231.2589149999999
 30
0.0
 11
22.29108499999997
 21
231.7339780000002
 31
0.0
  0
LINE
  5
4D761
330
4D50F
100
AcDbEntity
  8
0
 62
     0
100
AcDbLine
 10
21.87840099999985
 20
231.2505839999999
 30
0.0
 11
22.29941599999997
 21
231.6715989999998
 31
0.0
  0
LINE
  5
4D762
330
4D50F
100
AcDbEntity
  8
0
 62
     0
100
AcDbLine
 10
21.95191100000002
 20
231.2533830000002
 30
0.0
 11
22.29661699999988
 21
231.5980890000001
 31
0.0
  0
LINE
  5
4D763
330
4D50F
100
AcDbEntity
  8
0
 62
     0
100
AcDbLine
 10
22.04737999999988
 20
231.2781409999998
 30
0.0
 11
22.27185899999986
 21
231.5026200000002
 31
0.0
  0
LINE
  5
4D764
330
4D50F
100
AcDbEntity
  8
0
 62
     0
100
AcDbLine
 10
21.76123700000007
 20
232.0251600000001
 30
0.0
 11
22.27516000000005
 21
231.5112370000002
 31
0.0
  0
LINE
  5
4D765
330
4D50F
100
AcDbEntity
  8
0
 62
     0
100
AcDbLine
 10
21.81602199999988
 20
232.0410849999998
 30
0.0
 11
22.29108499999997
 21
231.566022
 31
0.0
  0
LINE
  5
4D766
330
4D50F
100
AcDbEntity
  8
0
 62
     0
100
AcDbLine
 10
21.87840099999985
 20
232.0494159999998
 30
0.0
 11
22.29941599999997
 21
231.6284009999999
 31
0.0
  0
LINE
  5
4D767
330
4D50F
100
AcDbEntity
  8
0
 62
     0
100
AcDbLine
 10
21.95191100000002
 20
232.046617
 30
0.0
 11
22.29661699999988
 21
231.7019110000001
 31
0.0
  0
LINE
  5
4D768
330
4D50F
100
AcDbEntity
  8
0
 62
     0
100
AcDbLine
 10
22.04737999999988
 20
232.0218589999999
 30
0.0
 11
22.27185899999986
 21
231.79738
 31
0.0
  0
LINE
  5
4D769
330
4D50F
100
AcDbEntity
  8
0
 62
     0
100
AcDbLine
 10
21.54733999999998
 20
237.838761
 30
0.0
 11
21.71123900000011
 21
238.0026600000001
 31
0.0
  0
LINE
  5
4D76A
330
4D50F
100
AcDbEntity
  8
0
 62
     0
100
AcDbLine
 10
21.54733999999998
 20
237.4612390000002
 30
0.0
 11
21.71123900000011
 21
237.2973400000001
 31
0.0
  0
LINE
  5
4D76B
330
4D50F
100
AcDbEntity
  8
0
 62
     0
100
AcDbLine
 10
21.54733999999998
 20
231.838761
 30
0.0
 11
21.71123900000011
 21
232.0026600000001
 31
0.0
  0
LINE
  5
4D76C
330
4D50F
100
AcDbEntity
  8
0
 62
     0
100
AcDbLine
 10
21.54733999999998
 20
231.4612390000002
 30
0.0
 11
21.71123900000011
 21
231.2973400000001
 31
0.0
  0
LINE
  5
4D76D
330
4D50F
100
AcDbEntity
  8
0
 62
     0
100
AcDbLine
 10
21.49999999999991
 20
237.6500000000001
 30
0.0
 11
21.9
 21
238.0500000000002
 31
0.0
  0
LINE
  5
4D76E
330
4D50F
100
AcDbEntity
  8
0
 62
     0
100
AcDbLine
 10
21.50777600000006
 20
237.728486
 30
0.0
 11
21.82151400000011
 21
238.0422239999998
 31
0.0
  0
LINE
  5
4D76F
330
4D50F
100
AcDbEntity
  8
0
 62
     0
100
AcDbLine
 10
21.50537199999999
 20
237.5846620000002
 30
0.0
 11
21.96533799999988
 21
238.0446280000001
 31
0.0
  0
LINE
  5
4D770
330
4D50F
100
AcDbEntity
  8
0
 62
     0
100
AcDbLine
 10
21.51914699999988
 20
237.5277259999998
 30
0.0
 11
22.02227400000006
 21
238.0308530000002
 31
0.0
  0
LINE
  5
4D771
330
4D50F
100
AcDbEntity
  8
0
 62
     0
100
AcDbLine
 10
21.53927699999999
 20
237.4771449999998
 30
0.0
 11
22.07285500000003
 21
238.0107229999999
 31
0.0
  0
LINE
  5
4D772
330
4D50F
100
AcDbEntity
  8
0
 62
     0
100
AcDbLine
 10
21.5647109999999
 20
237.4318680000001
 30
0.0
 11
22.11813199999997
 21
237.9852890000002
 31
0.0
  0
LINE
  5
4D773
330
4D50F
100
AcDbEntity
  8
0
 62
     0
100
AcDbLine
 10
21.59488899999987
 20
237.3913360000001
 30
0.0
 11
22.15866399999995
 21
237.9551110000002
 31
0.0
  0
LINE
  5
4D774
330
4D50F
100
AcDbEntity
  8
0
 62
     0
100
AcDbLine
 10
21.62955000000002
 20
237.355286
 30
0.0
 11
22.19471400000011
 21
237.9204500000001
 31
0.0
  0
LINE
  5
4D775
330
4D50F
100
AcDbEntity
  8
0
 62
     0
100
AcDbLine
 10
21.66865999999995
 20
237.3236849999998
 30
0.0
 11
22.22631500000002
 21
237.8813399999999
 31
0.0
  0
LINE
  5
4D776
330
4D50F
100
AcDbEntity
  8
0
 62
     0
100
AcDbLine
 10
21.71240400000001
 20
237.2967189999999
 30
0.0
 11
22.25328100000015
 21
237.8375959999998
 31
0.0
  0
LINE
  5
4D777
330
4D50F
100
AcDbEntity
  8
0
 62
     0
100
AcDbLine
 10
21.49999999999991
 20
237.6500000000001
 30
0.0
 11
21.9
 21
237.25
 31
0.0
  0
LINE
  5
4D778
330
4D50F
100
AcDbEntity
  8
0
 62
     0
100
AcDbLine
 10
21.50537199999999
 20
237.715338
 30
0.0
 11
21.96533799999988
 21
237.2553720000001
 31
0.0
  0
LINE
  5
4D779
330
4D50F
100
AcDbEntity
  8
0
 62
     0
100
AcDbLine
 10
21.51914699999988
 20
237.7722739999999
 30
0.0
 11
22.02227400000006
 21
237.269147
 31
0.0
  0
LINE
  5
4D77A
330
4D50F
100
AcDbEntity
  8
0
 62
     0
100
AcDbLine
 10
21.53927699999999
 20
237.8228549999999
 30
0.0
 11
22.07285500000003
 21
237.2892769999999
 31
0.0
  0
LINE
  5
4D77B
330
4D50F
100
AcDbEntity
  8
0
 62
     0
100
AcDbLine
 10
21.5647109999999
 20
237.8681320000001
 30
0.0
 11
22.11813199999997
 21
237.314711
 31
0.0
  0
LINE
  5
4D77C
330
4D50F
100
AcDbEntity
  8
0
 62
     0
100
AcDbLine
 10
21.59488899999987
 20
237.908664
 30
0.0
 11
22.15866399999995
 21
237.344889
 31
0.0
  0
LINE
  5
4D77D
330
4D50F
100
AcDbEntity
  8
0
 62
     0
100
AcDbLine
 10
21.62955000000002
 20
237.9447140000002
 30
0.0
 11
22.19471400000011
 21
237.3795500000001
 31
0.0
  0
LINE
  5
4D77E
330
4D50F
100
AcDbEntity
  8
0
 62
     0
100
AcDbLine
 10
21.66865999999995
 20
237.9763149999999
 30
0.0
 11
22.22631500000002
 21
237.4186599999998
 31
0.0
  0
LINE
  5
4D77F
330
4D50F
100
AcDbEntity
  8
0
 62
     0
100
AcDbLine
 10
21.71240400000001
 20
238.0032809999998
 30
0.0
 11
22.25328100000015
 21
237.4624039999999
 31
0.0
  0
LINE
  5
4D780
330
4D50F
100
AcDbEntity
  8
0
 62
     0
100
AcDbLine
 10
21.50777600000006
 20
237.5715140000002
 30
0.0
 11
21.82151400000011
 21
237.2577759999999
 31
0.0
  0
LINE
  5
4D781
330
4D50F
100
AcDbEntity
  8
0
 62
     0
100
AcDbLine
 10
21.49999999999991
 20
231.6500000000001
 30
0.0
 11
21.9
 21
232.0500000000002
 31
0.0
  0
LINE
  5
4D782
330
4D50F
100
AcDbEntity
  8
0
 62
     0
100
AcDbLine
 10
21.50777600000006
 20
231.728486
 30
0.0
 11
21.82151400000011
 21
232.0422239999998
 31
0.0
  0
LINE
  5
4D783
330
4D50F
100
AcDbEntity
  8
0
 62
     0
100
AcDbLine
 10
21.50537199999999
 20
231.5846620000002
 30
0.0
 11
21.96533799999988
 21
232.0446280000001
 31
0.0
  0
LINE
  5
4D784
330
4D50F
100
AcDbEntity
  8
0
 62
     0
100
AcDbLine
 10
21.51914699999988
 20
231.5277259999998
 30
0.0
 11
22.02227400000006
 21
232.0308530000002
 31
0.0
  0
LINE
  5
4D785
330
4D50F
100
AcDbEntity
  8
0
 62
     0
100
AcDbLine
 10
21.53927699999999
 20
231.4771449999998
 30
0.0
 11
22.07285500000003
 21
232.0107229999999
 31
0.0
  0
LINE
  5
4D786
330
4D50F
100
AcDbEntity
  8
0
 62
     0
100
AcDbLine
 10
21.5647109999999
 20
231.4318680000001
 30
0.0
 11
22.11813199999997
 21
231.9852890000002
 31
0.0
  0
LINE
  5
4D787
330
4D50F
100
AcDbEntity
  8
0
 62
     0
100
AcDbLine
 10
21.59488899999987
 20
231.3913360000001
 30
0.0
 11
22.15866399999995
 21
231.9551110000002
 31
0.0
  0
LINE
  5
4D788
330
4D50F
100
AcDbEntity
  8
0
 62
     0
100
AcDbLine
 10
21.62955000000002
 20
231.355286
 30
0.0
 11
22.19471400000011
 21
231.9204500000001
 31
0.0
  0
LINE
  5
4D789
330
4D50F
100
AcDbEntity
  8
0
 62
     0
100
AcDbLine
 10
21.66865999999995
 20
231.3236849999998
 30
0.0
 11
22.22631500000002
 21
231.8813399999999
 31
0.0
  0
LINE
  5
4D78A
330
4D50F
100
AcDbEntity
  8
0
 62
     0
100
AcDbLine
 10
21.71240400000001
 20
231.2967189999999
 30
0.0
 11
22.25328100000015
 21
231.8375959999998
 31
0.0
  0
LINE
  5
4D78B
330
4D50F
100
AcDbEntity
  8
0
 62
     0
100
AcDbLine
 10
21.49999999999991
 20
231.6500000000001
 30
0.0
 11
21.9
 21
231.25
 31
0.0
  0
LINE
  5
4D78C
330
4D50F
100
AcDbEntity
  8
0
 62
     0
100
AcDbLine
 10
21.50537199999999
 20
231.715338
 30
0.0
 11
21.96533799999988
 21
231.2553720000001
 31
0.0
  0
LINE
  5
4D78D
330
4D50F
100
AcDbEntity
  8
0
 62
     0
100
AcDbLine
 10
21.51914699999988
 20
231.7722739999999
 30
0.0
 11
22.02227400000006
 21
231.269147
 31
0.0
  0
LINE
  5
4D78E
330
4D50F
100
AcDbEntity
  8
0
 62
     0
100
AcDbLine
 10
21.53927699999999
 20
231.8228549999999
 30
0.0
 11
22.07285500000003
 21
231.2892769999999
 31
0.0
  0
LINE
  5
4D78F
330
4D50F
100
AcDbEntity
  8
0
 62
     0
100
AcDbLine
 10
21.5647109999999
 20
231.8681320000001
 30
0.0
 11
22.11813199999997
 21
231.314711
 31
0.0
  0
LINE
  5
4D790
330
4D50F
100
AcDbEntity
  8
0
 62
     0
100
AcDbLine
 10
21.59488899999987
 20
231.908664
 30
0.0
 11
22.15866399999995
 21
231.344889
 31
0.0
  0
LINE
  5
4D791
330
4D50F
100
AcDbEntity
  8
0
 62
     0
100
AcDbLine
 10
21.62955000000002
 20
231.9447140000002
 30
0.0
 11
22.19471400000011
 21
231.3795500000001
 31
0.0
  0
LINE
  5
4D792
330
4D50F
100
AcDbEntity
  8
0
 62
     0
100
AcDbLine
 10
21.66865999999995
 20
231.9763149999999
 30
0.0
 11
22.22631500000002
 21
231.4186599999998
 31
0.0
  0
LINE
  5
4D793
330
4D50F
100
AcDbEntity
  8
0
 62
     0
100
AcDbLine
 10
21.71240400000001
 20
232.0032809999998
 30
0.0
 11
22.25328100000015
 21
231.4624039999999
 31
0.0
  0
LINE
  5
4D794
330
4D50F
100
AcDbEntity
  8
0
 62
     0
100
AcDbLine
 10
21.50777600000006
 20
231.5715140000002
 30
0.0
 11
21.82151400000011
 21
231.2577759999999
 31
0.0
  0
LINE
  5
4D795
330
4D50F
100
AcDbEntity
  8
0
 62
     0
100
AcDbLine
 10
21.81602199999988
 20
226.0410849999998
 30
0.0
 11
22.29108499999997
 21
225.566022
 31
0.0
  0
LINE
  5
4D796
330
4D50F
100
AcDbEntity
  8
0
 62
     0
100
AcDbLine
 10
21.87840099999985
 20
226.0494159999998
 30
0.0
 11
22.29941599999997
 21
225.6284009999999
 31
0.0
  0
LINE
  5
4D797
330
4D50F
100
AcDbEntity
  8
0
 62
     0
100
AcDbLine
 10
21.95191100000002
 20
226.046617
 30
0.0
 11
22.29661699999988
 21
225.7019110000001
 31
0.0
  0
LINE
  5
4D798
330
4D50F
100
AcDbEntity
  8
0
 62
     0
100
AcDbLine
 10
22.04737999999988
 20
226.0218589999999
 30
0.0
 11
22.27185899999986
 21
225.79738
 31
0.0
  0
LINE
  5
4D799
330
4D50F
100
AcDbEntity
  8
0
 62
     0
100
AcDbLine
 10
21.54733999999998
 20
225.838761
 30
0.0
 11
21.71123900000011
 21
226.0026600000001
 31
0.0
  0
LINE
  5
4D79A
330
4D50F
100
AcDbEntity
  8
0
 62
     0
100
AcDbLine
 10
21.49999999999991
 20
225.6500000000001
 30
0.0
 11
21.9
 21
226.0500000000002
 31
0.0
  0
LINE
  5
4D79B
330
4D50F
100
AcDbEntity
  8
0
 62
     0
100
AcDbLine
 10
21.50777600000006
 20
225.728486
 30
0.0
 11
21.82151400000011
 21
226.0422239999998
 31
0.0
  0
LINE
  5
4D79C
330
4D50F
100
AcDbEntity
  8
0
 62
     0
100
AcDbLine
 10
21.50537199999999
 20
225.5846620000002
 30
0.0
 11
21.96533799999988
 21
226.0446280000001
 31
0.0
  0
LINE
  5
4D79D
330
4D50F
100
AcDbEntity
  8
0
 62
     0
100
AcDbLine
 10
21.51914699999988
 20
225.5277259999998
 30
0.0
 11
22.02227400000006
 21
226.0308530000002
 31
0.0
  0
LINE
  5
4D79E
330
4D50F
100
AcDbEntity
  8
0
 62
     0
100
AcDbLine
 10
22.04737999999988
 20
225.2781409999998
 30
0.0
 11
22.27185899999986
 21
225.5026200000002
 31
0.0
  0
LINE
  5
4D79F
330
4D50F
100
AcDbEntity
  8
0
 62
     0
100
AcDbLine
 10
21.54733999999998
 20
225.4612390000002
 30
0.0
 11
21.71123900000011
 21
225.2973400000001
 31
0.0
  0
LINE
  5
4D7A0
330
4D50F
100
AcDbEntity
  8
0
 62
     0
100
AcDbLine
 10
21.76123700000007
 20
225.27484
 30
0.0
 11
22.27516000000005
 21
225.788763
 31
0.0
  0
LINE
  5
4D7A1
330
4D50F
100
AcDbEntity
  8
0
 62
     0
100
AcDbLine
 10
21.81602199999988
 20
225.2589149999999
 30
0.0
 11
22.29108499999997
 21
225.7339780000002
 31
0.0
  0
LINE
  5
4D7A2
330
4D50F
100
AcDbEntity
  8
0
 62
     0
100
AcDbLine
 10
21.87840099999985
 20
225.2505839999999
 30
0.0
 11
22.29941599999997
 21
225.6715989999998
 31
0.0
  0
LINE
  5
4D7A3
330
4D50F
100
AcDbEntity
  8
0
 62
     0
100
AcDbLine
 10
21.95191100000002
 20
225.2533830000002
 30
0.0
 11
22.29661699999988
 21
225.5980890000001
 31
0.0
  0
LINE
  5
4D7A4
330
4D50F
100
AcDbEntity
  8
0
 62
     0
100
AcDbLine
 10
21.76123700000007
 20
226.0251600000001
 30
0.0
 11
22.27516000000005
 21
225.5112370000002
 31
0.0
  0
LINE
  5
4D7A5
330
4D50F
100
AcDbEntity
  8
0
 62
     0
100
AcDbLine
 10
21.53927699999999
 20
225.4771449999998
 30
0.0
 11
22.07285500000003
 21
226.0107229999999
 31
0.0
  0
LINE
  5
4D7A6
330
4D50F
100
AcDbEntity
  8
0
 62
     0
100
AcDbLine
 10
21.5647109999999
 20
225.4318680000001
 30
0.0
 11
22.11813199999997
 21
225.9852890000002
 31
0.0
  0
LINE
  5
4D7A7
330
4D50F
100
AcDbEntity
  8
0
 62
     0
100
AcDbLine
 10
21.59488899999987
 20
225.3913360000001
 30
0.0
 11
22.15866399999995
 21
225.9551110000002
 31
0.0
  0
LINE
  5
4D7A8
330
4D50F
100
AcDbEntity
  8
0
 62
     0
100
AcDbLine
 10
21.62955000000002
 20
225.355286
 30
0.0
 11
22.19471400000011
 21
225.9204500000001
 31
0.0
  0
LINE
  5
4D7A9
330
4D50F
100
AcDbEntity
  8
0
 62
     0
100
AcDbLine
 10
21.66865999999995
 20
225.3236849999998
 30
0.0
 11
22.22631500000002
 21
225.8813399999999
 31
0.0
  0
LINE
  5
4D7AA
330
4D50F
100
AcDbEntity
  8
0
 62
     0
100
AcDbLine
 10
21.71240400000001
 20
225.2967189999999
 30
0.0
 11
22.25328100000015
 21
225.8375959999998
 31
0.0
  0
LINE
  5
4D7AB
330
4D50F
100
AcDbEntity
  8
0
 62
     0
100
AcDbLine
 10
21.49999999999991
 20
225.6500000000001
 30
0.0
 11
21.9
 21
225.25
 31
0.0
  0
LINE
  5
4D7AC
330
4D50F
100
AcDbEntity
  8
0
 62
     0
100
AcDbLine
 10
21.50537199999999
 20
225.715338
 30
0.0
 11
21.96533799999988
 21
225.2553720000001
 31
0.0
  0
LINE
  5
4D7AD
330
4D50F
100
AcDbEntity
  8
0
 62
     0
100
AcDbLine
 10
21.51914699999988
 20
225.7722739999999
 30
0.0
 11
22.02227400000006
 21
225.269147
 31
0.0
  0
LINE
  5
4D7AE
330
4D50F
100
AcDbEntity
  8
0
 62
     0
100
AcDbLine
 10
21.53927699999999
 20
225.8228549999999
 30
0.0
 11
22.07285500000003
 21
225.2892769999999
 31
0.0
  0
LINE
  5
4D7AF
330
4D50F
100
AcDbEntity
  8
0
 62
     0
100
AcDbLine
 10
21.5647109999999
 20
225.8681320000001
 30
0.0
 11
22.11813199999997
 21
225.314711
 31
0.0
  0
LINE
  5
4D7B0
330
4D50F
100
AcDbEntity
  8
0
 62
     0
100
AcDbLine
 10
21.59488899999987
 20
225.908664
 30
0.0
 11
22.15866399999995
 21
225.344889
 31
0.0
  0
LINE
  5
4D7B1
330
4D50F
100
AcDbEntity
  8
0
 62
     0
100
AcDbLine
 10
21.62955000000002
 20
225.9447140000002
 30
0.0
 11
22.19471400000011
 21
225.3795500000001
 31
0.0
  0
LINE
  5
4D7B2
330
4D50F
100
AcDbEntity
  8
0
 62
     0
100
AcDbLine
 10
21.66865999999995
 20
225.9763149999999
 30
0.0
 11
22.22631500000002
 21
225.4186599999998
 31
0.0
  0
LINE
  5
4D7B3
330
4D50F
100
AcDbEntity
  8
0
 62
     0
100
AcDbLine
 10
21.71240400000001
 20
226.0032809999998
 30
0.0
 11
22.25328100000015
 21
225.4624039999999
 31
0.0
  0
LINE
  5
4D7B4
330
4D50F
100
AcDbEntity
  8
0
 62
     0
100
AcDbLine
 10
21.50777600000006
 20
225.5715140000002
 30
0.0
 11
21.82151400000011
 21
225.2577759999999
 31
0.0
  0
LINE
  5
4D7B5
330
4D50F
100
AcDbEntity
  8
0
 62
     0
100
AcDbLine
 10
214.1500001919297
 20
284.4000000000001
 30
0.0
 11
214.7500001919296
 21
283.8000000000002
 31
0.0
  0
LINE
  5
4D7B6
330
4D50F
100
AcDbEntity
  8
0
 62
     0
100
AcDbLine
 10
214.1537481919296
 20
284.466962
 30
0.0
 11
214.8169621919295
 21
283.8037479999998
 31
0.0
  0
LINE
  5
4D7B7
330
4D50F
100
AcDbEntity
  8
0
 62
     0
100
AcDbLine
 10
214.1637421919296
 20
284.5276789999998
 30
0.0
 11
214.8776791919296
 21
283.8137419999998
 31
0.0
  0
LINE
  5
4D7B8
330
4D50F
100
AcDbEntity
  8
0
 62
     0
100
AcDbLine
 10
214.1787211919296
 20
284.5834110000001
 30
0.0
 11
214.9334111919296
 21
283.8287209999999
 31
0.0
  0
LINE
  5
4D7B9
330
4D50F
100
AcDbEntity
  8
0
 62
     0
100
AcDbLine
 10
214.1979081919297
 20
284.634935
 30
0.0
 11
214.9849351919296
 21
283.8479080000002
 31
0.0
  0
LINE
  5
4D7BA
330
4D50F
100
AcDbEntity
  8
0
 62
     0
100
AcDbLine
 10
214.2208011919296
 20
284.6827520000002
 30
0.0
 11
215.0327521919297
 21
283.870801
 31
0.0
  0
LINE
  5
4D7BB
330
4D50F
100
AcDbEntity
  8
0
 62
     0
100
AcDbLine
 10
214.2470671919296
 20
284.7271970000002
 30
0.0
 11
215.0771971919297
 21
283.8970669999999
 31
0.0
  0
LINE
  5
4D7BC
330
4D50F
100
AcDbEntity
  8
0
 62
     0
100
AcDbLine
 10
214.2764861919296
 20
284.768489
 30
0.0
 11
215.1184891919296
 21
283.9264859999998
 31
0.0
  0
LINE
  5
4D7BD
330
4D50F
100
AcDbEntity
  8
0
 62
     0
100
AcDbLine
 10
214.3089261919298
 20
284.8067599999999
 30
0.0
 11
215.1567601919295
 21
283.9589259999998
 31
0.0
  0
LINE
  5
4D7BE
330
4D50F
100
AcDbEntity
  8
0
 62
     0
100
AcDbLine
 10
214.3443241919298
 20
284.8420719999999
 30
0.0
 11
215.1920721919297
 21
283.9943240000002
 31
0.0
  0
LINE
  5
4D7BF
330
4D50F
100
AcDbEntity
  8
0
 62
     0
100
AcDbLine
 10
214.3826831919297
 20
284.8744240000001
 30
0.0
 11
215.2244241919296
 21
284.0326829999999
 31
0.0
  0
LINE
  5
4D7C0
330
4D50F
100
AcDbEntity
  8
0
 62
     0
100
AcDbLine
 10
214.1547661919297
 20
284.3245230000002
 30
0.0
 11
214.6745231919298
 21
283.8047660000002
 31
0.0
  0
LINE
  5
4D7C1
330
4D50F
100
AcDbEntity
  8
0
 62
     0
100
AcDbLine
 10
214.1729561919295
 20
284.235623
 30
0.0
 11
214.5856231919296
 21
283.822956
 31
0.0
  0
LINE
  5
4D7C2
330
4D50F
100
AcDbEntity
  8
0
 62
     0
100
AcDbLine
 10
214.2210101919296
 20
284.1168579999999
 30
0.0
 11
214.4668581919296
 21
283.8710099999998
 31
0.0
  0
LINE
  5
4D7C3
330
4D50F
100
AcDbEntity
  8
0
 62
     0
100
AcDbLine
 10
214.1500001919297
 20
284.4000000000001
 30
0.0
 11
214.7500001919296
 21
285.0
 31
0.0
  0
LINE
  5
4D7C4
330
4D50F
100
AcDbEntity
  8
0
 62
     0
100
AcDbLine
 10
214.1537481919296
 20
284.3330379999998
 30
0.0
 11
214.8169621919295
 21
284.9962519999999
 31
0.0
  0
LINE
  5
4D7C5
330
4D50F
100
AcDbEntity
  8
0
 62
     0
100
AcDbLine
 10
214.1637421919296
 20
284.2723209999999
 30
0.0
 11
214.8776791919296
 21
284.9862579999999
 31
0.0
  0
LINE
  5
4D7C6
330
4D50F
100
AcDbEntity
  8
0
 62
     0
100
AcDbLine
 10
214.1787211919296
 20
284.2165890000001
 30
0.0
 11
214.9334111919296
 21
284.9712789999999
 31
0.0
  0
LINE
  5
4D7C7
330
4D50F
100
AcDbEntity
  8
0
 62
     0
100
AcDbLine
 10
214.1979081919297
 20
284.1650650000001
 30
0.0
 11
214.9849351919296
 21
284.952092
 31
0.0
  0
LINE
  5
4D7C8
330
4D50F
100
AcDbEntity
  8
0
 62
     0
100
AcDbLine
 10
214.2208011919296
 20
284.117248
 30
0.0
 11
215.0327521919297
 21
284.9291990000002
 31
0.0
  0
LINE
  5
4D7C9
330
4D50F
100
AcDbEntity
  8
0
 62
     0
100
AcDbLine
 10
214.2470671919296
 20
284.072803
 30
0.0
 11
215.0771971919297
 21
284.9029329999998
 31
0.0
  0
LINE
  5
4D7CA
330
4D50F
100
AcDbEntity
  8
0
 62
     0
100
AcDbLine
 10
214.2764861919296
 20
284.0315110000001
 30
0.0
 11
215.1184891919296
 21
284.8735139999999
 31
0.0
  0
LINE
  5
4D7CB
330
4D50F
100
AcDbEntity
  8
0
 62
     0
100
AcDbLine
 10
214.3089261919298
 20
283.9932399999998
 30
0.0
 11
215.1567601919295
 21
284.8410739999999
 31
0.0
  0
LINE
  5
4D7CC
330
4D50F
100
AcDbEntity
  8
0
 62
     0
100
AcDbLine
 10
214.3443241919298
 20
283.9579279999998
 30
0.0
 11
215.1920721919297
 21
284.8056759999999
 31
0.0
  0
LINE
  5
4D7CD
330
4D50F
100
AcDbEntity
  8
0
 62
     0
100
AcDbLine
 10
214.3826831919297
 20
283.9255760000001
 30
0.0
 11
215.2244241919296
 21
284.7673169999998
 31
0.0
  0
LINE
  5
4D7CE
330
4D50F
100
AcDbEntity
  8
0
 62
     0
100
AcDbLine
 10
214.1547661919297
 20
284.475477
 30
0.0
 11
214.6745231919298
 21
284.995234
 31
0.0
  0
LINE
  5
4D7CF
330
4D50F
100
AcDbEntity
  8
0
 62
     0
100
AcDbLine
 10
214.1729561919295
 20
284.5643770000001
 30
0.0
 11
214.5856231919296
 21
284.9770440000002
 31
0.0
  0
LINE
  5
4D7D0
330
4D50F
100
AcDbEntity
  8
0
 62
     0
100
AcDbLine
 10
214.2210101919296
 20
284.6831419999999
 30
0.0
 11
214.4668581919296
 21
284.9289899999999
 31
0.0
  0
LINE
  5
4D7D1
330
4D50F
100
AcDbEntity
  8
0
 62
     0
100
AcDbLine
 10
214.4240651919298
 20
284.9037520000002
 30
0.0
 11
215.2537521919297
 21
284.0740649999998
 31
0.0
  0
LINE
  5
4D7D2
330
4D50F
100
AcDbEntity
  8
0
 62
     0
100
AcDbLine
 10
214.4686061919295
 20
284.9299219999998
 30
0.0
 11
215.2799221919298
 21
284.118606
 31
0.0
  0
LINE
  5
4D7D3
330
4D50F
100
AcDbEntity
  8
0
 62
     0
100
AcDbLine
 10
214.5165271919296
 20
284.9527120000002
 30
0.0
 11
215.3027121919298
 21
284.1665269999999
 31
0.0
  0
LINE
  5
4D7D4
330
4D50F
100
AcDbEntity
  8
0
 62
     0
100
AcDbLine
 10
214.5681661919296
 20
284.9717839999998
 30
0.0
 11
215.3217841919296
 21
284.2181660000001
 31
0.0
  0
LINE
  5
4D7D5
330
4D50F
100
AcDbEntity
  8
0
 62
     0
100
AcDbLine
 10
214.6240321919298
 20
284.9866280000001
 30
0.0
 11
215.3366281919296
 21
284.2740319999998
 31
0.0
  0
LINE
  5
4D7D6
330
4D50F
100
AcDbEntity
  8
0
 62
     0
100
AcDbLine
 10
214.6849121919298
 20
284.996459
 30
0.0
 11
215.3464591919295
 21
284.3349119999998
 31
0.0
  0
LINE
  5
4D7D7
330
4D50F
100
AcDbEntity
  8
0
 62
     0
100
AcDbLine
 10
214.7520851919297
 20
284.999996
 30
0.0
 11
215.3499961919295
 21
284.4020850000002
 31
0.0
  0
LINE
  5
4D7D8
330
4D50F
100
AcDbEntity
  8
0
 62
     0
100
AcDbLine
 10
214.8278661919297
 20
284.9949259999999
 30
0.0
 11
215.3449261919296
 21
284.4778660000002
 31
0.0
  0
LINE
  5
4D7D9
330
4D50F
100
AcDbEntity
  8
0
 62
     0
100
AcDbLine
 10
214.9172991919296
 20
284.9762040000001
 30
0.0
 11
215.3262041919296
 21
284.5672989999998
 31
0.0
  0
LINE
  5
4D7DA
330
4D50F
100
AcDbEntity
  8
0
 62
     0
100
AcDbLine
 10
215.0376741919298
 20
284.926539
 30
0.0
 11
215.2765391919296
 21
284.6876739999998
 31
0.0
  0
LINE
  5
4D7DB
330
4D50F
100
AcDbEntity
  8
0
 62
     0
100
AcDbLine
 10
214.4240651919298
 20
283.896248
 30
0.0
 11
215.2537521919297
 21
284.7259349999999
 31
0.0
  0
LINE
  5
4D7DC
330
4D50F
100
AcDbEntity
  8
0
 62
     0
100
AcDbLine
 10
214.4686061919295
 20
283.8700779999999
 30
0.0
 11
215.2799221919298
 21
284.6813940000002
 31
0.0
  0
LINE
  5
4D7DD
330
4D50F
100
AcDbEntity
  8
0
 62
     0
100
AcDbLine
 10
214.5165271919296
 20
283.8472879999999
 30
0.0
 11
215.3027121919298
 21
284.6334729999999
 31
0.0
  0
LINE
  5
4D7DE
330
4D50F
100
AcDbEntity
  8
0
 62
     0
100
AcDbLine
 10
214.5681661919296
 20
283.8282159999999
 30
0.0
 11
215.3217841919296
 21
284.5818340000001
 31
0.0
  0
LINE
  5
4D7DF
330
4D50F
100
AcDbEntity
  8
0
 62
     0
100
AcDbLine
 10
214.6240321919298
 20
283.8133720000001
 30
0.0
 11
215.3366281919296
 21
284.5259679999999
 31
0.0
  0
LINE
  5
4D7E0
330
4D50F
100
AcDbEntity
  8
0
 62
     0
100
AcDbLine
 10
214.6849121919298
 20
283.8035410000002
 30
0.0
 11
215.3464591919295
 21
284.4650879999999
 31
0.0
  0
LINE
  5
4D7E1
330
4D50F
100
AcDbEntity
  8
0
 62
     0
100
AcDbLine
 10
214.7520851919297
 20
283.8000040000002
 30
0.0
 11
215.3499961919295
 21
284.397915
 31
0.0
  0
LINE
  5
4D7E2
330
4D50F
100
AcDbEntity
  8
0
 62
     0
100
AcDbLine
 10
214.8278661919297
 20
283.8050739999999
 30
0.0
 11
215.3449261919296
 21
284.322134
 31
0.0
  0
LINE
  5
4D7E3
330
4D50F
100
AcDbEntity
  8
0
 62
     0
100
AcDbLine
 10
214.9172991919296
 20
283.8237960000001
 30
0.0
 11
215.3262041919296
 21
284.2327009999999
 31
0.0
  0
LINE
  5
4D7E4
330
4D50F
100
AcDbEntity
  8
0
 62
     0
100
AcDbLine
 10
215.0376741919298
 20
283.8734610000001
 30
0.0
 11
215.2765391919296
 21
284.1123259999999
 31
0.0
  0
LINE
  5
4D7E5
330
4D50F
100
AcDbEntity
  8
0
 62
     0
100
AcDbLine
 10
406.8000003838565
 20
159.5499981125803
 30
0.0
 11
407.4000003838564
 21
158.9499981125804
 31
0.0
  0
LINE
  5
4D7E6
330
4D50F
100
AcDbEntity
  8
0
 62
     0
100
AcDbLine
 10
406.8037483838564
 20
159.6169601125802
 30
0.0
 11
407.4669623838563
 21
158.9537461125805
 31
0.0
  0
LINE
  5
4D7E7
330
4D50F
100
AcDbEntity
  8
0
 62
     0
100
AcDbLine
 10
406.8137423838564
 20
159.6776771125805
 30
0.0
 11
407.5276793838564
 21
158.9637401125805
 31
0.0
  0
LINE
  5
4D7E8
330
4D50F
100
AcDbEntity
  8
0
 62
     0
100
AcDbLine
 10
406.8287213838564
 20
159.7334091125803
 30
0.0
 11
407.5834113838564
 21
158.9787191125805
 31
0.0
  0
LINE
  5
4D7E9
330
4D50F
100
AcDbEntity
  8
0
 62
     0
100
AcDbLine
 10
406.8479083838565
 20
159.7849331125803
 30
0.0
 11
407.6349353838564
 21
158.9979061125804
 31
0.0
  0
LINE
  5
4D7EA
330
4D50F
100
AcDbEntity
  8
0
 62
     0
100
AcDbLine
 10
406.8708013838564
 20
159.8327501125804
 30
0.0
 11
407.6827523838565
 21
159.0207991125802
 31
0.0
  0
LINE
  5
4D7EB
330
4D50F
100
AcDbEntity
  8
0
 62
     0
100
AcDbLine
 10
406.8970673838564
 20
159.8771951125804
 30
0.0
 11
407.7271973838565
 21
159.0470651125801
 31
0.0
  0
LINE
  5
4D7EC
330
4D50F
100
AcDbEntity
  8
0
 62
     0
100
AcDbLine
 10
406.9264863838564
 20
159.9184871125803
 30
0.0
 11
407.7684893838564
 21
159.0764841125805
 31
0.0
  0
LINE
  5
4D7ED
330
4D50F
100
AcDbEntity
  8
0
 62
     0
100
AcDbLine
 10
406.9589263838566
 20
159.9567581125802
 30
0.0
 11
407.8067603838565
 21
159.1089241125805
 31
0.0
  0
LINE
  5
4D7EE
330
4D50F
100
AcDbEntity
  8
0
 62
     0
100
AcDbLine
 10
406.9943243838566
 20
159.9920701125801
 30
0.0
 11
407.8420723838565
 21
159.1443221125805
 31
0.0
  0
LINE
  5
4D7EF
330
4D50F
100
AcDbEntity
  8
0
 62
     0
100
AcDbLine
 10
407.0326833838565
 20
160.0244221125803
 30
0.0
 11
407.8744243838564
 21
159.1826811125801
 31
0.0
  0
LINE
  5
4D7F0
330
4D50F
100
AcDbEntity
  8
0
 62
     0
100
AcDbLine
 10
407.0740653838564
 20
160.0537501125804
 30
0.0
 11
407.9037523838565
 21
159.2240631125805
 31
0.0
  0
LINE
  5
4D7F1
330
4D50F
100
AcDbEntity
  8
0
 62
     0
100
AcDbLine
 10
407.1186063838563
 20
160.0799201125805
 30
0.0
 11
407.9299223838564
 21
159.2686041125802
 31
0.0
  0
LINE
  5
4D7F2
330
4D50F
100
AcDbEntity
  8
0
 62
     0
100
AcDbLine
 10
407.1665273838564
 20
160.1027101125805
 30
0.0
 11
407.9527123838566
 21
159.3165251125805
 31
0.0
  0
LINE
  5
4D7F3
330
4D50F
100
AcDbEntity
  8
0
 62
     0
100
AcDbLine
 10
407.2181663838564
 20
160.1217821125805
 30
0.0
 11
407.9717843838564
 21
159.3681641125803
 31
0.0
  0
LINE
  5
4D7F4
330
4D50F
100
AcDbEntity
  8
0
 62
     0
100
AcDbLine
 10
407.2740323838564
 20
160.1366261125803
 30
0.0
 11
407.9866283838564
 21
159.4240301125805
 31
0.0
  0
LINE
  5
4D7F5
330
4D50F
100
AcDbEntity
  8
0
 62
     0
100
AcDbLine
 10
407.3349123838564
 20
160.1464571125802
 30
0.0
 11
407.9964593838563
 21
159.4849101125805
 31
0.0
  0
LINE
  5
4D7F6
330
4D50F
100
AcDbEntity
  8
0
 62
     0
100
AcDbLine
 10
407.4020853838565
 20
160.1499941125802
 30
0.0
 11
407.9999963838563
 21
159.5520831125804
 31
0.0
  0
LINE
  5
4D7F7
330
4D50F
100
AcDbEntity
  8
0
 62
     0
100
AcDbLine
 10
407.4778663838565
 20
160.1449241125805
 30
0.0
 11
407.9949263838564
 21
159.6278641125804
 31
0.0
  0
LINE
  5
4D7F8
330
4D50F
100
AcDbEntity
  8
0
 62
     0
100
AcDbLine
 10
407.5672993838564
 20
160.1262021125803
 30
0.0
 11
407.9762043838564
 21
159.7172971125805
 31
0.0
  0
LINE
  5
4D7F9
330
4D50F
100
AcDbEntity
  8
0
 62
     0
100
AcDbLine
 10
407.6876743838566
 20
160.0765371125803
 30
0.0
 11
407.9265393838564
 21
159.8376721125805
 31
0.0
  0
LINE
  5
4D7FA
330
4D50F
100
AcDbEntity
  8
0
 62
     0
100
AcDbLine
 10
406.8047663838565
 20
159.4745211125804
 30
0.0
 11
407.3245233838566
 21
158.9547641125804
 31
0.0
  0
LINE
  5
4D7FB
330
4D50F
100
AcDbEntity
  8
0
 62
     0
100
AcDbLine
 10
406.8229563838563
 20
159.3856211125803
 30
0.0
 11
407.2356233838564
 21
158.9729541125802
 31
0.0
  0
LINE
  5
4D7FC
330
4D50F
100
AcDbEntity
  8
0
 62
     0
100
AcDbLine
 10
406.8710103838564
 20
159.2668561125801
 30
0.0
 11
407.1168583838564
 21
159.0210081125805
 31
0.0
  0
LINE
  5
4D7FD
330
4D50F
100
AcDbEntity
  8
0
 62
     0
100
AcDbLine
 10
406.8000003838565
 20
159.5499981125803
 30
0.0
 11
407.4000003838564
 21
160.1499981125802
 31
0.0
  0
LINE
  5
4D7FE
330
4D50F
100
AcDbEntity
  8
0
 62
     0
100
AcDbLine
 10
406.8037483838564
 20
159.4830361125804
 30
0.0
 11
407.4669623838563
 21
160.1462501125801
 31
0.0
  0
LINE
  5
4D7FF
330
4D50F
100
AcDbEntity
  8
0
 62
     0
100
AcDbLine
 10
406.8137423838564
 20
159.4223191125801
 30
0.0
 11
407.5276793838564
 21
160.1362561125801
 31
0.0
  0
LINE
  5
4D800
330
4D50F
100
AcDbEntity
  8
0
 62
     0
100
AcDbLine
 10
406.8287213838564
 20
159.3665871125803
 30
0.0
 11
407.5834113838564
 21
160.1212771125801
 31
0.0
  0
LINE
  5
4D801
330
4D50F
100
AcDbEntity
  8
0
 62
     0
100
AcDbLine
 10
406.8479083838565
 20
159.3150631125804
 30
0.0
 11
407.6349353838564
 21
160.1020901125802
 31
0.0
  0
LINE
  5
4D802
330
4D50F
100
AcDbEntity
  8
0
 62
     0
100
AcDbLine
 10
406.8708013838564
 20
159.2672461125802
 30
0.0
 11
407.6827523838565
 21
160.0791971125804
 31
0.0
  0
LINE
  5
4D803
330
4D50F
100
AcDbEntity
  8
0
 62
     0
100
AcDbLine
 10
406.8970673838564
 20
159.2228011125802
 30
0.0
 11
407.7271973838565
 21
160.0529311125805
 31
0.0
  0
LINE
  5
4D804
330
4D50F
100
AcDbEntity
  8
0
 62
     0
100
AcDbLine
 10
406.9264863838564
 20
159.1815091125804
 30
0.0
 11
407.7684893838564
 21
160.0235121125801
 31
0.0
  0
LINE
  5
4D805
330
4D50F
100
AcDbEntity
  8
0
 62
     0
100
AcDbLine
 10
406.9589263838566
 20
159.1432381125805
 30
0.0
 11
407.8067603838565
 21
159.9910721125802
 31
0.0
  0
LINE
  5
4D806
330
4D50F
100
AcDbEntity
  8
0
 62
     0
100
AcDbLine
 10
406.9943243838566
 20
159.1079261125805
 30
0.0
 11
407.8420723838565
 21
159.9556741125802
 31
0.0
  0
LINE
  5
4D807
330
4D50F
100
AcDbEntity
  8
0
 62
     0
100
AcDbLine
 10
407.0326833838565
 20
159.0755741125803
 30
0.0
 11
407.8744243838564
 21
159.9173151125805
 31
0.0
  0
LINE
  5
4D808
330
4D50F
100
AcDbEntity
  8
0
 62
     0
100
AcDbLine
 10
407.0740653838564
 20
159.0462461125802
 30
0.0
 11
407.9037523838565
 21
159.8759331125802
 31
0.0
  0
LINE
  5
4D809
330
4D50F
100
AcDbEntity
  8
0
 62
     0
100
AcDbLine
 10
407.1186063838563
 20
159.0200761125801
 30
0.0
 11
407.9299223838564
 21
159.8313921125804
 31
0.0
  0
LINE
  5
4D80A
330
4D50F
100
AcDbEntity
  8
0
 62
     0
100
AcDbLine
 10
407.1665273838564
 20
158.9972861125802
 30
0.0
 11
407.9527123838566
 21
159.7834711125801
 31
0.0
  0
LINE
  5
4D80B
330
4D50F
100
AcDbEntity
  8
0
 62
     0
100
AcDbLine
 10
407.2181663838564
 20
158.9782141125801
 30
0.0
 11
407.9717843838564
 21
159.7318321125803
 31
0.0
  0
LINE
  5
4D80C
330
4D50F
100
AcDbEntity
  8
0
 62
     0
100
AcDbLine
 10
407.2740323838564
 20
158.9633701125803
 30
0.0
 11
407.9866283838564
 21
159.6759661125801
 31
0.0
  0
LINE
  5
4D80D
330
4D50F
100
AcDbEntity
  8
0
 62
     0
100
AcDbLine
 10
407.3349123838564
 20
158.9535391125804
 30
0.0
 11
407.9964593838563
 21
159.6150861125801
 31
0.0
  0
LINE
  5
4D80E
330
4D50F
100
AcDbEntity
  8
0
 62
     0
100
AcDbLine
 10
407.4020853838565
 20
158.9500021125804
 30
0.0
 11
407.9999963838563
 21
159.5479131125802
 31
0.0
  0
LINE
  5
4D80F
330
4D50F
100
AcDbEntity
  8
0
 62
     0
100
AcDbLine
 10
407.4778663838565
 20
158.9550721125801
 30
0.0
 11
407.9949263838564
 21
159.4721321125802
 31
0.0
  0
LINE
  5
4D810
330
4D50F
100
AcDbEntity
  8
0
 62
     0
100
AcDbLine
 10
407.5672993838564
 20
158.9737941125804
 30
0.0
 11
407.9762043838564
 21
159.3826991125801
 31
0.0
  0
LINE
  5
4D811
330
4D50F
100
AcDbEntity
  8
0
 62
     0
100
AcDbLine
 10
407.6876743838566
 20
159.0234591125804
 30
0.0
 11
407.9265393838564
 21
159.2623241125802
 31
0.0
  0
LINE
  5
4D812
330
4D50F
100
AcDbEntity
  8
0
 62
     0
100
AcDbLine
 10
406.8047663838565
 20
159.6254751125802
 30
0.0
 11
407.3245233838566
 21
160.1452321125802
 31
0.0
  0
LINE
  5
4D813
330
4D50F
100
AcDbEntity
  8
0
 62
     0
100
AcDbLine
 10
406.8229563838563
 20
159.7143751125804
 30
0.0
 11
407.2356233838564
 21
160.1270421125804
 31
0.0
  0
LINE
  5
4D814
330
4D50F
100
AcDbEntity
  8
0
 62
     0
100
AcDbLine
 10
406.8710103838564
 20
159.8331401125805
 30
0.0
 11
407.1168583838564
 21
160.0789881125801
 31
0.0
  0
LINE
  5
4D815
330
4D50F
100
AcDbEntity
  8
0
 62
     0
100
AcDbLine
 10
407.1999999999999
 20
279.6500000000001
 30
0.0
 11
407.6
 21
280.0500000000002
 31
0.0
  0
LINE
  5
4D816
330
4D50F
100
AcDbEntity
  8
0
 62
     0
100
AcDbLine
 10
407.2077760000001
 20
279.728486
 30
0.0
 11
407.5215140000001
 21
280.0422239999998
 31
0.0
  0
LINE
  5
4D817
330
4D50F
100
AcDbEntity
  8
0
 62
     0
100
AcDbLine
 10
407.24734
 20
279.838761
 30
0.0
 11
407.4112390000001
 21
280.0026600000001
 31
0.0
  0
LINE
  5
4D818
330
4D50F
100
AcDbEntity
  8
0
 62
     0
100
AcDbLine
 10
407.205372
 20
279.5846620000002
 30
0.0
 11
407.6653379999999
 21
280.0446280000001
 31
0.0
  0
LINE
  5
4D819
330
4D50F
100
AcDbEntity
  8
0
 62
     0
100
AcDbLine
 10
407.2191469999999
 20
279.5277259999998
 30
0.0
 11
407.7222740000001
 21
280.0308530000002
 31
0.0
  0
LINE
  5
4D81A
330
4D50F
100
AcDbEntity
  8
0
 62
     0
100
AcDbLine
 10
407.239277
 20
279.4771449999998
 30
0.0
 11
407.772855
 21
280.0107229999999
 31
0.0
  0
LINE
  5
4D81B
330
4D50F
100
AcDbEntity
  8
0
 62
     0
100
AcDbLine
 10
407.2647109999999
 20
279.4318680000001
 30
0.0
 11
407.818132
 21
279.9852890000002
 31
0.0
  0
LINE
  5
4D81C
330
4D50F
100
AcDbEntity
  8
0
 62
     0
100
AcDbLine
 10
407.2948889999999
 20
279.3913360000001
 30
0.0
 11
407.858664
 21
279.9551110000002
 31
0.0
  0
LINE
  5
4D81D
330
4D50F
100
AcDbEntity
  8
0
 62
     0
100
AcDbLine
 10
407.32955
 20
279.355286
 30
0.0
 11
407.8947140000001
 21
279.9204500000001
 31
0.0
  0
LINE
  5
4D81E
330
4D50F
100
AcDbEntity
  8
0
 62
     0
100
AcDbLine
 10
407.36866
 20
279.3236849999998
 30
0.0
 11
407.926315
 21
279.8813399999999
 31
0.0
  0
LINE
  5
4D81F
330
4D50F
100
AcDbEntity
  8
0
 62
     0
100
AcDbLine
 10
407.412404
 20
279.2967189999999
 30
0.0
 11
407.9532810000002
 21
279.8375959999998
 31
0.0
  0
LINE
  5
4D820
330
4D50F
100
AcDbEntity
  8
0
 62
     0
100
AcDbLine
 10
407.4612370000001
 20
279.27484
 30
0.0
 11
407.9751600000001
 21
279.788763
 31
0.0
  0
LINE
  5
4D821
330
4D50F
100
AcDbEntity
  8
0
 62
     0
100
AcDbLine
 10
407.5160219999999
 20
279.2589149999999
 30
0.0
 11
407.991085
 21
279.7339780000002
 31
0.0
  0
LINE
  5
4D822
330
4D50F
100
AcDbEntity
  8
0
 62
     0
100
AcDbLine
 10
407.5784009999999
 20
279.2505839999999
 30
0.0
 11
407.999416
 21
279.6715989999998
 31
0.0
  0
LINE
  5
4D823
330
4D50F
100
AcDbEntity
  8
0
 62
     0
100
AcDbLine
 10
407.651911
 20
279.2533830000002
 30
0.0
 11
407.9966169999999
 21
279.5980890000001
 31
0.0
  0
LINE
  5
4D824
330
4D50F
100
AcDbEntity
  8
0
 62
     0
100
AcDbLine
 10
407.7473799999999
 20
279.2781409999998
 30
0.0
 11
407.9718589999999
 21
279.5026200000002
 31
0.0
  0
LINE
  5
4D825
330
4D50F
100
AcDbEntity
  8
0
 62
     0
100
AcDbLine
 10
407.1999999999999
 20
279.6500000000001
 30
0.0
 11
407.6
 21
279.25
 31
0.0
  0
LINE
  5
4D826
330
4D50F
100
AcDbEntity
  8
0
 62
     0
100
AcDbLine
 10
407.205372
 20
279.715338
 30
0.0
 11
407.6653379999999
 21
279.2553720000001
 31
0.0
  0
LINE
  5
4D827
330
4D50F
100
AcDbEntity
  8
0
 62
     0
100
AcDbLine
 10
407.2191469999999
 20
279.7722739999999
 30
0.0
 11
407.7222740000001
 21
279.269147
 31
0.0
  0
LINE
  5
4D828
330
4D50F
100
AcDbEntity
  8
0
 62
     0
100
AcDbLine
 10
407.239277
 20
279.8228549999999
 30
0.0
 11
407.772855
 21
279.2892769999999
 31
0.0
  0
LINE
  5
4D829
330
4D50F
100
AcDbEntity
  8
0
 62
     0
100
AcDbLine
 10
407.2647109999999
 20
279.8681320000001
 30
0.0
 11
407.818132
 21
279.314711
 31
0.0
  0
LINE
  5
4D82A
330
4D50F
100
AcDbEntity
  8
0
 62
     0
100
AcDbLine
 10
407.2948889999999
 20
279.908664
 30
0.0
 11
407.858664
 21
279.344889
 31
0.0
  0
LINE
  5
4D82B
330
4D50F
100
AcDbEntity
  8
0
 62
     0
100
AcDbLine
 10
407.32955
 20
279.9447140000002
 30
0.0
 11
407.8947140000001
 21
279.3795500000001
 31
0.0
  0
LINE
  5
4D82C
330
4D50F
100
AcDbEntity
  8
0
 62
     0
100
AcDbLine
 10
407.36866
 20
279.9763149999999
 30
0.0
 11
407.926315
 21
279.4186599999998
 31
0.0
  0
LINE
  5
4D82D
330
4D50F
100
AcDbEntity
  8
0
 62
     0
100
AcDbLine
 10
407.412404
 20
280.0032810000002
 30
0.0
 11
407.9532810000002
 21
279.4624039999999
 31
0.0
  0
LINE
  5
4D82E
330
4D50F
100
AcDbEntity
  8
0
 62
     0
100
AcDbLine
 10
407.4612370000001
 20
280.0251600000001
 30
0.0
 11
407.9751600000001
 21
279.5112370000002
 31
0.0
  0
LINE
  5
4D82F
330
4D50F
100
AcDbEntity
  8
0
 62
     0
100
AcDbLine
 10
407.5160219999999
 20
280.0410849999998
 30
0.0
 11
407.991085
 21
279.566022
 31
0.0
  0
LINE
  5
4D830
330
4D50F
100
AcDbEntity
  8
0
 62
     0
100
AcDbLine
 10
407.5784009999999
 20
280.0494159999998
 30
0.0
 11
407.999416
 21
279.6284009999999
 31
0.0
  0
LINE
  5
4D831
330
4D50F
100
AcDbEntity
  8
0
 62
     0
100
AcDbLine
 10
407.651911
 20
280.046617
 30
0.0
 11
407.9966169999999
 21
279.7019110000001
 31
0.0
  0
LINE
  5
4D832
330
4D50F
100
AcDbEntity
  8
0
 62
     0
100
AcDbLine
 10
407.7473799999999
 20
280.0218589999999
 30
0.0
 11
407.9718589999999
 21
279.79738
 31
0.0
  0
LINE
  5
4D833
330
4D50F
100
AcDbEntity
  8
0
 62
     0
100
AcDbLine
 10
407.2077760000001
 20
279.5715140000002
 30
0.0
 11
407.5215140000001
 21
279.2577759999999
 31
0.0
  0
LINE
  5
4D834
330
4D50F
100
AcDbEntity
  8
0
 62
     0
100
AcDbLine
 10
407.24734
 20
279.4612390000002
 30
0.0
 11
407.4112390000001
 21
279.2973400000001
 31
0.0
  0
LINE
  5
4D835
330
4D50F
100
AcDbEntity
  8
0
 62
     0
100
AcDbLine
 10
407.1999999999999
 20
273.6500000000001
 30
0.0
 11
407.6
 21
274.0500000000002
 31
0.0
  0
LINE
  5
4D836
330
4D50F
100
AcDbEntity
  8
0
 62
     0
100
AcDbLine
 10
407.2077760000001
 20
273.728486
 30
0.0
 11
407.5215140000001
 21
274.0422239999998
 31
0.0
  0
LINE
  5
4D837
330
4D50F
100
AcDbEntity
  8
0
 62
     0
100
AcDbLine
 10
407.24734
 20
273.838761
 30
0.0
 11
407.4112390000001
 21
274.0026600000001
 31
0.0
  0
LINE
  5
4D838
330
4D50F
100
AcDbEntity
  8
0
 62
     0
100
AcDbLine
 10
407.205372
 20
273.5846620000002
 30
0.0
 11
407.6653379999999
 21
274.0446280000001
 31
0.0
  0
LINE
  5
4D839
330
4D50F
100
AcDbEntity
  8
0
 62
     0
100
AcDbLine
 10
407.2191469999999
 20
273.5277259999998
 30
0.0
 11
407.7222740000001
 21
274.0308530000002
 31
0.0
  0
LINE
  5
4D83A
330
4D50F
100
AcDbEntity
  8
0
 62
     0
100
AcDbLine
 10
407.239277
 20
273.4771449999998
 30
0.0
 11
407.772855
 21
274.0107229999999
 31
0.0
  0
LINE
  5
4D83B
330
4D50F
100
AcDbEntity
  8
0
 62
     0
100
AcDbLine
 10
407.2647109999999
 20
273.4318680000001
 30
0.0
 11
407.818132
 21
273.9852890000002
 31
0.0
  0
LINE
  5
4D83C
330
4D50F
100
AcDbEntity
  8
0
 62
     0
100
AcDbLine
 10
407.2948889999999
 20
273.3913360000001
 30
0.0
 11
407.858664
 21
273.9551110000002
 31
0.0
  0
LINE
  5
4D83D
330
4D50F
100
AcDbEntity
  8
0
 62
     0
100
AcDbLine
 10
407.32955
 20
273.355286
 30
0.0
 11
407.8947140000001
 21
273.9204500000001
 31
0.0
  0
LINE
  5
4D83E
330
4D50F
100
AcDbEntity
  8
0
 62
     0
100
AcDbLine
 10
407.36866
 20
273.3236849999998
 30
0.0
 11
407.926315
 21
273.8813399999999
 31
0.0
  0
LINE
  5
4D83F
330
4D50F
100
AcDbEntity
  8
0
 62
     0
100
AcDbLine
 10
407.412404
 20
273.2967189999999
 30
0.0
 11
407.9532810000002
 21
273.8375959999998
 31
0.0
  0
LINE
  5
4D840
330
4D50F
100
AcDbEntity
  8
0
 62
     0
100
AcDbLine
 10
407.4612370000001
 20
273.27484
 30
0.0
 11
407.9751600000001
 21
273.788763
 31
0.0
  0
LINE
  5
4D841
330
4D50F
100
AcDbEntity
  8
0
 62
     0
100
AcDbLine
 10
407.5160219999999
 20
273.2589149999999
 30
0.0
 11
407.991085
 21
273.7339780000002
 31
0.0
  0
LINE
  5
4D842
330
4D50F
100
AcDbEntity
  8
0
 62
     0
100
AcDbLine
 10
407.5784009999999
 20
273.2505839999999
 30
0.0
 11
407.999416
 21
273.6715989999998
 31
0.0
  0
LINE
  5
4D843
330
4D50F
100
AcDbEntity
  8
0
 62
     0
100
AcDbLine
 10
407.651911
 20
273.2533830000002
 30
0.0
 11
407.9966169999999
 21
273.5980890000001
 31
0.0
  0
LINE
  5
4D844
330
4D50F
100
AcDbEntity
  8
0
 62
     0
100
AcDbLine
 10
407.7473799999999
 20
273.2781409999998
 30
0.0
 11
407.9718589999999
 21
273.5026200000002
 31
0.0
  0
LINE
  5
4D845
330
4D50F
100
AcDbEntity
  8
0
 62
     0
100
AcDbLine
 10
407.1999999999999
 20
273.6500000000001
 30
0.0
 11
407.6
 21
273.25
 31
0.0
  0
LINE
  5
4D846
330
4D50F
100
AcDbEntity
  8
0
 62
     0
100
AcDbLine
 10
407.205372
 20
273.715338
 30
0.0
 11
407.6653379999999
 21
273.2553720000001
 31
0.0
  0
LINE
  5
4D847
330
4D50F
100
AcDbEntity
  8
0
 62
     0
100
AcDbLine
 10
407.2191469999999
 20
273.7722739999999
 30
0.0
 11
407.7222740000001
 21
273.269147
 31
0.0
  0
LINE
  5
4D848
330
4D50F
100
AcDbEntity
  8
0
 62
     0
100
AcDbLine
 10
407.239277
 20
273.8228549999999
 30
0.0
 11
407.772855
 21
273.2892769999999
 31
0.0
  0
LINE
  5
4D849
330
4D50F
100
AcDbEntity
  8
0
 62
     0
100
AcDbLine
 10
407.2647109999999
 20
273.8681320000001
 30
0.0
 11
407.818132
 21
273.314711
 31
0.0
  0
LINE
  5
4D84A
330
4D50F
100
AcDbEntity
  8
0
 62
     0
100
AcDbLine
 10
407.2948889999999
 20
273.908664
 30
0.0
 11
407.858664
 21
273.344889
 31
0.0
  0
LINE
  5
4D84B
330
4D50F
100
AcDbEntity
  8
0
 62
     0
100
AcDbLine
 10
407.32955
 20
273.9447140000002
 30
0.0
 11
407.8947140000001
 21
273.3795500000001
 31
0.0
  0
LINE
  5
4D84C
330
4D50F
100
AcDbEntity
  8
0
 62
     0
100
AcDbLine
 10
407.36866
 20
273.9763149999999
 30
0.0
 11
407.926315
 21
273.4186599999998
 31
0.0
  0
LINE
  5
4D84D
330
4D50F
100
AcDbEntity
  8
0
 62
     0
100
AcDbLine
 10
407.412404
 20
274.0032809999998
 30
0.0
 11
407.9532810000002
 21
273.4624039999999
 31
0.0
  0
LINE
  5
4D84E
330
4D50F
100
AcDbEntity
  8
0
 62
     0
100
AcDbLine
 10
407.4612370000001
 20
274.0251600000001
 30
0.0
 11
407.9751600000001
 21
273.5112370000002
 31
0.0
  0
LINE
  5
4D84F
330
4D50F
100
AcDbEntity
  8
0
 62
     0
100
AcDbLine
 10
407.5160219999999
 20
274.0410849999998
 30
0.0
 11
407.991085
 21
273.566022
 31
0.0
  0
LINE
  5
4D850
330
4D50F
100
AcDbEntity
  8
0
 62
     0
100
AcDbLine
 10
407.5784009999999
 20
274.0494159999998
 30
0.0
 11
407.999416
 21
273.6284009999999
 31
0.0
  0
LINE
  5
4D851
330
4D50F
100
AcDbEntity
  8
0
 62
     0
100
AcDbLine
 10
407.651911
 20
274.046617
 30
0.0
 11
407.9966169999999
 21
273.7019110000001
 31
0.0
  0
LINE
  5
4D852
330
4D50F
100
AcDbEntity
  8
0
 62
     0
100
AcDbLine
 10
407.7473799999999
 20
274.0218589999999
 30
0.0
 11
407.9718589999999
 21
273.79738
 31
0.0
  0
LINE
  5
4D853
330
4D50F
100
AcDbEntity
  8
0
 62
     0
100
AcDbLine
 10
407.2077760000001
 20
273.5715140000002
 30
0.0
 11
407.5215140000001
 21
273.2577759999999
 31
0.0
  0
LINE
  5
4D854
330
4D50F
100
AcDbEntity
  8
0
 62
     0
100
AcDbLine
 10
407.24734
 20
273.4612390000002
 30
0.0
 11
407.4112390000001
 21
273.2973400000001
 31
0.0
  0
LINE
  5
4D855
330
4D50F
100
AcDbEntity
  8
0
 62
     0
100
AcDbLine
 10
407.1999999999999
 20
267.6500000000001
 30
0.0
 11
407.6
 21
268.0500000000002
 31
0.0
  0
LINE
  5
4D856
330
4D50F
100
AcDbEntity
  8
0
 62
     0
100
AcDbLine
 10
407.2077760000001
 20
267.728486
 30
0.0
 11
407.5215140000001
 21
268.0422239999998
 31
0.0
  0
LINE
  5
4D857
330
4D50F
100
AcDbEntity
  8
0
 62
     0
100
AcDbLine
 10
407.24734
 20
267.838761
 30
0.0
 11
407.4112390000001
 21
268.0026600000001
 31
0.0
  0
LINE
  5
4D858
330
4D50F
100
AcDbEntity
  8
0
 62
     0
100
AcDbLine
 10
407.205372
 20
267.5846620000002
 30
0.0
 11
407.6653379999999
 21
268.0446280000001
 31
0.0
  0
LINE
  5
4D859
330
4D50F
100
AcDbEntity
  8
0
 62
     0
100
AcDbLine
 10
407.2191469999999
 20
267.5277259999998
 30
0.0
 11
407.7222740000001
 21
268.0308530000002
 31
0.0
  0
LINE
  5
4D85A
330
4D50F
100
AcDbEntity
  8
0
 62
     0
100
AcDbLine
 10
407.239277
 20
267.4771449999998
 30
0.0
 11
407.772855
 21
268.0107229999999
 31
0.0
  0
LINE
  5
4D85B
330
4D50F
100
AcDbEntity
  8
0
 62
     0
100
AcDbLine
 10
407.2647109999999
 20
267.4318680000001
 30
0.0
 11
407.818132
 21
267.9852890000002
 31
0.0
  0
LINE
  5
4D85C
330
4D50F
100
AcDbEntity
  8
0
 62
     0
100
AcDbLine
 10
407.2948889999999
 20
267.3913360000001
 30
0.0
 11
407.858664
 21
267.9551110000002
 31
0.0
  0
LINE
  5
4D85D
330
4D50F
100
AcDbEntity
  8
0
 62
     0
100
AcDbLine
 10
407.32955
 20
267.355286
 30
0.0
 11
407.8947140000001
 21
267.9204500000001
 31
0.0
  0
LINE
  5
4D85E
330
4D50F
100
AcDbEntity
  8
0
 62
     0
100
AcDbLine
 10
407.36866
 20
267.3236849999998
 30
0.0
 11
407.926315
 21
267.8813399999999
 31
0.0
  0
LINE
  5
4D85F
330
4D50F
100
AcDbEntity
  8
0
 62
     0
100
AcDbLine
 10
407.412404
 20
267.2967189999999
 30
0.0
 11
407.9532810000002
 21
267.8375959999998
 31
0.0
  0
LINE
  5
4D860
330
4D50F
100
AcDbEntity
  8
0
 62
     0
100
AcDbLine
 10
407.4612370000001
 20
267.27484
 30
0.0
 11
407.9751600000001
 21
267.788763
 31
0.0
  0
LINE
  5
4D861
330
4D50F
100
AcDbEntity
  8
0
 62
     0
100
AcDbLine
 10
407.5160219999999
 20
267.2589149999999
 30
0.0
 11
407.991085
 21
267.7339780000002
 31
0.0
  0
LINE
  5
4D862
330
4D50F
100
AcDbEntity
  8
0
 62
     0
100
AcDbLine
 10
407.5784009999999
 20
267.2505839999999
 30
0.0
 11
407.999416
 21
267.6715989999998
 31
0.0
  0
LINE
  5
4D863
330
4D50F
100
AcDbEntity
  8
0
 62
     0
100
AcDbLine
 10
407.651911
 20
267.2533830000002
 30
0.0
 11
407.9966169999999
 21
267.5980890000001
 31
0.0
  0
LINE
  5
4D864
330
4D50F
100
AcDbEntity
  8
0
 62
     0
100
AcDbLine
 10
407.7473799999999
 20
267.2781409999998
 30
0.0
 11
407.9718589999999
 21
267.5026200000002
 31
0.0
  0
LINE
  5
4D865
330
4D50F
100
AcDbEntity
  8
0
 62
     0
100
AcDbLine
 10
407.1999999999999
 20
267.6500000000001
 30
0.0
 11
407.6
 21
267.25
 31
0.0
  0
LINE
  5
4D866
330
4D50F
100
AcDbEntity
  8
0
 62
     0
100
AcDbLine
 10
407.205372
 20
267.715338
 30
0.0
 11
407.6653379999999
 21
267.2553720000001
 31
0.0
  0
LINE
  5
4D867
330
4D50F
100
AcDbEntity
  8
0
 62
     0
100
AcDbLine
 10
407.2191469999999
 20
267.7722739999999
 30
0.0
 11
407.7222740000001
 21
267.269147
 31
0.0
  0
LINE
  5
4D868
330
4D50F
100
AcDbEntity
  8
0
 62
     0
100
AcDbLine
 10
407.239277
 20
267.8228549999999
 30
0.0
 11
407.772855
 21
267.2892769999999
 31
0.0
  0
LINE
  5
4D869
330
4D50F
100
AcDbEntity
  8
0
 62
     0
100
AcDbLine
 10
407.2647109999999
 20
267.8681320000001
 30
0.0
 11
407.818132
 21
267.314711
 31
0.0
  0
LINE
  5
4D86A
330
4D50F
100
AcDbEntity
  8
0
 62
     0
100
AcDbLine
 10
407.2948889999999
 20
267.908664
 30
0.0
 11
407.858664
 21
267.344889
 31
0.0
  0
LINE
  5
4D86B
330
4D50F
100
AcDbEntity
  8
0
 62
     0
100
AcDbLine
 10
407.32955
 20
267.9447140000002
 30
0.0
 11
407.8947140000001
 21
267.3795500000001
 31
0.0
  0
LINE
  5
4D86C
330
4D50F
100
AcDbEntity
  8
0
 62
     0
100
AcDbLine
 10
407.36866
 20
267.9763149999999
 30
0.0
 11
407.926315
 21
267.4186599999998
 31
0.0
  0
LINE
  5
4D86D
330
4D50F
100
AcDbEntity
  8
0
 62
     0
100
AcDbLine
 10
407.412404
 20
268.0032809999998
 30
0.0
 11
407.9532810000002
 21
267.4624039999999
 31
0.0
  0
LINE
  5
4D86E
330
4D50F
100
AcDbEntity
  8
0
 62
     0
100
AcDbLine
 10
407.4612370000001
 20
268.0251600000001
 30
0.0
 11
407.9751600000001
 21
267.5112370000002
 31
0.0
  0
LINE
  5
4D86F
330
4D50F
100
AcDbEntity
  8
0
 62
     0
100
AcDbLine
 10
407.5160219999999
 20
268.0410849999998
 30
0.0
 11
407.991085
 21
267.566022
 31
0.0
  0
LINE
  5
4D870
330
4D50F
100
AcDbEntity
  8
0
 62
     0
100
AcDbLine
 10
407.5784009999999
 20
268.0494159999998
 30
0.0
 11
407.999416
 21
267.6284009999999
 31
0.0
  0
LINE
  5
4D871
330
4D50F
100
AcDbEntity
  8
0
 62
     0
100
AcDbLine
 10
407.651911
 20
268.046617
 30
0.0
 11
407.9966169999999
 21
267.7019110000001
 31
0.0
  0
LINE
  5
4D872
330
4D50F
100
AcDbEntity
  8
0
 62
     0
100
AcDbLine
 10
407.7473799999999
 20
268.0218589999999
 30
0.0
 11
407.9718589999999
 21
267.79738
 31
0.0
  0
LINE
  5
4D873
330
4D50F
100
AcDbEntity
  8
0
 62
     0
100
AcDbLine
 10
407.2077760000001
 20
267.5715140000002
 30
0.0
 11
407.5215140000001
 21
267.2577759999999
 31
0.0
  0
LINE
  5
4D874
330
4D50F
100
AcDbEntity
  8
0
 62
     0
100
AcDbLine
 10
407.24734
 20
267.4612390000002
 30
0.0
 11
407.4112390000001
 21
267.2973400000001
 31
0.0
  0
LINE
  5
4D875
330
4D50F
100
AcDbEntity
  8
0
 62
     0
100
AcDbLine
 10
407.1999999999999
 20
261.6500000000001
 30
0.0
 11
407.6
 21
262.0500000000002
 31
0.0
  0
LINE
  5
4D876
330
4D50F
100
AcDbEntity
  8
0
 62
     0
100
AcDbLine
 10
407.2077760000001
 20
261.728486
 30
0.0
 11
407.5215140000001
 21
262.0422239999998
 31
0.0
  0
LINE
  5
4D877
330
4D50F
100
AcDbEntity
  8
0
 62
     0
100
AcDbLine
 10
407.24734
 20
261.838761
 30
0.0
 11
407.4112390000001
 21
262.0026600000001
 31
0.0
  0
LINE
  5
4D878
330
4D50F
100
AcDbEntity
  8
0
 62
     0
100
AcDbLine
 10
407.205372
 20
261.5846620000002
 30
0.0
 11
407.6653379999999
 21
262.0446280000001
 31
0.0
  0
LINE
  5
4D879
330
4D50F
100
AcDbEntity
  8
0
 62
     0
100
AcDbLine
 10
407.2191469999999
 20
261.5277259999998
 30
0.0
 11
407.7222740000001
 21
262.0308530000002
 31
0.0
  0
LINE
  5
4D87A
330
4D50F
100
AcDbEntity
  8
0
 62
     0
100
AcDbLine
 10
407.239277
 20
261.4771449999998
 30
0.0
 11
407.772855
 21
262.0107229999999
 31
0.0
  0
LINE
  5
4D87B
330
4D50F
100
AcDbEntity
  8
0
 62
     0
100
AcDbLine
 10
407.2647109999999
 20
261.4318680000001
 30
0.0
 11
407.818132
 21
261.9852890000002
 31
0.0
  0
LINE
  5
4D87C
330
4D50F
100
AcDbEntity
  8
0
 62
     0
100
AcDbLine
 10
407.2948889999999
 20
261.3913360000001
 30
0.0
 11
407.858664
 21
261.9551110000002
 31
0.0
  0
LINE
  5
4D87D
330
4D50F
100
AcDbEntity
  8
0
 62
     0
100
AcDbLine
 10
407.32955
 20
261.355286
 30
0.0
 11
407.8947140000001
 21
261.9204500000001
 31
0.0
  0
LINE
  5
4D87E
330
4D50F
100
AcDbEntity
  8
0
 62
     0
100
AcDbLine
 10
407.36866
 20
261.3236849999998
 30
0.0
 11
407.926315
 21
261.8813399999999
 31
0.0
  0
LINE
  5
4D87F
330
4D50F
100
AcDbEntity
  8
0
 62
     0
100
AcDbLine
 10
407.412404
 20
261.2967189999999
 30
0.0
 11
407.9532810000002
 21
261.8375959999998
 31
0.0
  0
LINE
  5
4D880
330
4D50F
100
AcDbEntity
  8
0
 62
     0
100
AcDbLine
 10
407.4612370000001
 20
261.27484
 30
0.0
 11
407.9751600000001
 21
261.788763
 31
0.0
  0
LINE
  5
4D881
330
4D50F
100
AcDbEntity
  8
0
 62
     0
100
AcDbLine
 10
407.5160219999999
 20
261.2589149999999
 30
0.0
 11
407.991085
 21
261.7339780000002
 31
0.0
  0
LINE
  5
4D882
330
4D50F
100
AcDbEntity
  8
0
 62
     0
100
AcDbLine
 10
407.5784009999999
 20
261.2505839999999
 30
0.0
 11
407.999416
 21
261.6715989999998
 31
0.0
  0
LINE
  5
4D883
330
4D50F
100
AcDbEntity
  8
0
 62
     0
100
AcDbLine
 10
407.651911
 20
261.2533830000002
 30
0.0
 11
407.9966169999999
 21
261.5980890000001
 31
0.0
  0
LINE
  5
4D884
330
4D50F
100
AcDbEntity
  8
0
 62
     0
100
AcDbLine
 10
407.7473799999999
 20
261.2781409999998
 30
0.0
 11
407.9718589999999
 21
261.5026200000002
 31
0.0
  0
LINE
  5
4D885
330
4D50F
100
AcDbEntity
  8
0
 62
     0
100
AcDbLine
 10
407.1999999999999
 20
261.6500000000001
 30
0.0
 11
407.6
 21
261.25
 31
0.0
  0
LINE
  5
4D886
330
4D50F
100
AcDbEntity
  8
0
 62
     0
100
AcDbLine
 10
407.205372
 20
261.715338
 30
0.0
 11
407.6653379999999
 21
261.2553720000001
 31
0.0
  0
LINE
  5
4D887
330
4D50F
100
AcDbEntity
  8
0
 62
     0
100
AcDbLine
 10
407.2191469999999
 20
261.7722739999999
 30
0.0
 11
407.7222740000001
 21
261.269147
 31
0.0
  0
LINE
  5
4D888
330
4D50F
100
AcDbEntity
  8
0
 62
     0
100
AcDbLine
 10
407.239277
 20
261.8228549999999
 30
0.0
 11
407.772855
 21
261.2892769999999
 31
0.0
  0
LINE
  5
4D889
330
4D50F
100
AcDbEntity
  8
0
 62
     0
100
AcDbLine
 10
407.2647109999999
 20
261.8681320000001
 30
0.0
 11
407.818132
 21
261.314711
 31
0.0
  0
LINE
  5
4D88A
330
4D50F
100
AcDbEntity
  8
0
 62
     0
100
AcDbLine
 10
407.2948889999999
 20
261.908664
 30
0.0
 11
407.858664
 21
261.344889
 31
0.0
  0
LINE
  5
4D88B
330
4D50F
100
AcDbEntity
  8
0
 62
     0
100
AcDbLine
 10
407.32955
 20
261.9447140000002
 30
0.0
 11
407.8947140000001
 21
261.3795500000001
 31
0.0
  0
LINE
  5
4D88C
330
4D50F
100
AcDbEntity
  8
0
 62
     0
100
AcDbLine
 10
407.36866
 20
261.9763149999999
 30
0.0
 11
407.926315
 21
261.4186599999998
 31
0.0
  0
LINE
  5
4D88D
330
4D50F
100
AcDbEntity
  8
0
 62
     0
100
AcDbLine
 10
407.412404
 20
262.0032809999998
 30
0.0
 11
407.9532810000002
 21
261.4624039999999
 31
0.0
  0
LINE
  5
4D88E
330
4D50F
100
AcDbEntity
  8
0
 62
     0
100
AcDbLine
 10
407.4612370000001
 20
262.0251600000001
 30
0.0
 11
407.9751600000001
 21
261.5112370000002
 31
0.0
  0
LINE
  5
4D88F
330
4D50F
100
AcDbEntity
  8
0
 62
     0
100
AcDbLine
 10
407.5160219999999
 20
262.0410849999998
 30
0.0
 11
407.991085
 21
261.566022
 31
0.0
  0
LINE
  5
4D890
330
4D50F
100
AcDbEntity
  8
0
 62
     0
100
AcDbLine
 10
407.5784009999999
 20
262.0494159999998
 30
0.0
 11
407.999416
 21
261.6284009999999
 31
0.0
  0
LINE
  5
4D891
330
4D50F
100
AcDbEntity
  8
0
 62
     0
100
AcDbLine
 10
407.651911
 20
262.046617
 30
0.0
 11
407.9966169999999
 21
261.7019110000001
 31
0.0
  0
LINE
  5
4D892
330
4D50F
100
AcDbEntity
  8
0
 62
     0
100
AcDbLine
 10
407.7473799999999
 20
262.0218589999999
 30
0.0
 11
407.9718589999999
 21
261.79738
 31
0.0
  0
LINE
  5
4D893
330
4D50F
100
AcDbEntity
  8
0
 62
     0
100
AcDbLine
 10
407.2077760000001
 20
261.5715140000002
 30
0.0
 11
407.5215140000001
 21
261.2577759999999
 31
0.0
  0
LINE
  5
4D894
330
4D50F
100
AcDbEntity
  8
0
 62
     0
100
AcDbLine
 10
407.24734
 20
261.4612390000002
 30
0.0
 11
407.4112390000001
 21
261.2973400000001
 31
0.0
  0
LINE
  5
4D895
330
4D50F
100
AcDbEntity
  8
0
 62
     0
100
AcDbLine
 10
407.1999999999999
 20
255.6500000000001
 30
0.0
 11
407.6
 21
256.0500000000002
 31
0.0
  0
LINE
  5
4D896
330
4D50F
100
AcDbEntity
  8
0
 62
     0
100
AcDbLine
 10
407.2077760000001
 20
255.728486
 30
0.0
 11
407.5215140000001
 21
256.0422239999998
 31
0.0
  0
LINE
  5
4D897
330
4D50F
100
AcDbEntity
  8
0
 62
     0
100
AcDbLine
 10
407.24734
 20
255.838761
 30
0.0
 11
407.4112390000001
 21
256.0026600000001
 31
0.0
  0
LINE
  5
4D898
330
4D50F
100
AcDbEntity
  8
0
 62
     0
100
AcDbLine
 10
407.205372
 20
255.5846620000002
 30
0.0
 11
407.6653379999999
 21
256.0446280000001
 31
0.0
  0
LINE
  5
4D899
330
4D50F
100
AcDbEntity
  8
0
 62
     0
100
AcDbLine
 10
407.2191469999999
 20
255.5277259999998
 30
0.0
 11
407.7222740000001
 21
256.0308530000002
 31
0.0
  0
LINE
  5
4D89A
330
4D50F
100
AcDbEntity
  8
0
 62
     0
100
AcDbLine
 10
407.239277
 20
255.4771449999998
 30
0.0
 11
407.772855
 21
256.0107229999999
 31
0.0
  0
LINE
  5
4D89B
330
4D50F
100
AcDbEntity
  8
0
 62
     0
100
AcDbLine
 10
407.2647109999999
 20
255.4318680000001
 30
0.0
 11
407.818132
 21
255.9852890000002
 31
0.0
  0
LINE
  5
4D89C
330
4D50F
100
AcDbEntity
  8
0
 62
     0
100
AcDbLine
 10
407.2948889999999
 20
255.3913360000001
 30
0.0
 11
407.858664
 21
255.9551110000002
 31
0.0
  0
LINE
  5
4D89D
330
4D50F
100
AcDbEntity
  8
0
 62
     0
100
AcDbLine
 10
407.32955
 20
255.355286
 30
0.0
 11
407.8947140000001
 21
255.9204500000001
 31
0.0
  0
LINE
  5
4D89E
330
4D50F
100
AcDbEntity
  8
0
 62
     0
100
AcDbLine
 10
407.36866
 20
255.3236849999998
 30
0.0
 11
407.926315
 21
255.8813399999999
 31
0.0
  0
LINE
  5
4D89F
330
4D50F
100
AcDbEntity
  8
0
 62
     0
100
AcDbLine
 10
407.412404
 20
255.2967189999999
 30
0.0
 11
407.9532810000002
 21
255.8375959999998
 31
0.0
  0
LINE
  5
4D8A0
330
4D50F
100
AcDbEntity
  8
0
 62
     0
100
AcDbLine
 10
407.4612370000001
 20
255.27484
 30
0.0
 11
407.9751600000001
 21
255.788763
 31
0.0
  0
LINE
  5
4D8A1
330
4D50F
100
AcDbEntity
  8
0
 62
     0
100
AcDbLine
 10
407.5160219999999
 20
255.2589149999999
 30
0.0
 11
407.991085
 21
255.7339780000002
 31
0.0
  0
LINE
  5
4D8A2
330
4D50F
100
AcDbEntity
  8
0
 62
     0
100
AcDbLine
 10
407.5784009999999
 20
255.2505839999999
 30
0.0
 11
407.999416
 21
255.6715989999998
 31
0.0
  0
LINE
  5
4D8A3
330
4D50F
100
AcDbEntity
  8
0
 62
     0
100
AcDbLine
 10
407.651911
 20
255.2533830000002
 30
0.0
 11
407.9966169999999
 21
255.5980890000001
 31
0.0
  0
LINE
  5
4D8A4
330
4D50F
100
AcDbEntity
  8
0
 62
     0
100
AcDbLine
 10
407.7473799999999
 20
255.2781409999998
 30
0.0
 11
407.9718589999999
 21
255.5026200000002
 31
0.0
  0
LINE
  5
4D8A5
330
4D50F
100
AcDbEntity
  8
0
 62
     0
100
AcDbLine
 10
407.1999999999999
 20
255.6500000000001
 30
0.0
 11
407.6
 21
255.25
 31
0.0
  0
LINE
  5
4D8A6
330
4D50F
100
AcDbEntity
  8
0
 62
     0
100
AcDbLine
 10
407.205372
 20
255.715338
 30
0.0
 11
407.6653379999999
 21
255.2553720000001
 31
0.0
  0
LINE
  5
4D8A7
330
4D50F
100
AcDbEntity
  8
0
 62
     0
100
AcDbLine
 10
407.2191469999999
 20
255.7722739999999
 30
0.0
 11
407.7222740000001
 21
255.269147
 31
0.0
  0
LINE
  5
4D8A8
330
4D50F
100
AcDbEntity
  8
0
 62
     0
100
AcDbLine
 10
407.239277
 20
255.8228549999999
 30
0.0
 11
407.772855
 21
255.2892769999999
 31
0.0
  0
LINE
  5
4D8A9
330
4D50F
100
AcDbEntity
  8
0
 62
     0
100
AcDbLine
 10
407.2647109999999
 20
255.8681320000001
 30
0.0
 11
407.818132
 21
255.314711
 31
0.0
  0
LINE
  5
4D8AA
330
4D50F
100
AcDbEntity
  8
0
 62
     0
100
AcDbLine
 10
407.2948889999999
 20
255.908664
 30
0.0
 11
407.858664
 21
255.344889
 31
0.0
  0
LINE
  5
4D8AB
330
4D50F
100
AcDbEntity
  8
0
 62
     0
100
AcDbLine
 10
407.32955
 20
255.9447140000002
 30
0.0
 11
407.8947140000001
 21
255.3795500000001
 31
0.0
  0
LINE
  5
4D8AC
330
4D50F
100
AcDbEntity
  8
0
 62
     0
100
AcDbLine
 10
407.36866
 20
255.9763149999999
 30
0.0
 11
407.926315
 21
255.4186599999998
 31
0.0
  0
LINE
  5
4D8AD
330
4D50F
100
AcDbEntity
  8
0
 62
     0
100
AcDbLine
 10
407.412404
 20
256.0032809999998
 30
0.0
 11
407.9532810000002
 21
255.4624039999999
 31
0.0
  0
LINE
  5
4D8AE
330
4D50F
100
AcDbEntity
  8
0
 62
     0
100
AcDbLine
 10
407.4612370000001
 20
256.0251600000001
 30
0.0
 11
407.9751600000001
 21
255.5112370000002
 31
0.0
  0
LINE
  5
4D8AF
330
4D50F
100
AcDbEntity
  8
0
 62
     0
100
AcDbLine
 10
407.5160219999999
 20
256.0410849999998
 30
0.0
 11
407.991085
 21
255.566022
 31
0.0
  0
LINE
  5
4D8B0
330
4D50F
100
AcDbEntity
  8
0
 62
     0
100
AcDbLine
 10
407.5784009999999
 20
256.0494159999998
 30
0.0
 11
407.999416
 21
255.6284009999999
 31
0.0
  0
LINE
  5
4D8B1
330
4D50F
100
AcDbEntity
  8
0
 62
     0
100
AcDbLine
 10
407.651911
 20
256.046617
 30
0.0
 11
407.9966169999999
 21
255.7019110000001
 31
0.0
  0
LINE
  5
4D8B2
330
4D50F
100
AcDbEntity
  8
0
 62
     0
100
AcDbLine
 10
407.7473799999999
 20
256.0218589999999
 30
0.0
 11
407.9718589999999
 21
255.79738
 31
0.0
  0
LINE
  5
4D8B3
330
4D50F
100
AcDbEntity
  8
0
 62
     0
100
AcDbLine
 10
407.2077760000001
 20
255.5715140000002
 30
0.0
 11
407.5215140000001
 21
255.2577759999999
 31
0.0
  0
LINE
  5
4D8B4
330
4D50F
100
AcDbEntity
  8
0
 62
     0
100
AcDbLine
 10
407.24734
 20
255.4612390000002
 30
0.0
 11
407.4112390000001
 21
255.2973400000001
 31
0.0
  0
LINE
  5
4D8B5
330
4D50F
100
AcDbEntity
  8
0
 62
     0
100
AcDbLine
 10
407.1999999999999
 20
249.6500000000001
 30
0.0
 11
407.6
 21
250.0500000000002
 31
0.0
  0
LINE
  5
4D8B6
330
4D50F
100
AcDbEntity
  8
0
 62
     0
100
AcDbLine
 10
407.2077760000001
 20
249.728486
 30
0.0
 11
407.5215140000001
 21
250.0422239999998
 31
0.0
  0
LINE
  5
4D8B7
330
4D50F
100
AcDbEntity
  8
0
 62
     0
100
AcDbLine
 10
407.24734
 20
249.838761
 30
0.0
 11
407.4112390000001
 21
250.0026600000001
 31
0.0
  0
LINE
  5
4D8B8
330
4D50F
100
AcDbEntity
  8
0
 62
     0
100
AcDbLine
 10
407.205372
 20
249.5846620000002
 30
0.0
 11
407.6653379999999
 21
250.0446280000001
 31
0.0
  0
LINE
  5
4D8B9
330
4D50F
100
AcDbEntity
  8
0
 62
     0
100
AcDbLine
 10
407.2191469999999
 20
249.5277259999998
 30
0.0
 11
407.7222740000001
 21
250.0308530000002
 31
0.0
  0
LINE
  5
4D8BA
330
4D50F
100
AcDbEntity
  8
0
 62
     0
100
AcDbLine
 10
407.239277
 20
249.4771449999998
 30
0.0
 11
407.772855
 21
250.0107229999999
 31
0.0
  0
LINE
  5
4D8BB
330
4D50F
100
AcDbEntity
  8
0
 62
     0
100
AcDbLine
 10
407.2647109999999
 20
249.4318680000001
 30
0.0
 11
407.818132
 21
249.9852890000002
 31
0.0
  0
LINE
  5
4D8BC
330
4D50F
100
AcDbEntity
  8
0
 62
     0
100
AcDbLine
 10
407.2948889999999
 20
249.3913360000001
 30
0.0
 11
407.858664
 21
249.9551110000002
 31
0.0
  0
LINE
  5
4D8BD
330
4D50F
100
AcDbEntity
  8
0
 62
     0
100
AcDbLine
 10
407.32955
 20
249.355286
 30
0.0
 11
407.8947140000001
 21
249.9204500000001
 31
0.0
  0
LINE
  5
4D8BE
330
4D50F
100
AcDbEntity
  8
0
 62
     0
100
AcDbLine
 10
407.36866
 20
249.3236849999998
 30
0.0
 11
407.926315
 21
249.8813399999999
 31
0.0
  0
LINE
  5
4D8BF
330
4D50F
100
AcDbEntity
  8
0
 62
     0
100
AcDbLine
 10
407.412404
 20
249.2967189999999
 30
0.0
 11
407.9532810000002
 21
249.8375959999998
 31
0.0
  0
LINE
  5
4D8C0
330
4D50F
100
AcDbEntity
  8
0
 62
     0
100
AcDbLine
 10
407.4612370000001
 20
249.27484
 30
0.0
 11
407.9751600000001
 21
249.788763
 31
0.0
  0
LINE
  5
4D8C1
330
4D50F
100
AcDbEntity
  8
0
 62
     0
100
AcDbLine
 10
407.5160219999999
 20
249.2589149999999
 30
0.0
 11
407.991085
 21
249.7339780000002
 31
0.0
  0
LINE
  5
4D8C2
330
4D50F
100
AcDbEntity
  8
0
 62
     0
100
AcDbLine
 10
407.5784009999999
 20
249.2505839999999
 30
0.0
 11
407.999416
 21
249.6715989999998
 31
0.0
  0
LINE
  5
4D8C3
330
4D50F
100
AcDbEntity
  8
0
 62
     0
100
AcDbLine
 10
407.651911
 20
249.2533830000002
 30
0.0
 11
407.9966169999999
 21
249.5980890000001
 31
0.0
  0
LINE
  5
4D8C4
330
4D50F
100
AcDbEntity
  8
0
 62
     0
100
AcDbLine
 10
407.7473799999999
 20
249.2781409999998
 30
0.0
 11
407.9718589999999
 21
249.5026200000002
 31
0.0
  0
LINE
  5
4D8C5
330
4D50F
100
AcDbEntity
  8
0
 62
     0
100
AcDbLine
 10
407.1999999999999
 20
249.6500000000001
 30
0.0
 11
407.6
 21
249.25
 31
0.0
  0
LINE
  5
4D8C6
330
4D50F
100
AcDbEntity
  8
0
 62
     0
100
AcDbLine
 10
407.205372
 20
249.715338
 30
0.0
 11
407.6653379999999
 21
249.2553720000001
 31
0.0
  0
LINE
  5
4D8C7
330
4D50F
100
AcDbEntity
  8
0
 62
     0
100
AcDbLine
 10
407.2191469999999
 20
249.7722739999999
 30
0.0
 11
407.7222740000001
 21
249.269147
 31
0.0
  0
LINE
  5
4D8C8
330
4D50F
100
AcDbEntity
  8
0
 62
     0
100
AcDbLine
 10
407.239277
 20
249.8228549999999
 30
0.0
 11
407.772855
 21
249.2892769999999
 31
0.0
  0
LINE
  5
4D8C9
330
4D50F
100
AcDbEntity
  8
0
 62
     0
100
AcDbLine
 10
407.2647109999999
 20
249.8681320000001
 30
0.0
 11
407.818132
 21
249.314711
 31
0.0
  0
LINE
  5
4D8CA
330
4D50F
100
AcDbEntity
  8
0
 62
     0
100
AcDbLine
 10
407.2948889999999
 20
249.908664
 30
0.0
 11
407.858664
 21
249.344889
 31
0.0
  0
LINE
  5
4D8CB
330
4D50F
100
AcDbEntity
  8
0
 62
     0
100
AcDbLine
 10
407.32955
 20
249.9447140000002
 30
0.0
 11
407.8947140000001
 21
249.3795500000001
 31
0.0
  0
LINE
  5
4D8CC
330
4D50F
100
AcDbEntity
  8
0
 62
     0
100
AcDbLine
 10
407.36866
 20
249.9763149999999
 30
0.0
 11
407.926315
 21
249.4186599999998
 31
0.0
  0
LINE
  5
4D8CD
330
4D50F
100
AcDbEntity
  8
0
 62
     0
100
AcDbLine
 10
407.412404
 20
250.0032809999998
 30
0.0
 11
407.9532810000002
 21
249.4624039999999
 31
0.0
  0
LINE
  5
4D8CE
330
4D50F
100
AcDbEntity
  8
0
 62
     0
100
AcDbLine
 10
407.4612370000001
 20
250.0251600000001
 30
0.0
 11
407.9751600000001
 21
249.5112370000002
 31
0.0
  0
LINE
  5
4D8CF
330
4D50F
100
AcDbEntity
  8
0
 62
     0
100
AcDbLine
 10
407.5160219999999
 20
250.0410849999998
 30
0.0
 11
407.991085
 21
249.566022
 31
0.0
  0
LINE
  5
4D8D0
330
4D50F
100
AcDbEntity
  8
0
 62
     0
100
AcDbLine
 10
407.5784009999999
 20
250.0494159999998
 30
0.0
 11
407.999416
 21
249.6284009999999
 31
0.0
  0
LINE
  5
4D8D1
330
4D50F
100
AcDbEntity
  8
0
 62
     0
100
AcDbLine
 10
407.651911
 20
250.046617
 30
0.0
 11
407.9966169999999
 21
249.7019110000001
 31
0.0
  0
LINE
  5
4D8D2
330
4D50F
100
AcDbEntity
  8
0
 62
     0
100
AcDbLine
 10
407.7473799999999
 20
250.0218589999999
 30
0.0
 11
407.9718589999999
 21
249.79738
 31
0.0
  0
LINE
  5
4D8D3
330
4D50F
100
AcDbEntity
  8
0
 62
     0
100
AcDbLine
 10
407.2077760000001
 20
249.5715140000002
 30
0.0
 11
407.5215140000001
 21
249.2577759999999
 31
0.0
  0
LINE
  5
4D8D4
330
4D50F
100
AcDbEntity
  8
0
 62
     0
100
AcDbLine
 10
407.24734
 20
249.4612390000002
 30
0.0
 11
407.4112390000001
 21
249.2973400000001
 31
0.0
  0
LINE
  5
4D8D5
330
4D50F
100
AcDbEntity
  8
0
 62
     0
100
AcDbLine
 10
407.1999999999999
 20
243.6500000000001
 30
0.0
 11
407.6
 21
244.0500000000002
 31
0.0
  0
LINE
  5
4D8D6
330
4D50F
100
AcDbEntity
  8
0
 62
     0
100
AcDbLine
 10
407.2077760000001
 20
243.728486
 30
0.0
 11
407.5215140000001
 21
244.0422239999998
 31
0.0
  0
LINE
  5
4D8D7
330
4D50F
100
AcDbEntity
  8
0
 62
     0
100
AcDbLine
 10
407.24734
 20
243.838761
 30
0.0
 11
407.4112390000001
 21
244.0026600000001
 31
0.0
  0
LINE
  5
4D8D8
330
4D50F
100
AcDbEntity
  8
0
 62
     0
100
AcDbLine
 10
407.205372
 20
243.5846620000002
 30
0.0
 11
407.6653379999999
 21
244.0446280000001
 31
0.0
  0
LINE
  5
4D8D9
330
4D50F
100
AcDbEntity
  8
0
 62
     0
100
AcDbLine
 10
407.2191469999999
 20
243.5277259999998
 30
0.0
 11
407.7222740000001
 21
244.0308530000002
 31
0.0
  0
LINE
  5
4D8DA
330
4D50F
100
AcDbEntity
  8
0
 62
     0
100
AcDbLine
 10
407.239277
 20
243.4771449999998
 30
0.0
 11
407.772855
 21
244.0107229999999
 31
0.0
  0
LINE
  5
4D8DB
330
4D50F
100
AcDbEntity
  8
0
 62
     0
100
AcDbLine
 10
407.2647109999999
 20
243.4318680000001
 30
0.0
 11
407.818132
 21
243.9852890000002
 31
0.0
  0
LINE
  5
4D8DC
330
4D50F
100
AcDbEntity
  8
0
 62
     0
100
AcDbLine
 10
407.2948889999999
 20
243.3913360000001
 30
0.0
 11
407.858664
 21
243.9551110000002
 31
0.0
  0
LINE
  5
4D8DD
330
4D50F
100
AcDbEntity
  8
0
 62
     0
100
AcDbLine
 10
407.32955
 20
243.355286
 30
0.0
 11
407.8947140000001
 21
243.9204500000001
 31
0.0
  0
LINE
  5
4D8DE
330
4D50F
100
AcDbEntity
  8
0
 62
     0
100
AcDbLine
 10
407.36866
 20
243.3236849999998
 30
0.0
 11
407.926315
 21
243.8813399999999
 31
0.0
  0
LINE
  5
4D8DF
330
4D50F
100
AcDbEntity
  8
0
 62
     0
100
AcDbLine
 10
407.412404
 20
243.2967189999999
 30
0.0
 11
407.9532810000002
 21
243.8375959999998
 31
0.0
  0
LINE
  5
4D8E0
330
4D50F
100
AcDbEntity
  8
0
 62
     0
100
AcDbLine
 10
407.4612370000001
 20
243.27484
 30
0.0
 11
407.9751600000001
 21
243.788763
 31
0.0
  0
LINE
  5
4D8E1
330
4D50F
100
AcDbEntity
  8
0
 62
     0
100
AcDbLine
 10
407.5160219999999
 20
243.2589149999999
 30
0.0
 11
407.991085
 21
243.7339780000002
 31
0.0
  0
LINE
  5
4D8E2
330
4D50F
100
AcDbEntity
  8
0
 62
     0
100
AcDbLine
 10
407.5784009999999
 20
243.2505839999999
 30
0.0
 11
407.999416
 21
243.6715989999998
 31
0.0
  0
LINE
  5
4D8E3
330
4D50F
100
AcDbEntity
  8
0
 62
     0
100
AcDbLine
 10
407.651911
 20
243.2533830000002
 30
0.0
 11
407.9966169999999
 21
243.5980890000001
 31
0.0
  0
LINE
  5
4D8E4
330
4D50F
100
AcDbEntity
  8
0
 62
     0
100
AcDbLine
 10
407.7473799999999
 20
243.2781409999998
 30
0.0
 11
407.9718589999999
 21
243.5026200000002
 31
0.0
  0
LINE
  5
4D8E5
330
4D50F
100
AcDbEntity
  8
0
 62
     0
100
AcDbLine
 10
407.1999999999999
 20
243.6500000000001
 30
0.0
 11
407.6
 21
243.25
 31
0.0
  0
LINE
  5
4D8E6
330
4D50F
100
AcDbEntity
  8
0
 62
     0
100
AcDbLine
 10
407.205372
 20
243.715338
 30
0.0
 11
407.6653379999999
 21
243.2553720000001
 31
0.0
  0
LINE
  5
4D8E7
330
4D50F
100
AcDbEntity
  8
0
 62
     0
100
AcDbLine
 10
407.2191469999999
 20
243.7722739999999
 30
0.0
 11
407.7222740000001
 21
243.269147
 31
0.0
  0
LINE
  5
4D8E8
330
4D50F
100
AcDbEntity
  8
0
 62
     0
100
AcDbLine
 10
407.239277
 20
243.8228549999999
 30
0.0
 11
407.772855
 21
243.2892769999999
 31
0.0
  0
LINE
  5
4D8E9
330
4D50F
100
AcDbEntity
  8
0
 62
     0
100
AcDbLine
 10
407.2647109999999
 20
243.8681320000001
 30
0.0
 11
407.818132
 21
243.314711
 31
0.0
  0
LINE
  5
4D8EA
330
4D50F
100
AcDbEntity
  8
0
 62
     0
100
AcDbLine
 10
407.2948889999999
 20
243.908664
 30
0.0
 11
407.858664
 21
243.344889
 31
0.0
  0
LINE
  5
4D8EB
330
4D50F
100
AcDbEntity
  8
0
 62
     0
100
AcDbLine
 10
407.32955
 20
243.9447140000002
 30
0.0
 11
407.8947140000001
 21
243.3795500000001
 31
0.0
  0
LINE
  5
4D8EC
330
4D50F
100
AcDbEntity
  8
0
 62
     0
100
AcDbLine
 10
407.36866
 20
243.9763149999999
 30
0.0
 11
407.926315
 21
243.4186599999998
 31
0.0
  0
LINE
  5
4D8ED
330
4D50F
100
AcDbEntity
  8
0
 62
     0
100
AcDbLine
 10
407.412404
 20
244.0032809999998
 30
0.0
 11
407.9532810000002
 21
243.4624039999999
 31
0.0
  0
LINE
  5
4D8EE
330
4D50F
100
AcDbEntity
  8
0
 62
     0
100
AcDbLine
 10
407.4612370000001
 20
244.0251600000001
 30
0.0
 11
407.9751600000001
 21
243.5112370000002
 31
0.0
  0
LINE
  5
4D8EF
330
4D50F
100
AcDbEntity
  8
0
 62
     0
100
AcDbLine
 10
407.5160219999999
 20
244.0410849999998
 30
0.0
 11
407.991085
 21
243.566022
 31
0.0
  0
LINE
  5
4D8F0
330
4D50F
100
AcDbEntity
  8
0
 62
     0
100
AcDbLine
 10
407.5784009999999
 20
244.0494159999998
 30
0.0
 11
407.999416
 21
243.6284009999999
 31
0.0
  0
LINE
  5
4D8F1
330
4D50F
100
AcDbEntity
  8
0
 62
     0
100
AcDbLine
 10
407.651911
 20
244.046617
 30
0.0
 11
407.9966169999999
 21
243.7019110000001
 31
0.0
  0
LINE
  5
4D8F2
330
4D50F
100
AcDbEntity
  8
0
 62
     0
100
AcDbLine
 10
407.7473799999999
 20
244.0218589999999
 30
0.0
 11
407.9718589999999
 21
243.79738
 31
0.0
  0
LINE
  5
4D8F3
330
4D50F
100
AcDbEntity
  8
0
 62
     0
100
AcDbLine
 10
407.2077760000001
 20
243.5715140000002
 30
0.0
 11
407.5215140000001
 21
243.2577759999999
 31
0.0
  0
LINE
  5
4D8F4
330
4D50F
100
AcDbEntity
  8
0
 62
     0
100
AcDbLine
 10
407.24734
 20
243.4612390000002
 30
0.0
 11
407.4112390000001
 21
243.2973400000001
 31
0.0
  0
LINE
  5
4D8F5
330
4D50F
100
AcDbEntity
  8
0
 62
     0
100
AcDbLine
 10
407.1999999999999
 20
237.6500000000001
 30
0.0
 11
407.6
 21
238.0500000000002
 31
0.0
  0
LINE
  5
4D8F6
330
4D50F
100
AcDbEntity
  8
0
 62
     0
100
AcDbLine
 10
407.2077760000001
 20
237.728486
 30
0.0
 11
407.5215140000001
 21
238.0422239999998
 31
0.0
  0
LINE
  5
4D8F7
330
4D50F
100
AcDbEntity
  8
0
 62
     0
100
AcDbLine
 10
407.24734
 20
237.838761
 30
0.0
 11
407.4112390000001
 21
238.0026600000001
 31
0.0
  0
LINE
  5
4D8F8
330
4D50F
100
AcDbEntity
  8
0
 62
     0
100
AcDbLine
 10
407.205372
 20
237.5846620000002
 30
0.0
 11
407.6653379999999
 21
238.0446280000001
 31
0.0
  0
LINE
  5
4D8F9
330
4D50F
100
AcDbEntity
  8
0
 62
     0
100
AcDbLine
 10
407.2191469999999
 20
237.5277259999998
 30
0.0
 11
407.7222740000001
 21
238.0308530000002
 31
0.0
  0
LINE
  5
4D8FA
330
4D50F
100
AcDbEntity
  8
0
 62
     0
100
AcDbLine
 10
407.239277
 20
237.4771449999998
 30
0.0
 11
407.772855
 21
238.0107229999999
 31
0.0
  0
LINE
  5
4D8FB
330
4D50F
100
AcDbEntity
  8
0
 62
     0
100
AcDbLine
 10
407.2647109999999
 20
237.4318680000001
 30
0.0
 11
407.818132
 21
237.9852890000002
 31
0.0
  0
LINE
  5
4D8FC
330
4D50F
100
AcDbEntity
  8
0
 62
     0
100
AcDbLine
 10
407.2948889999999
 20
237.3913360000001
 30
0.0
 11
407.858664
 21
237.9551110000002
 31
0.0
  0
LINE
  5
4D8FD
330
4D50F
100
AcDbEntity
  8
0
 62
     0
100
AcDbLine
 10
407.32955
 20
237.355286
 30
0.0
 11
407.8947140000001
 21
237.9204500000001
 31
0.0
  0
LINE
  5
4D8FE
330
4D50F
100
AcDbEntity
  8
0
 62
     0
100
AcDbLine
 10
407.36866
 20
237.3236849999998
 30
0.0
 11
407.926315
 21
237.8813399999999
 31
0.0
  0
LINE
  5
4D8FF
330
4D50F
100
AcDbEntity
  8
0
 62
     0
100
AcDbLine
 10
407.412404
 20
237.2967189999999
 30
0.0
 11
407.9532810000002
 21
237.8375959999998
 31
0.0
  0
LINE
  5
4D900
330
4D50F
100
AcDbEntity
  8
0
 62
     0
100
AcDbLine
 10
407.4612370000001
 20
237.27484
 30
0.0
 11
407.9751600000001
 21
237.788763
 31
0.0
  0
LINE
  5
4D901
330
4D50F
100
AcDbEntity
  8
0
 62
     0
100
AcDbLine
 10
407.5160219999999
 20
237.2589149999999
 30
0.0
 11
407.991085
 21
237.7339780000002
 31
0.0
  0
LINE
  5
4D902
330
4D50F
100
AcDbEntity
  8
0
 62
     0
100
AcDbLine
 10
407.5784009999999
 20
237.2505839999999
 30
0.0
 11
407.999416
 21
237.6715989999998
 31
0.0
  0
LINE
  5
4D903
330
4D50F
100
AcDbEntity
  8
0
 62
     0
100
AcDbLine
 10
407.651911
 20
237.2533830000002
 30
0.0
 11
407.9966169999999
 21
237.5980890000001
 31
0.0
  0
LINE
  5
4D904
330
4D50F
100
AcDbEntity
  8
0
 62
     0
100
AcDbLine
 10
407.7473799999999
 20
237.2781409999998
 30
0.0
 11
407.9718589999999
 21
237.5026200000002
 31
0.0
  0
LINE
  5
4D905
330
4D50F
100
AcDbEntity
  8
0
 62
     0
100
AcDbLine
 10
407.1999999999999
 20
237.6500000000001
 30
0.0
 11
407.6
 21
237.25
 31
0.0
  0
LINE
  5
4D906
330
4D50F
100
AcDbEntity
  8
0
 62
     0
100
AcDbLine
 10
407.205372
 20
237.715338
 30
0.0
 11
407.6653379999999
 21
237.2553720000001
 31
0.0
  0
LINE
  5
4D907
330
4D50F
100
AcDbEntity
  8
0
 62
     0
100
AcDbLine
 10
407.2191469999999
 20
237.7722739999999
 30
0.0
 11
407.7222740000001
 21
237.269147
 31
0.0
  0
LINE
  5
4D908
330
4D50F
100
AcDbEntity
  8
0
 62
     0
100
AcDbLine
 10
407.239277
 20
237.8228549999999
 30
0.0
 11
407.772855
 21
237.2892769999999
 31
0.0
  0
LINE
  5
4D909
330
4D50F
100
AcDbEntity
  8
0
 62
     0
100
AcDbLine
 10
407.2647109999999
 20
237.8681320000001
 30
0.0
 11
407.818132
 21
237.314711
 31
0.0
  0
LINE
  5
4D90A
330
4D50F
100
AcDbEntity
  8
0
 62
     0
100
AcDbLine
 10
407.2948889999999
 20
237.908664
 30
0.0
 11
407.858664
 21
237.344889
 31
0.0
  0
LINE
  5
4D90B
330
4D50F
100
AcDbEntity
  8
0
 62
     0
100
AcDbLine
 10
407.32955
 20
237.9447140000002
 30
0.0
 11
407.8947140000001
 21
237.3795500000001
 31
0.0
  0
LINE
  5
4D90C
330
4D50F
100
AcDbEntity
  8
0
 62
     0
100
AcDbLine
 10
407.36866
 20
237.9763149999999
 30
0.0
 11
407.926315
 21
237.4186599999998
 31
0.0
  0
LINE
  5
4D90D
330
4D50F
100
AcDbEntity
  8
0
 62
     0
100
AcDbLine
 10
407.412404
 20
238.0032809999998
 30
0.0
 11
407.9532810000002
 21
237.4624039999999
 31
0.0
  0
LINE
  5
4D90E
330
4D50F
100
AcDbEntity
  8
0
 62
     0
100
AcDbLine
 10
407.4612370000001
 20
238.0251600000001
 30
0.0
 11
407.9751600000001
 21
237.5112370000002
 31
0.0
  0
LINE
  5
4D90F
330
4D50F
100
AcDbEntity
  8
0
 62
     0
100
AcDbLine
 10
407.5160219999999
 20
238.0410849999998
 30
0.0
 11
407.991085
 21
237.566022
 31
0.0
  0
LINE
  5
4D910
330
4D50F
100
AcDbEntity
  8
0
 62
     0
100
AcDbLine
 10
407.5784009999999
 20
238.0494159999998
 30
0.0
 11
407.999416
 21
237.6284009999999
 31
0.0
  0
LINE
  5
4D911
330
4D50F
100
AcDbEntity
  8
0
 62
     0
100
AcDbLine
 10
407.651911
 20
238.046617
 30
0.0
 11
407.9966169999999
 21
237.7019110000001
 31
0.0
  0
LINE
  5
4D912
330
4D50F
100
AcDbEntity
  8
0
 62
     0
100
AcDbLine
 10
407.7473799999999
 20
238.0218589999999
 30
0.0
 11
407.9718589999999
 21
237.79738
 31
0.0
  0
LINE
  5
4D913
330
4D50F
100
AcDbEntity
  8
0
 62
     0
100
AcDbLine
 10
407.2077760000001
 20
237.5715140000002
 30
0.0
 11
407.5215140000001
 21
237.2577759999999
 31
0.0
  0
LINE
  5
4D914
330
4D50F
100
AcDbEntity
  8
0
 62
     0
100
AcDbLine
 10
407.24734
 20
237.4612390000002
 30
0.0
 11
407.4112390000001
 21
237.2973400000001
 31
0.0
  0
LINE
  5
4D915
330
4D50F
100
AcDbEntity
  8
0
 62
     0
100
AcDbLine
 10
407.1999999999999
 20
231.6500000000001
 30
0.0
 11
407.6
 21
232.0500000000002
 31
0.0
  0
LINE
  5
4D916
330
4D50F
100
AcDbEntity
  8
0
 62
     0
100
AcDbLine
 10
407.2077760000001
 20
231.728486
 30
0.0
 11
407.5215140000001
 21
232.0422239999998
 31
0.0
  0
LINE
  5
4D917
330
4D50F
100
AcDbEntity
  8
0
 62
     0
100
AcDbLine
 10
407.24734
 20
231.838761
 30
0.0
 11
407.4112390000001
 21
232.0026600000001
 31
0.0
  0
LINE
  5
4D918
330
4D50F
100
AcDbEntity
  8
0
 62
     0
100
AcDbLine
 10
407.205372
 20
231.5846620000002
 30
0.0
 11
407.6653379999999
 21
232.0446280000001
 31
0.0
  0
LINE
  5
4D919
330
4D50F
100
AcDbEntity
  8
0
 62
     0
100
AcDbLine
 10
407.2191469999999
 20
231.5277259999998
 30
0.0
 11
407.7222740000001
 21
232.0308530000002
 31
0.0
  0
LINE
  5
4D91A
330
4D50F
100
AcDbEntity
  8
0
 62
     0
100
AcDbLine
 10
407.239277
 20
231.4771449999998
 30
0.0
 11
407.772855
 21
232.0107229999999
 31
0.0
  0
LINE
  5
4D91B
330
4D50F
100
AcDbEntity
  8
0
 62
     0
100
AcDbLine
 10
407.2647109999999
 20
231.4318680000001
 30
0.0
 11
407.818132
 21
231.9852890000002
 31
0.0
  0
LINE
  5
4D91C
330
4D50F
100
AcDbEntity
  8
0
 62
     0
100
AcDbLine
 10
407.2948889999999
 20
231.3913360000001
 30
0.0
 11
407.858664
 21
231.9551110000002
 31
0.0
  0
LINE
  5
4D91D
330
4D50F
100
AcDbEntity
  8
0
 62
     0
100
AcDbLine
 10
407.32955
 20
231.355286
 30
0.0
 11
407.8947140000001
 21
231.9204500000001
 31
0.0
  0
LINE
  5
4D91E
330
4D50F
100
AcDbEntity
  8
0
 62
     0
100
AcDbLine
 10
407.36866
 20
231.3236849999998
 30
0.0
 11
407.926315
 21
231.8813399999999
 31
0.0
  0
LINE
  5
4D91F
330
4D50F
100
AcDbEntity
  8
0
 62
     0
100
AcDbLine
 10
407.412404
 20
231.2967189999999
 30
0.0
 11
407.9532810000002
 21
231.8375959999998
 31
0.0
  0
LINE
  5
4D920
330
4D50F
100
AcDbEntity
  8
0
 62
     0
100
AcDbLine
 10
407.4612370000001
 20
231.27484
 30
0.0
 11
407.9751600000001
 21
231.788763
 31
0.0
  0
LINE
  5
4D921
330
4D50F
100
AcDbEntity
  8
0
 62
     0
100
AcDbLine
 10
407.5160219999999
 20
231.2589149999999
 30
0.0
 11
407.991085
 21
231.7339780000002
 31
0.0
  0
LINE
  5
4D922
330
4D50F
100
AcDbEntity
  8
0
 62
     0
100
AcDbLine
 10
407.5784009999999
 20
231.2505839999999
 30
0.0
 11
407.999416
 21
231.6715989999998
 31
0.0
  0
LINE
  5
4D923
330
4D50F
100
AcDbEntity
  8
0
 62
     0
100
AcDbLine
 10
407.651911
 20
231.2533830000002
 30
0.0
 11
407.9966169999999
 21
231.5980890000001
 31
0.0
  0
LINE
  5
4D924
330
4D50F
100
AcDbEntity
  8
0
 62
     0
100
AcDbLine
 10
407.7473799999999
 20
231.2781409999998
 30
0.0
 11
407.9718589999999
 21
231.5026200000002
 31
0.0
  0
LINE
  5
4D925
330
4D50F
100
AcDbEntity
  8
0
 62
     0
100
AcDbLine
 10
407.1999999999999
 20
231.6500000000001
 30
0.0
 11
407.6
 21
231.25
 31
0.0
  0
LINE
  5
4D926
330
4D50F
100
AcDbEntity
  8
0
 62
     0
100
AcDbLine
 10
407.205372
 20
231.715338
 30
0.0
 11
407.6653379999999
 21
231.2553720000001
 31
0.0
  0
LINE
  5
4D927
330
4D50F
100
AcDbEntity
  8
0
 62
     0
100
AcDbLine
 10
407.2191469999999
 20
231.7722739999999
 30
0.0
 11
407.7222740000001
 21
231.269147
 31
0.0
  0
LINE
  5
4D928
330
4D50F
100
AcDbEntity
  8
0
 62
     0
100
AcDbLine
 10
407.239277
 20
231.8228549999999
 30
0.0
 11
407.772855
 21
231.2892769999999
 31
0.0
  0
LINE
  5
4D929
330
4D50F
100
AcDbEntity
  8
0
 62
     0
100
AcDbLine
 10
407.2647109999999
 20
231.8681320000001
 30
0.0
 11
407.818132
 21
231.314711
 31
0.0
  0
LINE
  5
4D92A
330
4D50F
100
AcDbEntity
  8
0
 62
     0
100
AcDbLine
 10
407.2948889999999
 20
231.908664
 30
0.0
 11
407.858664
 21
231.344889
 31
0.0
  0
LINE
  5
4D92B
330
4D50F
100
AcDbEntity
  8
0
 62
     0
100
AcDbLine
 10
407.32955
 20
231.9447140000002
 30
0.0
 11
407.8947140000001
 21
231.3795500000001
 31
0.0
  0
LINE
  5
4D92C
330
4D50F
100
AcDbEntity
  8
0
 62
     0
100
AcDbLine
 10
407.36866
 20
231.9763149999999
 30
0.0
 11
407.926315
 21
231.4186599999998
 31
0.0
  0
LINE
  5
4D92D
330
4D50F
100
AcDbEntity
  8
0
 62
     0
100
AcDbLine
 10
407.412404
 20
232.0032809999998
 30
0.0
 11
407.9532810000002
 21
231.4624039999999
 31
0.0
  0
LINE
  5
4D92E
330
4D50F
100
AcDbEntity
  8
0
 62
     0
100
AcDbLine
 10
407.4612370000001
 20
232.0251600000001
 30
0.0
 11
407.9751600000001
 21
231.5112370000002
 31
0.0
  0
LINE
  5
4D92F
330
4D50F
100
AcDbEntity
  8
0
 62
     0
100
AcDbLine
 10
407.5160219999999
 20
232.0410849999998
 30
0.0
 11
407.991085
 21
231.566022
 31
0.0
  0
LINE
  5
4D930
330
4D50F
100
AcDbEntity
  8
0
 62
     0
100
AcDbLine
 10
407.5784009999999
 20
232.0494159999998
 30
0.0
 11
407.999416
 21
231.6284009999999
 31
0.0
  0
LINE
  5
4D931
330
4D50F
100
AcDbEntity
  8
0
 62
     0
100
AcDbLine
 10
407.651911
 20
232.046617
 30
0.0
 11
407.9966169999999
 21
231.7019110000001
 31
0.0
  0
LINE
  5
4D932
330
4D50F
100
AcDbEntity
  8
0
 62
     0
100
AcDbLine
 10
407.7473799999999
 20
232.0218589999999
 30
0.0
 11
407.9718589999999
 21
231.79738
 31
0.0
  0
LINE
  5
4D933
330
4D50F
100
AcDbEntity
  8
0
 62
     0
100
AcDbLine
 10
407.2077760000001
 20
231.5715140000002
 30
0.0
 11
407.5215140000001
 21
231.2577759999999
 31
0.0
  0
LINE
  5
4D934
330
4D50F
100
AcDbEntity
  8
0
 62
     0
100
AcDbLine
 10
407.24734
 20
231.4612390000002
 30
0.0
 11
407.4112390000001
 21
231.2973400000001
 31
0.0
  0
LINE
  5
4D935
330
4D50F
100
AcDbEntity
  8
0
 62
     0
100
AcDbLine
 10
407.1999999999999
 20
225.6500000000001
 30
0.0
 11
407.6
 21
226.0500000000002
 31
0.0
  0
LINE
  5
4D936
330
4D50F
100
AcDbEntity
  8
0
 62
     0
100
AcDbLine
 10
407.2077760000001
 20
225.728486
 30
0.0
 11
407.5215140000001
 21
226.0422239999998
 31
0.0
  0
LINE
  5
4D937
330
4D50F
100
AcDbEntity
  8
0
 62
     0
100
AcDbLine
 10
407.24734
 20
225.838761
 30
0.0
 11
407.4112390000001
 21
226.0026600000001
 31
0.0
  0
LINE
  5
4D938
330
4D50F
100
AcDbEntity
  8
0
 62
     0
100
AcDbLine
 10
407.205372
 20
225.5846620000002
 30
0.0
 11
407.6653379999999
 21
226.0446280000001
 31
0.0
  0
LINE
  5
4D939
330
4D50F
100
AcDbEntity
  8
0
 62
     0
100
AcDbLine
 10
407.2191469999999
 20
225.5277259999998
 30
0.0
 11
407.7222740000001
 21
226.0308530000002
 31
0.0
  0
LINE
  5
4D93A
330
4D50F
100
AcDbEntity
  8
0
 62
     0
100
AcDbLine
 10
407.5160219999999
 20
226.0410849999998
 30
0.0
 11
407.991085
 21
225.566022
 31
0.0
  0
LINE
  5
4D93B
330
4D50F
100
AcDbEntity
  8
0
 62
     0
100
AcDbLine
 10
407.5784009999999
 20
226.0494159999998
 30
0.0
 11
407.999416
 21
225.6284009999999
 31
0.0
  0
LINE
  5
4D93C
330
4D50F
100
AcDbEntity
  8
0
 62
     0
100
AcDbLine
 10
407.651911
 20
226.046617
 30
0.0
 11
407.9966169999999
 21
225.7019110000001
 31
0.0
  0
LINE
  5
4D93D
330
4D50F
100
AcDbEntity
  8
0
 62
     0
100
AcDbLine
 10
407.7473799999999
 20
226.0218589999999
 30
0.0
 11
407.9718589999999
 21
225.79738
 31
0.0
  0
LINE
  5
4D93E
330
4D50F
100
AcDbEntity
  8
0
 62
     0
100
AcDbLine
 10
407.7473799999999
 20
225.2781409999998
 30
0.0
 11
407.9718589999999
 21
225.5026200000002
 31
0.0
  0
LINE
  5
4D93F
330
4D50F
100
AcDbEntity
  8
0
 62
     0
100
AcDbLine
 10
407.24734
 20
225.4612390000002
 30
0.0
 11
407.4112390000001
 21
225.2973400000001
 31
0.0
  0
LINE
  5
4D940
330
4D50F
100
AcDbEntity
  8
0
 62
     0
100
AcDbLine
 10
407.239277
 20
225.4771449999998
 30
0.0
 11
407.772855
 21
226.0107229999999
 31
0.0
  0
LINE
  5
4D941
330
4D50F
100
AcDbEntity
  8
0
 62
     0
100
AcDbLine
 10
407.2647109999999
 20
225.4318680000001
 30
0.0
 11
407.818132
 21
225.9852890000002
 31
0.0
  0
LINE
  5
4D942
330
4D50F
100
AcDbEntity
  8
0
 62
     0
100
AcDbLine
 10
407.2948889999999
 20
225.3913360000001
 30
0.0
 11
407.858664
 21
225.9551110000002
 31
0.0
  0
LINE
  5
4D943
330
4D50F
100
AcDbEntity
  8
0
 62
     0
100
AcDbLine
 10
407.32955
 20
225.355286
 30
0.0
 11
407.8947140000001
 21
225.9204500000001
 31
0.0
  0
LINE
  5
4D944
330
4D50F
100
AcDbEntity
  8
0
 62
     0
100
AcDbLine
 10
407.36866
 20
225.3236849999998
 30
0.0
 11
407.926315
 21
225.8813399999999
 31
0.0
  0
LINE
  5
4D945
330
4D50F
100
AcDbEntity
  8
0
 62
     0
100
AcDbLine
 10
407.412404
 20
225.2967189999999
 30
0.0
 11
407.9532810000002
 21
225.8375959999998
 31
0.0
  0
LINE
  5
4D946
330
4D50F
100
AcDbEntity
  8
0
 62
     0
100
AcDbLine
 10
407.4612370000001
 20
225.27484
 30
0.0
 11
407.9751600000001
 21
225.788763
 31
0.0
  0
LINE
  5
4D947
330
4D50F
100
AcDbEntity
  8
0
 62
     0
100
AcDbLine
 10
407.5160219999999
 20
225.2589149999999
 30
0.0
 11
407.991085
 21
225.7339780000002
 31
0.0
  0
LINE
  5
4D948
330
4D50F
100
AcDbEntity
  8
0
 62
     0
100
AcDbLine
 10
407.5784009999999
 20
225.2505839999999
 30
0.0
 11
407.999416
 21
225.6715989999998
 31
0.0
  0
LINE
  5
4D949
330
4D50F
100
AcDbEntity
  8
0
 62
     0
100
AcDbLine
 10
407.651911
 20
225.2533830000002
 30
0.0
 11
407.9966169999999
 21
225.5980890000001
 31
0.0
  0
LINE
  5
4D94A
330
4D50F
100
AcDbEntity
  8
0
 62
     0
100
AcDbLine
 10
407.1999999999999
 20
225.6500000000001
 30
0.0
 11
407.6
 21
225.25
 31
0.0
  0
LINE
  5
4D94B
330
4D50F
100
AcDbEntity
  8
0
 62
     0
100
AcDbLine
 10
407.205372
 20
225.715338
 30
0.0
 11
407.6653379999999
 21
225.2553720000001
 31
0.0
  0
LINE
  5
4D94C
330
4D50F
100
AcDbEntity
  8
0
 62
     0
100
AcDbLine
 10
407.2191469999999
 20
225.7722739999999
 30
0.0
 11
407.7222740000001
 21
225.269147
 31
0.0
  0
LINE
  5
4D94D
330
4D50F
100
AcDbEntity
  8
0
 62
     0
100
AcDbLine
 10
407.239277
 20
225.8228549999999
 30
0.0
 11
407.772855
 21
225.2892769999999
 31
0.0
  0
LINE
  5
4D94E
330
4D50F
100
AcDbEntity
  8
0
 62
     0
100
AcDbLine
 10
407.2647109999999
 20
225.8681320000001
 30
0.0
 11
407.818132
 21
225.314711
 31
0.0
  0
LINE
  5
4D94F
330
4D50F
100
AcDbEntity
  8
0
 62
     0
100
AcDbLine
 10
407.2948889999999
 20
225.908664
 30
0.0
 11
407.858664
 21
225.344889
 31
0.0
  0
LINE
  5
4D950
330
4D50F
100
AcDbEntity
  8
0
 62
     0
100
AcDbLine
 10
407.32955
 20
225.9447140000002
 30
0.0
 11
407.8947140000001
 21
225.3795500000001
 31
0.0
  0
LINE
  5
4D951
330
4D50F
100
AcDbEntity
  8
0
 62
     0
100
AcDbLine
 10
407.36866
 20
225.9763149999999
 30
0.0
 11
407.926315
 21
225.4186599999998
 31
0.0
  0
LINE
  5
4D952
330
4D50F
100
AcDbEntity
  8
0
 62
     0
100
AcDbLine
 10
407.412404
 20
226.0032809999998
 30
0.0
 11
407.9532810000002
 21
225.4624039999999
 31
0.0
  0
LINE
  5
4D953
330
4D50F
100
AcDbEntity
  8
0
 62
     0
100
AcDbLine
 10
407.4612370000001
 20
226.0251600000001
 30
0.0
 11
407.9751600000001
 21
225.5112370000002
 31
0.0
  0
LINE
  5
4D954
330
4D50F
100
AcDbEntity
  8
0
 62
     0
100
AcDbLine
 10
407.2077760000001
 20
225.5715140000002
 30
0.0
 11
407.5215140000001
 21
225.2577759999999
 31
0.0
  0
HATCH
  5
4D955
330
4D50F
100
AcDbEntity
  8
0
 62
     0
100
AcDbHatch
 10
0.0
 20
0.0
 30
0.0
210
0.0
220
0.0
230
1.0
  2
SOLID
 70
     1
 71
     1
 91
        2
 92
        7
 72
     1
 73
     1
 93
        9
 10
212.6219144128614
 20
13.53735916098692
 42
0.0
 10
212.8477623889827
 20
13.53735916098692
 42
0.0
 10
212.8477623889827
 20
14.83074211089974
 42
0.0
 10
213.7832587052317
 20
13.53735916098692
 42
0.0
 10
214.0592115736069
 20
13.53735916098692
 42
0.0
 10
213.1511404903222
 20
14.83074211089974
 42
0.0
 10
213.3857525899145
 20
14.83074211089973
 42
1.0
 10
213.3857525899145
 20
16.12412506081216
 42
0.0
 10
212.6219144128615
 20
16.12412506081216
 42
0.0
 97
        1
330
4D957
 92
       22
 72
     1
 73
     1
 93
        4
 10
212.8477623889827
 20
15.89827708469125
 42
0.0
 10
213.3857525899145
 20
15.89827708469124
 42
-1.0
 10
213.3857525899144
 20
15.05658925708469
 42
0.0
 10
212.8477623889826
 20
15.05658925708481
 42
0.0
 97
        1
330
4D9D1
 75
     0
 76
     1
 47
0.0094553770012845
 98
        2
 10
212.7666279908292
 20
15.39441417871939
 10
212.7666279908292
 20
15.39441417871939
  0
HATCH
  5
4D956
330
4D50F
100
AcDbEntity
  8
0
 62
    83
100
AcDbHatch
 10
0.0
 20
0.0
 30
0.0
210
0.0
220
0.0
230
1.0
  2
SOLID
 70
     1
 71
     1
 91
       20
 92
        7
 72
     0
 73
     1
 93
        4
 10
180.7771999999999
 20
29.65329999999994
 10
180.7771999999999
 20
18.64834950495063
 10
237.7772
 20
18.64834950495063
 10
237.7772
 20
29.65329999999994
 97
        1
330
4D958
 92
       22
 72
     0
 73
     1
 93
        4
 10
204.1796504950495
 20
24.95080000000035
 10
204.1796504950495
 20
23.35084950495056
 10
202.5796999999999
 20
23.35084950495056
 10
202.5796999999999
 20
24.95080000000001
 97
        4
330
4D9C0
330
4D97D
330
4D9A6
330
4D97E
 92
       22
 72
     1
 73
     1
 93
        4
 10
207.4712594059405
 20
25.98498316831709
 42
0.0
 10
207.697001980198
 20
25.98498316831709
 42
-1.0
 10
207.697001980198
 20
22.31666633663386
 42
0.0
 10
207.4712594059405
 20
22.31666633663386
 42
-1.0
 97
        4
330
4D9BD
330
4D9BC
330
4D9BE
330
4D9BF
 92
        6
 72
     1
 73
     1
 93
        2
 10
208.9103683168316
 20
24.15082475247547
 42
-1.0
 10
206.2578930693068
 20
24.15082475247547
 42
-1.0
 97
        1
330
4D9BB
 92
       22
 72
     0
 73
     1
 93
        8
 10
201.2633386138613
 20
25.9849831683171
 10
201.2633386138613
 20
25.42062673267328
 10
200.2192792079208
 20
25.42062673267328
 10
200.2192792079208
 20
22.31666633663386
 10
199.4856158415841
 20
22.31666633663386
 10
199.4856158415841
 20
25.42062673267328
 10
198.4415564356435
 20
25.42062673267328
 10
198.4415564356435
 20
25.98498316831709
 97
        8
330
4D9A4
330
4D9A3
330
4D9A2
330
4D9A1
330
4D9A0
330
4D99F
330
4D99E
330
4D9A5
 92
       22
 72
     1
 73
     1
 93
        2
 10
212.4028175742573
 20
24.15082475247547
 42
-1.0
 10
210.7228695544553
 20
24.15082475247547
 42
-1.0
 97
        1
330
4D9C1
 92
       22
 72
     0
 73
     1
 93
        3
 10
197.9543973209085
 20
23.40117101048351
 10
196.1069333721607
 20
23.40117101048351
 10
197.0306653465346
 20
25.00112150553295
 97
        3
330
4D99D
330
4D99C
330
4D99B
 92
       22
 72
     1
 73
     1
 93
        5
 10
213.5098732673266
 20
25.9849831683171
 42
0.0
 10
214.7937841584158
 20
25.98498316831709
 42
-0.8268396299405429
 10
215.132258940184
 20
24.21557239597574
 42
-0.9235794106673716
 10
214.9811397058823
 20
22.31666633663386
 42
0.0
 10
213.5098732673266
 20
22.31666633663386
 42
0.0
 97
        5
330
4D9DB
330
4D9E0
330
4D9E1
330
4D9DC
330
4D9DD
 92
       22
 72
     1
 73
     1
 93
        4
 10
193.0237346534653
 20
22.31666633663386
 42
0.0
 10
192.7979920792079
 20
22.31666633663386
 42
-1.0
 10
192.7979920792079
 20
25.98498316831709
 42
0.0
 10
193.0237346534653
 20
25.98498316831709
 42
-1.0
 97
        4
330
4D978
330
4D979
330
4D977
330
4D95A
 92
        6
 72
     1
 73
     1
 93
        4
 10
214.1588831683168
 20
25.47706237623782
 42
0.0
 10
214.6385861386138
 20
25.47706237623782
 42
-1.0
 10
214.6385861386138
 20
24.46122079207927
 42
0.0
 10
214.1588831683168
 20
24.46122079207927
 42
0.0
 97
        4
330
4D9E5
330
4D9DF
330
4D9E3
330
4D9E2
 92
        6
 72
     1
 73
     1
 93
        4
 10
214.1588831683168
 20
23.98151782178226
 42
0.0
 10
214.7373485148514
 20
23.98151782178226
 42
-1.000000696587788
 10
214.7373485148514
 20
22.82458712871313
 42
0.0
 10
214.1588831683167
 20
22.82458712871313
 42
0.0
 97
        4
330
4D9E4
330
4D9DE
330
4D9E6
330
4D9E7
 92
        6
 72
     1
 73
     1
 93
        2
 10
194.237100990099
 20
24.15082475247547
 42
-1.0
 10
191.5846257425742
 20
24.15082475247547
 42
-1.0
 97
        1
330
4D959
 92
       22
 72
     0
 73
     1
 93
        3
 10
216.8470323820617
 20
23.40117101048351
 10
217.7707643564355
 20
25.001121505533
 10
218.6944963308095
 20
23.40117101048351
 97
        3
330
4D9D9
330
4D9EF
330
4D9DA
 92
       22
 72
     1
 73
     1
 93
        2
 10
189.5181641089108
 20
24.15082475247547
 42
-1.0
 10
187.8382160891088
 20
24.15082475247547
 42
-1.0
 97
        1
330
4D96B
 92
       22
 72
     1
 73
     1
 93
       10
 10
219.7177940594059
 20
25.98498316831709
 42
0.0
 10
220.4514574257425
 20
25.98498316831709
 42
0.0
 10
220.4514574257425
 20
23.69933960396035
 42
1.000000186147331
 10
222.0880910891088
 20
23.69933960396035
 42
0.0
 10
222.0880910891088
 20
25.9849831683171
 42
0.0
 10
222.8217544554455
 20
25.98498316831709
 42
0.0
 10
222.8217544554455
 20
23.79810198019809
 42
-0.4142135623730698
 10
221.3403188118811
 20
22.31666633663386
 42
0.0
 10
221.1992297029703
 20
22.31666633663386
 42
-0.4142135623731069
 10
219.7177940594059
 20
23.79810198019822
 42
0.0
 97
       10
330
4D9EA
330
4D9EE
330
4D9E9
330
4D9ED
330
4D9C8
330
4DA0D
330
4D9C7
330
4D9EB
330
4D9E8
330
4D9EC
 92
       22
 72
     0
 73
     1
 93
       11
 10
187.0697742574257
 20
25.98498316831709
 10
185.8689092457776
 20
24.35977938264444
 10
187.267299009901
 20
22.31666633663386
 10
186.4772
 20
22.31666633663386
 10
185.2073980198019
 20
24.15082475247546
 10
185.2073980198019
 20
22.31666633663386
 10
184.5019524752474
 20
22.31666633663385
 10
184.5019524752474
 20
25.98498316831709
 10
185.2073980198019
 20
25.98498316831709
 10
185.2073980198019
 20
24.47750579499151
 10
186.3492172393709
 20
25.9849831683171
 97
       11
330
4D972
330
4D973
330
4D96E
330
4D96C
330
4D971
330
4D974
330
4D976
330
4D975
330
4D970
330
4D96D
330
4D96F
 92
       22
 72
     0
 73
     1
 93
        4
 10
223.9970267326732
 20
24.95080000000002
 10
225.5969772277228
 20
24.95080000000001
 10
225.5969772277228
 20
23.35084950495056
 10
223.9970267326732
 20
23.35084950495056
 97
        4
330
4DA12
330
4DA11
330
4DA10
330
4DA0F
 92
       22
 72
     0
 73
     1
 93
       11
 10
226.687596039604
 20
25.98498316831709
 10
227.3930415841584
 20
25.9849831683171
 10
227.3930415841584
 20
24.4775057949916
 10
228.5348608037275
 20
25.98498316831709
 10
229.2554178217821
 20
25.98498316831709
 10
228.0545528101339
 20
24.35977938264445
 10
229.4529425742574
 20
22.31666633663386
 10
228.6628435643564
 20
22.31666633663386
 10
227.3930415841584
 20
24.15082475247553
 10
227.3930415841584
 20
22.31666633663386
 10
226.6875960396039
 20
22.31666633663386
 97
       11
330
4DA0C
330
4DA16
330
4DA13
330
4DA15
330
4DA18
330
4DA19
330
4DA14
330
4DA1A
330
4DA17
330
4DA0B
330
4DA0E
 92
       22
 72
     1
 73
     1
 93
        2
 10
231.7602433168317
 20
24.15082475247547
 42
-1.0
 10
230.0802952970297
 20
24.15082475247547
 42
-1.0
 97
        1
330
4DA1B
 92
       22
 72
     0
 73
     1
 93
        4
 10
233.4880910891088
 20
25.9849831683171
 10
234.1653188118812
 20
25.98498316831709
 10
234.1653188118811
 20
22.31666633663385
 10
233.4880910891088
 20
22.31666633663386
 97
        4
330
4DA1F
330
4DA1E
330
4DA1D
330
4DA1C
 75
     0
 76
     1
 47
0.0905417887396367
 98
       20
 10
204.3202003392414
 20
27.32291270836356
 10
204.3202003392414
 20
27.32291270836356
 10
204.3202003392414
 20
27.32291270836356
 10
204.3202003392414
 20
27.32291270836356
 10
204.3202003392414
 20
27.32291270836356
 10
204.3202003392414
 20
27.32291270836356
 10
204.3202003392414
 20
27.32291270836356
 10
204.3202003392414
 20
27.32291270836356
 10
204.3202003392414
 20
27.32291270836356
 10
204.3202003392414
 20
27.32291270836356
 10
204.3202003392414
 20
27.32291270836356
 10
204.3202003392414
 20
27.32291270836356
 10
204.3202003392414
 20
27.32291270836356
 10
204.3202003392414
 20
27.32291270836356
 10
204.3202003392414
 20
27.32291270836356
 10
204.3202003392414
 20
27.32291270836356
 10
204.3202003392414
 20
27.32291270836356
 10
204.3202003392414
 20
27.32291270836356
 10
204.3202003392414
 20
27.32291270836356
 10
204.3202003392414
 20
27.32291270836356
  0
LWPOLYLINE
  5
4D957
102
{ACAD_REACTORS
330
4D955
102
}
330
4D50F
100
AcDbEntity
  8
0
 62
     0
100
AcDbPolyline
 90
       10
 70
     0
 43
0.0
 10
212.6219144128614
 20
16.12412506081216
 10
213.3857525899145
 20
16.12412506081216
 42
-1.000000000000001
 10
213.3857525899145
 20
14.83074211089973
 10
213.1511404903222
 20
14.83074211089973
 10
214.0592115736069
 20
13.53735916098692
 10
213.7832587052318
 20
13.53735916098692
 10
212.8477623889827
 20
14.83074211089973
 10
212.8477623889827
 20
13.53735916098692
 10
212.6219144128614
 20
13.53735916098692
 10
212.6219144128614
 20
16.12412506081216
  0
LWPOLYLINE
  5
4D958
102
{ACAD_REACTORS
330
4D956
102
}
330
4D50F
100
AcDbEntity
  8
0
 62
    83
100
AcDbPolyline
 90
        4
 70
     1
 43
0.0
 10
180.7771999999999
 20
18.64834950495063
 10
237.7772
 20
18.64834950495063
 10
237.7772
 20
29.65329999999994
 10
180.7771999999999
 20
29.65329999999994
  0
CIRCLE
  5
4D959
102
{ACAD_REACTORS
330
4D956
102
}
330
4D50F
100
AcDbEntity
  8
0
 62
    83
100
AcDbCircle
 10
192.9108633663366
 20
24.15082475247547
 30
0.0
 40
1.326237623762377
  0
ARC
  5
4D95A
102
{ACAD_REACTORS
330
4D956
102
}
330
4D50F
100
AcDbEntity
  8
0
 62
    83
100
AcDbCircle
 10
193.0237346534653
 20
24.15082475247547
 30
0.0
 40
1.834158415841585
100
AcDbArc
 50
270.0
 51
90.0
  0
HATCH
  5
4D95B
330
4D50F
100
AcDbEntity
  8
0
 62
     0
100
AcDbHatch
 10
0.0
 20
0.0
 30
0.0
210
0.0
220
0.0
230
1.0
  2
SOLID
 70
     1
 71
     1
 91
        2
 92
        7
 72
     1
 73
     1
 93
        2
 10
190.6519715182779
 20
14.830738791156
 42
1.0
 10
193.2387307786157
 20
14.830738791156
 42
1.0
 97
        1
330
4D964
 92
       22
 72
     1
 73
     1
 93
        2
 10
193.0128836324305
 20
14.830738791156
 42
-1.00000013533277
 10
190.8778186644631
 20
14.830738791156
 42
-1.00000013533277
 97
        1
330
4D965
 75
     0
 76
     1
 47
0.0275451680087292
 98
        2
 10
191.9875879881659
 20
15.99707706072821
 10
191.9875879881659
 20
15.99707706072821
  0
HATCH
  5
4D95C
330
4D50F
100
AcDbEntity
  8
0
 62
     0
100
AcDbHatch
 10
0.0
 20
0.0
 30
0.0
210
0.0
220
0.0
230
1.0
  2
SOLID
 70
     1
 71
     1
 91
        1
 92
        7
 72
     0
 73
     1
 93
       11
 10
188.8907171647544
 20
13.53735916098693
 10
189.1165651408755
 20
13.53735916098692
 10
189.1165651408755
 20
14.76717399791187
 10
190.2463262212482
 20
13.53735916098693
 10
190.4721733674334
 20
13.53735916098693
 10
189.1998782596873
 20
14.92233052091695
 10
190.3994002936616
 20
16.11713949004919
 10
190.1735531486242
 20
16.11713949004919
 10
189.1165651408755
 20
15.06430434153457
 10
189.1165651408755
 20
16.12412506081215
 10
188.8907171647544
 20
16.12412506081215
 97
       11
330
4D96A
330
4D95E
330
4D963
330
4D967
330
4D95D
330
4D966
330
4D962
330
4D95F
330
4D969
330
4D960
330
4D961
 75
     0
 76
     1
 47
0.0275451680087292
 98
        1
 10
189.0117705821236
 20
14.9454843580849
  0
LINE
  5
4D95D
102
{ACAD_REACTORS
330
4D95C
102
}
330
4D50F
100
AcDbEntity
  8
0
 62
     0
100
AcDbLine
 10
188.8907171647544
 20
13.53735916098692
 30
0.0
 11
188.8907171647544
 21
16.1241184213247
 31
0.0
  0
LINE
  5
4D95E
102
{ACAD_REACTORS
330
4D95C
102
}
330
4D50F
100
AcDbEntity
  8
0
 62
     0
100
AcDbLine
 10
189.1165651408755
 20
15.06430434153457
 30
0.0
 11
190.1805596079692
 21
16.1241184213247
 31
0.0
  0
LINE
  5
4D95F
102
{ACAD_REACTORS
330
4D95C
102
}
330
4D50F
100
AcDbEntity
  8
0
 62
     0
100
AcDbLine
 10
189.1165651408755
 20
14.76717399791187
 30
0.0
 11
190.2463262212482
 21
13.53735916098692
 31
0.0
  0
LINE
  5
4D960
102
{ACAD_REACTORS
330
4D95C
102
}
330
4D50F
100
AcDbEntity
  8
0
 62
     0
100
AcDbLine
 10
189.1998782596873
 20
14.92233052091694
 30
0.0
 11
190.4721733674335
 21
13.53735916098692
 31
0.0
  0
LINE
  5
4D961
102
{ACAD_REACTORS
330
4D95C
102
}
330
4D50F
100
AcDbEntity
  8
0
 62
     0
100
AcDbLine
 10
189.1998782596873
 20
14.92233052091694
 30
0.0
 11
190.4064067541544
 21
16.1241184213247
 31
0.0
  0
LINE
  5
4D962
102
{ACAD_REACTORS
330
4D95C
102
}
330
4D50F
100
AcDbEntity
  8
0
 62
     0
100
AcDbLine
 10
189.1165651408755
 20
13.53735916098692
 30
0.0
 11
189.1165651408755
 21
14.76717399791187
 31
0.0
  0
LINE
  5
4D963
102
{ACAD_REACTORS
330
4D95C
102
}
330
4D50F
100
AcDbEntity
  8
0
 62
     0
100
AcDbLine
 10
189.1165651408755
 20
15.06430434153457
 30
0.0
 11
189.1165651408755
 21
16.1241184213247
 31
0.0
  0
CIRCLE
  5
4D964
102
{ACAD_REACTORS
330
4D95B
102
}
330
4D50F
100
AcDbEntity
  8
0
 62
     0
100
AcDbCircle
 10
191.9453511484468
 20
14.830738791156
 30
0.0
 40
1.2933796301689
  0
CIRCLE
  5
4D965
102
{ACAD_REACTORS
330
4D95B
102
}
330
4D50F
100
AcDbEntity
  8
0
 62
     0
100
AcDbCircle
 10
191.9453511484468
 20
14.830738791156
 30
0.0
 40
1.067532483983693
  0
LINE
  5
4D966
102
{ACAD_REACTORS
330
4D95C
102
}
330
4D50F
100
AcDbEntity
  8
0
 62
     0
100
AcDbLine
 10
188.8907171647544
 20
13.53735916098692
 30
0.0
 11
189.1165651408755
 21
13.53735916098692
 31
0.0
  0
LINE
  5
4D967
102
{ACAD_REACTORS
330
4D95C
102
}
330
4D50F
100
AcDbEntity
  8
0
 62
     0
100
AcDbLine
 10
188.8907171647544
 20
16.12412506081215
 30
0.0
 11
189.1165651408755
 21
16.12412506081215
 31
0.0
  0
LINE
  5
4D968
330
4D50F
100
AcDbEntity
  8
0
 62
     0
100
AcDbLine
 10
190.1805662474568
 20
16.12412506081215
 30
0.0
 11
190.4064067541544
 21
16.12412506081215
 31
0.0
  0
LINE
  5
4D969
102
{ACAD_REACTORS
330
4D95C
102
}
330
4D50F
100
AcDbEntity
  8
0
 62
     0
100
AcDbLine
 10
190.2463262212482
 20
13.53735916098692
 30
0.0
 11
190.4721733674335
 21
13.53735916098692
 31
0.0
  0
LINE
  5
4D96A
102
{ACAD_REACTORS
330
4D95C
102
}
330
4D50F
100
AcDbEntity
  8
0
 62
     0
100
AcDbLine
 10
190.3993937955056
 20
16.11713949004919
 30
0.0
 11
190.173552458872
 21
16.11713949004919
 31
0.0
  0
CIRCLE
  5
4D96B
102
{ACAD_REACTORS
330
4D956
102
}
330
4D50F
100
AcDbEntity
  8
0
 62
    83
100
AcDbCircle
 10
188.6781900990098
 20
24.15082475247547
 30
0.0
 40
0.8399740099009905
  0
LINE
  5
4D96C
102
{ACAD_REACTORS
330
4D956
102
}
330
4D50F
100
AcDbEntity
  8
0
 62
    83
100
AcDbLine
 10
185.2073980198019
 20
24.15082475247547
 30
0.0
 11
186.4772
 21
22.31666633663386
 31
0.0
  0
LINE
  5
4D96D
102
{ACAD_REACTORS
330
4D956
102
}
330
4D50F
100
AcDbEntity
  8
0
 62
    83
100
AcDbLine
 10
186.3492172393709
 20
25.98498316831709
 30
0.0
 11
185.2073980198019
 21
24.47750579499154
 31
0.0
  0
LINE
  5
4D96E
102
{ACAD_REACTORS
330
4D956
102
}
330
4D50F
100
AcDbEntity
  8
0
 62
    83
100
AcDbLine
 10
186.4772
 20
22.31666633663386
 30
0.0
 11
187.267299009901
 21
22.31666633663386
 31
0.0
  0
LINE
  5
4D96F
102
{ACAD_REACTORS
330
4D956
102
}
330
4D50F
100
AcDbEntity
  8
0
 62
    83
100
AcDbLine
 10
186.3492172393709
 20
25.98498316831709
 30
0.0
 11
187.0697742574257
 21
25.98498316831709
 31
0.0
  0
LINE
  5
4D970
102
{ACAD_REACTORS
330
4D956
102
}
330
4D50F
100
AcDbEntity
  8
0
 62
    83
100
AcDbLine
 10
185.2073980198019
 20
24.47750579499154
 30
0.0
 11
185.2073980198019
 21
25.98498316831709
 31
0.0
  0
LINE
  5
4D971
102
{ACAD_REACTORS
330
4D956
102
}
330
4D50F
100
AcDbEntity
  8
0
 62
    83
100
AcDbLine
 10
185.2073980198019
 20
22.31666633663386
 30
0.0
 11
185.2073980198019
 21
24.15082475247547
 31
0.0
  0
LINE
  5
4D972
102
{ACAD_REACTORS
330
4D956
102
}
330
4D50F
100
AcDbEntity
  8
0
 62
    83
100
AcDbLine
 10
187.0697742574257
 20
25.98498316831709
 30
0.0
 11
185.8689092457775
 21
24.35977938264443
 31
0.0
  0
LINE
  5
4D973
102
{ACAD_REACTORS
330
4D956
102
}
330
4D50F
100
AcDbEntity
  8
0
 62
    83
100
AcDbLine
 10
187.267299009901
 20
22.31666633663386
 30
0.0
 11
185.8689092457775
 21
24.35977938264443
 31
0.0
  0
LINE
  5
4D974
102
{ACAD_REACTORS
330
4D956
102
}
330
4D50F
100
AcDbEntity
  8
0
 62
    83
100
AcDbLine
 10
184.5019524752474
 20
22.31666633663386
 30
0.0
 11
185.2073980198019
 21
22.31666633663386
 31
0.0
  0
LINE
  5
4D975
102
{ACAD_REACTORS
330
4D956
102
}
330
4D50F
100
AcDbEntity
  8
0
 62
    83
100
AcDbLine
 10
184.5019524752474
 20
25.98498316831709
 30
0.0
 11
185.2073980198019
 21
25.98498316831709
 31
0.0
  0
LINE
  5
4D976
102
{ACAD_REACTORS
330
4D956
102
}
330
4D50F
100
AcDbEntity
  8
0
 62
    83
100
AcDbLine
 10
184.5019524752474
 20
22.31666633663386
 30
0.0
 11
184.5019524752474
 21
25.98498316831709
 31
0.0
  0
LINE
  5
4D977
102
{ACAD_REACTORS
330
4D956
102
}
330
4D50F
100
AcDbEntity
  8
0
 62
    83
100
AcDbLine
 10
192.7979920792079
 20
25.98498316831709
 30
0.0
 11
193.0237346534653
 21
25.98498316831709
 31
0.0
  0
LINE
  5
4D978
102
{ACAD_REACTORS
330
4D956
102
}
330
4D50F
100
AcDbEntity
  8
0
 62
    83
100
AcDbLine
 10
192.7979920792079
 20
22.31666633663386
 30
0.0
 11
193.0237346534653
 21
22.31666633663386
 31
0.0
  0
ARC
  5
4D979
102
{ACAD_REACTORS
330
4D956
102
}
330
4D50F
100
AcDbEntity
  8
0
 62
    83
100
AcDbCircle
 10
192.7979920792079
 20
24.15082475247547
 30
0.0
 40
1.834158415841585
100
AcDbArc
 50
90.0
 51
270.0
  0
HATCH
  5
4D97A
330
4D50F
100
AcDbEntity
  8
0
 62
     0
100
AcDbHatch
 10
0.0
 20
0.0
 30
0.0
210
0.0
220
0.0
230
1.0
  2
SOLID
 70
     1
 71
     1
 91
        2
 92
        7
 72
     0
 73
     1
 93
       11
 10
203.266972828703
 20
14.92233052091694
 10
204.4735004932343
 20
16.1241184213247
 10
204.247653347049
 20
16.1241184213247
 10
203.1836588799552
 20
15.06430434153459
 10
203.1836588799553
 20
16.1241184213247
 10
202.9712907232867
 20
16.1241184213247
 10
202.9712907232867
 20
13.53735916098692
 10
203.1836588799553
 20
13.53735916098692
 10
203.1836588799552
 20
14.76717399791191
 10
204.313419960328
 20
13.53735916098693
 10
204.5392679364492
 20
13.53735916098693
 97
       11
330
4D9AB
330
4D9AE
330
4D9B4
330
4D9B3
330
4D97B
330
4D998
330
4D97C
330
4D9B2
330
4D9B5
330
4D9AF
330
4D9AA
 92
        7
 72
     0
 73
     1
 93
        4
 10
205.3050016871772
 20
16.1241184213247
 10
205.0791545409919
 20
16.1241184213247
 10
205.0791545409919
 20
13.53735916098692
 10
205.3050016871772
 20
13.53735916098692
 97
        4
330
4D9B0
330
4D9AC
330
4D9B1
330
4D9AD
 75
     0
 76
     1
 47
0.0094553770012844
 98
        2
 10
203.1212752133203
 20
14.91542670013433
 10
205.211427414204
 20
14.90757915977372
  0
LINE
  5
4D97B
102
{ACAD_REACTORS
330
4D97A
102
}
330
4D50F
100
AcDbEntity
  8
0
 62
     0
100
AcDbLine
 10
202.9712907232867
 20
16.1241184213247
 30
0.0
 11
203.1836588799553
 21
16.1241184213247
 31
0.0
  0
LINE
  5
4D97C
102
{ACAD_REACTORS
330
4D97A
102
}
330
4D50F
100
AcDbEntity
  8
0
 62
     0
100
AcDbLine
 10
202.9712907232867
 20
13.53735916098692
 30
0.0
 11
203.1836588799553
 21
13.53735916098692
 31
0.0
  0
LINE
  5
4D97D
102
{ACAD_REACTORS
330
4D956
102
}
330
4D50F
100
AcDbEntity
  8
0
 62
    83
100
AcDbLine
 10
204.1796504950495
 20
23.35084950495056
 30
0.0
 11
202.5796999999999
 21
23.35084950495056
 31
0.0
  0
LINE
  5
4D97E
102
{ACAD_REACTORS
330
4D956
102
}
330
4D50F
100
AcDbEntity
  8
0
 62
    83
100
AcDbLine
 10
202.5796999999999
 20
24.95080000000002
 30
0.0
 11
204.1796504950495
 21
24.95080000000002
 31
0.0
  0
HATCH
  5
4D97F
330
4D50F
100
AcDbEntity
  8
0
 62
     0
100
AcDbHatch
 10
0.0
 20
0.0
 30
0.0
210
0.0
220
0.0
230
1.0
  2
SOLID
 70
     1
 71
     1
 91
        2
 92
        7
 72
     1
 73
     1
 93
        2
 10
195.5607786528149
 20
14.830738791156
 42
1.0
 10
198.1475379131527
 20
14.830738791156
 42
1.0
 97
        1
330
4D985
 92
       22
 72
     1
 73
     1
 93
        2
 10
197.9216907669675
 20
14.830738791156
 42
-1.00000013533277
 10
195.7866257990001
 20
14.830738791156
 42
-1.00000013533277
 97
        1
330
4D986
 75
     0
 76
     1
 47
0.0275451680087292
 98
        2
 10
196.8633495180106
 20
16.01993842591023
 10
196.8633495180106
 20
16.01993842591023
  0
HATCH
  5
4D980
330
4D50F
100
AcDbEntity
  8
0
 62
     0
100
AcDbHatch
 10
0.0
 20
0.0
 30
0.0
210
0.0
220
0.0
230
1.0
  2
SOLID
 70
     1
 71
     1
 91
        1
 92
        7
 72
     0
 73
     1
 93
        8
 10
193.62009298013
 20
16.12870630717222
 10
193.6200929801299
 20
15.89827044520378
 10
194.2868303126868
 20
15.89827044520378
 10
194.2868303126868
 20
13.53735252149947
 10
194.5126782888079
 20
13.53735252149946
 10
194.5126782888079
 20
15.89827044520378
 10
195.1794156213647
 20
15.89827044520378
 10
195.1794156213646
 20
16.12870630717222
 97
        8
330
4D98A
330
4D988
330
4D989
330
4D981
330
4D987
330
4D982
330
4D983
330
4D984
 75
     0
 76
     1
 47
0.0275451680087292
 98
        1
 10
194.4140225705166
 20
15.99707706072821
  0
LINE
  5
4D981
102
{ACAD_REACTORS
330
4D980
102
}
330
4D50F
100
AcDbEntity
  8
0
 62
     0
100
AcDbLine
 10
194.2868303126868
 20
15.89827044520378
 30
0.0
 11
194.2868303126868
 21
13.53735916098692
 31
0.0
  0
LINE
  5
4D982
102
{ACAD_REACTORS
330
4D980
102
}
330
4D50F
100
AcDbEntity
  8
0
 62
     0
100
AcDbLine
 10
194.5126782888079
 20
15.89827044520378
 30
0.0
 11
194.5126782888079
 21
13.53735916098692
 31
0.0
  0
LINE
  5
4D983
102
{ACAD_REACTORS
330
4D980
102
}
330
4D50F
100
AcDbEntity
  8
0
 62
     0
100
AcDbLine
 10
194.5126782888079
 20
15.89827044520378
 30
0.0
 11
195.1794156213647
 21
15.89827044520378
 31
0.0
  0
LINE
  5
4D984
102
{ACAD_REACTORS
330
4D980
102
}
330
4D50F
100
AcDbEntity
  8
0
 62
     0
100
AcDbLine
 10
195.1794156213647
 20
15.89827044520378
 30
0.0
 11
195.1794156213647
 21
16.1241184213247
 31
0.0
  0
CIRCLE
  5
4D985
102
{ACAD_REACTORS
330
4D97F
102
}
330
4D50F
100
AcDbEntity
  8
0
 62
     0
100
AcDbCircle
 10
196.8541582829838
 20
14.830738791156
 30
0.0
 40
1.2933796301689
  0
CIRCLE
  5
4D986
102
{ACAD_REACTORS
330
4D97F
102
}
330
4D50F
100
AcDbEntity
  8
0
 62
     0
100
AcDbCircle
 10
196.8541582829838
 20
14.830738791156
 30
0.0
 40
1.067532483983693
  0
LINE
  5
4D987
102
{ACAD_REACTORS
330
4D980
102
}
330
4D50F
100
AcDbEntity
  8
0
 62
     0
100
AcDbLine
 10
194.2868303126868
 20
13.53735252149946
 30
0.0
 11
194.5126782888079
 21
13.53735252149946
 31
0.0
  0
LINE
  5
4D988
102
{ACAD_REACTORS
330
4D980
102
}
330
4D50F
100
AcDbEntity
  8
0
 62
     0
100
AcDbLine
 10
193.6200929801299
 20
15.89827044520378
 30
0.0
 11
193.6200929801299
 21
16.1241184213247
 31
0.0
  0
LINE
  5
4D989
102
{ACAD_REACTORS
330
4D980
102
}
330
4D50F
100
AcDbEntity
  8
0
 62
     0
100
AcDbLine
 10
193.6200929801299
 20
15.89827044520378
 30
0.0
 11
194.2868303126868
 21
15.89827044520378
 31
0.0
  0
LINE
  5
4D98A
102
{ACAD_REACTORS
330
4D980
102
}
330
4D50F
100
AcDbEntity
  8
0
 62
     0
100
AcDbLine
 10
195.1794156213647
 20
16.12870630717222
 30
0.0
 11
193.6200929801299
 21
16.12870630717222
 31
0.0
  0
HATCH
  5
4D98B
330
4D50F
100
AcDbEntity
  8
0
 62
     0
100
AcDbHatch
 10
0.0
 20
0.0
 30
0.0
210
0.0
220
0.0
230
1.0
  2
SOLID
 70
     1
 71
     1
 91
        1
 92
        7
 72
     1
 73
     1
 93
        8
 10
200.7873865153659
 20
16.1241184213247
 42
0.0
 10
200.5615393691806
 20
16.1241184213247
 42
0.0
 10
200.5615393691806
 20
14.41141449004919
 42
0.9993112080576029
 10
202.3096508572413
 20
14.41020999000819
 42
0.0
 10
202.3096508572412
 20
16.1241184213247
 42
0.0
 10
202.0838037110561
 20
16.1241184213247
 42
0.0
 10
202.0838037110561
 20
14.41141449004919
 42
-1.0
 10
200.7873865153659
 20
14.41141449004919
 42
0.0
 97
        8
330
4D999
330
4D992
330
4D994
330
4D993
330
4D99A
330
4D997
330
4D991
330
4D995
 75
     0
 76
     1
 47
0.0094553774314989
 98
        1
 10
200.7091494683245
 20
15.45719352365653
  0
HATCH
  5
4D98C
330
4D50F
100
AcDbEntity
  8
0
 62
     0
100
AcDbHatch
 10
0.0
 20
0.0
 30
0.0
210
0.0
220
0.0
230
1.0
  2
SOLID
 70
     1
 71
     1
 91
        3
 92
       16
 93
        4
 72
     1
 10
198.7944098991748
 20
15.89827044520379
 11
199.2657164076198
 21
15.89827127513954
 72
     2
 10
199.2657171527633
 20
15.47511681969394
 40
0.4231544554462469
 50
269.9998991063898
 51
450.0001008936102
 73
     0
 72
     1
 10
199.2657164076198
 20
15.05196236424835
 11
198.7944098991748
 21
15.05196236424835
 72
     1
 10
198.7944098991748
 20
15.05196236424835
 11
198.7944098991748
 21
15.89827044520379
 97
        1
330
4D98E
 92
       16
 93
        4
 72
     1
 10
198.7944098991748
 20
14.87128448131298
 11
199.2657164076198
 21
14.87128448131298
 72
     2
 10
199.2657164076198
 20
14.31724539424268
 40
0.5540390870702971
 50
270.0
 51
450.0
 73
     0
 72
     1
 10
199.2657164076198
 20
13.76320630717238
 11
198.7944098991748
 21
13.76320630717238
 72
     1
 10
198.7944098991748
 20
13.76320630717238
 11
198.7944098991748
 21
14.87128448131298
 97
        1
330
4D98D
 92
        1
 93
        5
 72
     1
 10
198.5685627529896
 20
16.1241184213247
 11
199.3334707174625
 21
16.1241184213247
 72
     2
 10
199.3334707174625
 20
15.54287112953676
 40
0.5812472917879354
 50
270.0
 51
450.0
 73
     0
 72
     2
 10
199.3334707174625
 20
14.24949149936813
 40
0.7121323383808971
 50
270.0
 51
450.0
 73
     0
 72
     1
 10
199.3334707174625
 20
13.53735916098724
 11
198.5685627529896
 21
13.53735916098692
 72
     1
 10
198.5685627529896
 20
13.53735916098692
 11
198.5685627529896
 21
16.1241184213247
 97
        2
330
4D990
330
4D98F
 75
     0
 76
     1
 98
        1
 10
-72.12883341765698
 20
10.24415320912569
  0
LWPOLYLINE
  5
4D98D
102
{ACAD_REACTORS
330
4D98C
102
}
330
4D50F
100
AcDbEntity
  8
0
 62
     0
100
AcDbPolyline
 90
        5
 70
     0
 43
0.0
 10
198.7944098991748
 20
14.87128448131298
 10
199.2657164076198
 20
14.87128448131298
 42
-1.0
 10
199.2657164076198
 20
13.76320630717238
 10
198.7944098991748
 20
13.76320630717238
 10
198.7944098991748
 20
14.87128448131298
  0
LWPOLYLINE
  5
4D98E
102
{ACAD_REACTORS
330
4D98C
102
}
330
4D50F
100
AcDbEntity
  8
0
 62
     0
100
AcDbPolyline
 90
        5
 70
     0
 43
0.0
 10
198.7944098991748
 20
15.89827044520379
 10
199.2657164076198
 20
15.89827127513954
 42
-1.000001760927264
 10
199.2657164076198
 20
15.05196236424835
 10
198.7944098991748
 20
15.05196236424835
 10
198.7944098991748
 20
15.89827044520379
  0
LWPOLYLINE
  5
4D98F
102
{ACAD_REACTORS
330
4D98C
102
}
330
4D50F
100
AcDbEntity
  8
0
 62
     0
100
AcDbPolyline
 90
        4
 70
     0
 43
0.0
 10
199.3334707174625
 20
14.96162383774903
 42
-1.0
 10
199.3334707174625
 20
13.53735916098724
 10
198.5685627529896
 20
13.53735916098692
 10
198.5685627529896
 20
16.1241184213247
  0
LWPOLYLINE
  5
4D990
102
{ACAD_REACTORS
330
4D98C
102
}
330
4D50F
100
AcDbEntity
  8
0
 62
     0
100
AcDbPolyline
 90
        3
 70
     0
 43
0.0
 10
198.5685627529896
 20
16.1241184213247
 10
199.3334707174625
 20
16.1241184213247
 42
-1.0
 10
199.3334707174625
 20
14.96162383774882
 42
-0.2926436946032611
  0
ARC
  5
4D991
102
{ACAD_REACTORS
330
4D98B
102
}
330
4D50F
100
AcDbEntity
  8
0
 62
     0
100
AcDbCircle
 10
201.435595113211
 20
14.41141449004919
 30
0.0
 40
0.6482085978451059
100
AcDbArc
 50
180.0
 51
0.0
  0
LINE
  5
4D992
102
{ACAD_REACTORS
330
4D98B
102
}
330
4D50F
100
AcDbEntity
  8
0
 62
     0
100
AcDbLine
 10
200.5615393691806
 20
16.1241184213247
 30
0.0
 11
200.5615393691806
 21
14.41141449004919
 31
0.0
  0
LINE
  5
4D993
102
{ACAD_REACTORS
330
4D98B
102
}
330
4D50F
100
AcDbEntity
  8
0
 62
     0
100
AcDbLine
 10
202.3096508572413
 20
16.1241184213247
 30
0.0
 11
202.3096508572413
 21
14.41261899202532
 31
0.0
  0
ARC
  5
4D994
102
{ACAD_REACTORS
330
4D98B
102
}
330
4D50F
100
AcDbEntity
  8
0
 62
     0
100
AcDbCircle
 10
201.4355955281789
 20
14.41141449004919
 30
0.0
 40
0.8740561589982532
100
AcDbArc
 50
180.0
 51
0.0789570564544175
  0
LINE
  5
4D995
102
{ACAD_REACTORS
330
4D98B
102
}
330
4D50F
100
AcDbEntity
  8
0
 62
     0
100
AcDbLine
 10
200.7873865153659
 20
16.1241184213247
 30
0.0
 11
200.7873865153659
 21
14.41141449004919
 31
0.0
  0
ARC
  5
4D996
330
4D50F
100
AcDbEntity
  8
0
 62
     0
100
AcDbCircle
 10
201.4355955281789
 20
14.41141449004919
 30
0.0
 40
0.6482081828771116
100
AcDbArc
 50
180.0
 51
0.0
  0
LINE
  5
4D997
102
{ACAD_REACTORS
330
4D98B
102
}
330
4D50F
100
AcDbEntity
  8
0
 62
     0
100
AcDbLine
 10
202.0838037110561
 20
14.41141449004919
 30
0.0
 11
202.0838037110561
 21
16.1241184213247
 31
0.0
  0
LINE
  5
4D998
102
{ACAD_REACTORS
330
4D97A
102
}
330
4D50F
100
AcDbEntity
  8
0
 62
     0
100
AcDbLine
 10
202.9712907232867
 20
13.53735916098692
 30
0.0
 11
202.9712907232867
 21
16.1241184213247
 31
0.0
  0
LINE
  5
4D999
102
{ACAD_REACTORS
330
4D98B
102
}
330
4D50F
100
AcDbEntity
  8
0
 62
     0
100
AcDbLine
 10
200.5615393691806
 20
16.1241184213247
 30
0.0
 11
200.7873865153659
 21
16.1241184213247
 31
0.0
  0
LINE
  5
4D99A
102
{ACAD_REACTORS
330
4D98B
102
}
330
4D50F
100
AcDbEntity
  8
0
 62
     0
100
AcDbLine
 10
202.0838037110561
 20
16.1241184213247
 30
0.0
 11
202.3096508572413
 21
16.1241184213247
 31
0.0
  0
LINE
  5
4D99B
102
{ACAD_REACTORS
330
4D956
102
}
330
4D50F
100
AcDbEntity
  8
0
 62
    83
100
AcDbLine
 10
197.0306653465346
 20
25.00112150553296
 30
0.0
 11
197.9543973209085
 21
23.40117101048351
 31
0.0
  0
LINE
  5
4D99C
102
{ACAD_REACTORS
330
4D956
102
}
330
4D50F
100
AcDbEntity
  8
0
 62
    83
100
AcDbLine
 10
197.0306653465346
 20
25.00112150553296
 30
0.0
 11
196.1069333721607
 21
23.40117101048351
 31
0.0
  0
LINE
  5
4D99D
102
{ACAD_REACTORS
330
4D956
102
}
330
4D50F
100
AcDbEntity
  8
0
 62
    83
100
AcDbLine
 10
196.1069333721607
 20
23.40117101048351
 30
0.0
 11
197.9543973209085
 21
23.40117101048351
 31
0.0
  0
LINE
  5
4D99E
102
{ACAD_REACTORS
330
4D956
102
}
330
4D50F
100
AcDbEntity
  8
0
 62
    83
100
AcDbLine
 10
198.4415564356435
 20
25.42062673267328
 30
0.0
 11
198.4415564356435
 21
25.98498316831709
 31
0.0
  0
LINE
  5
4D99F
102
{ACAD_REACTORS
330
4D956
102
}
330
4D50F
100
AcDbEntity
  8
0
 62
    83
100
AcDbLine
 10
199.4856158415841
 20
25.42062673267328
 30
0.0
 11
198.4415564356435
 21
25.42062673267328
 31
0.0
  0
LINE
  5
4D9A0
102
{ACAD_REACTORS
330
4D956
102
}
330
4D50F
100
AcDbEntity
  8
0
 62
    83
100
AcDbLine
 10
199.4856158415841
 20
22.31666633663386
 30
0.0
 11
199.4856158415841
 21
25.42062673267328
 31
0.0
  0
LINE
  5
4D9A1
102
{ACAD_REACTORS
330
4D956
102
}
330
4D50F
100
AcDbEntity
  8
0
 62
    83
100
AcDbLine
 10
200.2192792079208
 20
22.31666633663386
 30
0.0
 11
199.4856158415841
 21
22.31666633663386
 31
0.0
  0
LINE
  5
4D9A2
102
{ACAD_REACTORS
330
4D956
102
}
330
4D50F
100
AcDbEntity
  8
0
 62
    83
100
AcDbLine
 10
200.2192792079208
 20
25.42062673267328
 30
0.0
 11
200.2192792079208
 21
22.31666633663386
 31
0.0
  0
LINE
  5
4D9A3
102
{ACAD_REACTORS
330
4D956
102
}
330
4D50F
100
AcDbEntity
  8
0
 62
    83
100
AcDbLine
 10
201.2633386138613
 20
25.42062673267328
 30
0.0
 11
200.2192792079208
 21
25.42062673267328
 31
0.0
  0
LINE
  5
4D9A4
102
{ACAD_REACTORS
330
4D956
102
}
330
4D50F
100
AcDbEntity
  8
0
 62
    83
100
AcDbLine
 10
201.2633386138613
 20
25.98498316831709
 30
0.0
 11
201.2633386138613
 21
25.42062673267328
 31
0.0
  0
LINE
  5
4D9A5
102
{ACAD_REACTORS
330
4D956
102
}
330
4D50F
100
AcDbEntity
  8
0
 62
    83
100
AcDbLine
 10
198.4415564356435
 20
25.98498316831709
 30
0.0
 11
201.2633386138613
 21
25.98498316831709
 31
0.0
  0
LINE
  5
4D9A6
102
{ACAD_REACTORS
330
4D956
102
}
330
4D50F
100
AcDbEntity
  8
0
 62
    83
100
AcDbLine
 10
202.5796999999999
 20
23.35084950495056
 30
0.0
 11
202.5796999999999
 21
24.95080000000002
 31
0.0
  0
HATCH
  5
4D9A7
330
4D50F
100
AcDbEntity
  8
0
 62
     0
100
AcDbHatch
 10
0.0
 20
0.0
 30
0.0
210
0.0
220
0.0
230
1.0
  2
SOLID
 70
     1
 71
     1
 91
        1
 92
        7
 72
     1
 73
     1
 93
        4
 10
209.2881845934089
 20
13.81794368446969
 42
0.0
 10
209.2881845934089
 20
14.12892027475158
 42
-2.667269372855936
 10
209.2881845934089
 20
15.53256394704789
 42
0.0
 10
209.2881845934089
 20
15.84354053732978
 42
2.071285835562603
 97
        4
330
4D9B8
330
4D9A8
330
4D9B7
330
4D9A9
 75
     0
 76
     1
 47
0.0094553770012845
 98
        1
 10
207.2991312711954
 20
14.86083375439441
  0
ARC
  5
4D9A8
102
{ACAD_REACTORS
330
4D9A7
102
}
330
4D50F
100
AcDbEntity
  8
0
 62
     0
100
AcDbCircle
 10
208.4837725083769
 20
14.83074211089973
 30
0.0
 40
1.293382949912639
100
AcDbArc
 50
51.54173800000001
 51
308.458262
  0
ARC
  5
4D9A9
102
{ACAD_REACTORS
330
4D9A7
102
}
330
4D50F
100
AcDbEntity
  8
0
 62
     0
100
AcDbCircle
 10
208.4837725083769
 20
14.83074211089973
 30
0.0
 40
1.067535803727432
100
AcDbArc
 50
41.103548
 51
318.896452
  0
LINE
  5
4D9AA
102
{ACAD_REACTORS
330
4D97A
102
}
330
4D50F
100
AcDbEntity
  8
0
 62
     0
100
AcDbLine
 10
203.266972828703
 20
14.92233052091694
 30
0.0
 11
204.5392679364492
 21
13.53735916098692
 31
0.0
  0
LINE
  5
4D9AB
102
{ACAD_REACTORS
330
4D97A
102
}
330
4D50F
100
AcDbEntity
  8
0
 62
     0
100
AcDbLine
 10
203.266972828703
 20
14.92233052091694
 30
0.0
 11
204.4735004932343
 21
16.1241184213247
 31
0.0
  0
LINE
  5
4D9AC
102
{ACAD_REACTORS
330
4D97A
102
}
330
4D50F
100
AcDbEntity
  8
0
 62
     0
100
AcDbLine
 10
205.0791545409919
 20
13.53735916098692
 30
0.0
 11
205.0791545409919
 21
16.1241184213247
 31
0.0
  0
LINE
  5
4D9AD
102
{ACAD_REACTORS
330
4D97A
102
}
330
4D50F
100
AcDbEntity
  8
0
 62
     0
100
AcDbLine
 10
205.3050016871772
 20
13.53735916098692
 30
0.0
 11
205.3050016871772
 21
16.1241184213247
 31
0.0
  0
LINE
  5
4D9AE
102
{ACAD_REACTORS
330
4D97A
102
}
330
4D50F
100
AcDbEntity
  8
0
 62
     0
100
AcDbLine
 10
204.247653347049
 20
16.1241184213247
 30
0.0
 11
204.4735004932343
 21
16.1241184213247
 31
0.0
  0
LINE
  5
4D9AF
102
{ACAD_REACTORS
330
4D97A
102
}
330
4D50F
100
AcDbEntity
  8
0
 62
     0
100
AcDbLine
 10
204.313419960328
 20
13.53735916098692
 30
0.0
 11
204.5392679364492
 21
13.53735916098692
 31
0.0
  0
LINE
  5
4D9B0
102
{ACAD_REACTORS
330
4D97A
102
}
330
4D50F
100
AcDbEntity
  8
0
 62
     0
100
AcDbLine
 10
205.0791545409919
 20
16.1241184213247
 30
0.0
 11
205.3050016871772
 21
16.1241184213247
 31
0.0
  0
LINE
  5
4D9B1
102
{ACAD_REACTORS
330
4D97A
102
}
330
4D50F
100
AcDbEntity
  8
0
 62
     0
100
AcDbLine
 10
205.0791545409919
 20
13.53735916098692
 30
0.0
 11
205.3050016871772
 21
13.53735916098692
 31
0.0
  0
LINE
  5
4D9B2
102
{ACAD_REACTORS
330
4D97A
102
}
330
4D50F
100
AcDbEntity
  8
0
 62
     0
100
AcDbLine
 10
203.1836588799553
 20
13.53735916098692
 30
0.0
 11
203.1836588799553
 21
14.76717399791187
 31
0.0
  0
LINE
  5
4D9B3
102
{ACAD_REACTORS
330
4D97A
102
}
330
4D50F
100
AcDbEntity
  8
0
 62
     0
100
AcDbLine
 10
203.1836588799553
 20
15.06430434153457
 30
0.0
 11
203.1836588799553
 21
16.1241184213247
 31
0.0
  0
LINE
  5
4D9B4
102
{ACAD_REACTORS
330
4D97A
102
}
330
4D50F
100
AcDbEntity
  8
0
 62
     0
100
AcDbLine
 10
203.1836588799553
 20
15.06430434153457
 30
0.0
 11
204.247653347049
 21
16.1241184213247
 31
0.0
  0
LINE
  5
4D9B5
102
{ACAD_REACTORS
330
4D97A
102
}
330
4D50F
100
AcDbEntity
  8
0
 62
     0
100
AcDbLine
 10
203.1836588799553
 20
14.76717399791187
 30
0.0
 11
204.313419960328
 21
13.53735916098692
 31
0.0
  0
HATCH
  5
4D9B6
330
4D50F
100
AcDbEntity
  8
0
 62
     0
100
AcDbHatch
 10
0.0
 20
0.0
 30
0.0
210
0.0
220
0.0
230
1.0
  2
SOLID
 70
     1
 71
     1
 91
        2
 92
        7
 72
     1
 73
     1
 93
        2
 10
209.5578390779751
 20
14.83074211089973
 42
1.0
 10
212.1446049778004
 20
14.83074211089973
 42
1.0
 97
        1
330
4D9B9
 92
       22
 72
     1
 73
     1
 93
        2
 10
211.9187578316151
 20
14.83074211089973
 42
-1.000000127167677
 10
209.7836862241603
 20
14.83074211089973
 42
-1.000000127167677
 97
        1
330
4D9BA
 75
     0
 76
     1
 47
0.0094553770012845
 98
        2
 10
209.67216206495
 20
14.97854392596064
 10
209.67216206495
 20
14.97854392596064
  0
LINE
  5
4D9B7
102
{ACAD_REACTORS
330
4D9A7
102
}
330
4D50F
100
AcDbEntity
  8
0
 62
     0
100
AcDbLine
 10
209.2881845934089
 20
13.81794390181394
 30
0.0
 11
209.2881845934089
 21
14.12892089657249
 31
0.0
  0
LINE
  5
4D9B8
102
{ACAD_REACTORS
330
4D9A7
102
}
330
4D50F
100
AcDbEntity
  8
0
 62
     0
100
AcDbLine
 10
209.2881845934089
 20
15.53256332522697
 30
0.0
 11
209.2881845934089
 21
15.84354031998514
 31
0.0
  0
CIRCLE
  5
4D9B9
102
{ACAD_REACTORS
330
4D9B6
102
}
330
4D50F
100
AcDbEntity
  8
0
 62
     0
100
AcDbCircle
 10
210.8512220278877
 20
14.83074211089973
 30
0.0
 40
1.293382949912639
  0
CIRCLE
  5
4D9BA
102
{ACAD_REACTORS
330
4D9B6
102
}
330
4D50F
100
AcDbEntity
  8
0
 62
     0
100
AcDbCircle
 10
210.8512220278877
 20
14.83074211089973
 30
0.0
 40
1.067535803727432
  0
CIRCLE
  5
4D9BB
102
{ACAD_REACTORS
330
4D956
102
}
330
4D50F
100
AcDbEntity
  8
0
 62
    83
100
AcDbCircle
 10
207.5841306930692
 20
24.15082475247547
 30
0.0
 40
1.326237623762377
  0
ARC
  5
4D9BC
102
{ACAD_REACTORS
330
4D956
102
}
330
4D50F
100
AcDbEntity
  8
0
 62
    83
100
AcDbCircle
 10
207.697001980198
 20
24.15082475247547
 30
0.0
 40
1.834158415841585
100
AcDbArc
 50
270.0
 51
90.0
  0
LINE
  5
4D9BD
102
{ACAD_REACTORS
330
4D956
102
}
330
4D50F
100
AcDbEntity
  8
0
 62
    83
100
AcDbLine
 10
207.4712594059405
 20
25.98498316831709
 30
0.0
 11
207.697001980198
 21
25.98498316831709
 31
0.0
  0
LINE
  5
4D9BE
102
{ACAD_REACTORS
330
4D956
102
}
330
4D50F
100
AcDbEntity
  8
0
 62
    83
100
AcDbLine
 10
207.4712594059405
 20
22.31666633663386
 30
0.0
 11
207.697001980198
 21
22.31666633663386
 31
0.0
  0
ARC
  5
4D9BF
102
{ACAD_REACTORS
330
4D956
102
}
330
4D50F
100
AcDbEntity
  8
0
 62
    83
100
AcDbCircle
 10
207.4712594059405
 20
24.15082475247547
 30
0.0
 40
1.834158415841585
100
AcDbArc
 50
90.0
 51
270.0
  0
LINE
  5
4D9C0
102
{ACAD_REACTORS
330
4D956
102
}
330
4D50F
100
AcDbEntity
  8
0
 62
    83
100
AcDbLine
 10
204.1796504950495
 20
24.95080000000002
 30
0.0
 11
204.1796504950495
 21
23.35084950495056
 31
0.0
  0
CIRCLE
  5
4D9C1
102
{ACAD_REACTORS
330
4D956
102
}
330
4D50F
100
AcDbEntity
  8
0
 62
    83
100
AcDbCircle
 10
211.5628435643563
 20
24.15082475247547
 30
0.0
 40
0.8399740099009905
  0
HATCH
  5
4D9C2
330
4D50F
100
AcDbEntity
  8
0
 62
     0
100
AcDbHatch
 10
0.0
 20
0.0
 30
0.0
210
0.0
220
0.0
230
1.0
  2
SOLID
 70
     1
 71
     1
 91
        2
 92
        7
 72
     0
 73
     1
 93
        7
 10
222.2898978723839
 20
16.12412506081215
 10
221.2189402427974
 20
13.53735916098692
 10
221.4633787838575
 20
13.53735916098693
 10
221.7907669317899
 20
14.32812626931532
 10
222.7890279830421
 20
14.32812626931532
 10
223.1164161309745
 20
13.53735916098692
 10
223.3608546720345
 20
13.53735916098692
 97
        7
330
4D9D5
330
4D9D8
330
4D9D6
330
4D9C3
330
4D9F4
330
4D9FE
330
4D9C5
 92
       22
 72
     0
 73
     1
 93
        3
 10
222.2898978723839
 20
15.53371444636842
 10
222.6955232509512
 20
14.55397424543662
 10
221.8842716638807
 20
14.55397424543661
 97
        3
330
4D9C6
330
4D9C4
330
4D9D7
 75
     0
 76
     1
 47
0.0094553770012842
 98
        2
 10
222.3064000185615
 20
15.70820919685694
 10
222.3064000185615
 20
15.70820919685694
  0
LINE
  5
4D9C3
102
{ACAD_REACTORS
330
4D9C2
102
}
330
4D50F
100
AcDbEntity
  8
0
 62
     0
100
AcDbLine
 10
222.789027983042
 20
14.32812626931532
 30
0.0
 11
221.7907669317899
 21
14.32812626931532
 31
0.0
  0
LINE
  5
4D9C4
102
{ACAD_REACTORS
330
4D9C2
102
}
330
4D50F
100
AcDbEntity
  8
0
 62
     0
100
AcDbLine
 10
222.6955232509512
 20
14.55397424543661
 30
0.0
 11
221.8842716638807
 21
14.55397424543661
 31
0.0
  0
LINE
  5
4D9C5
102
{ACAD_REACTORS
330
4D9C2
102
}
330
4D50F
100
AcDbEntity
  8
0
 62
     0
100
AcDbLine
 10
222.2898978723839
 20
16.12412506081215
 30
0.0
 11
223.3608546720345
 21
13.53735916098692
 31
0.0
  0
LINE
  5
4D9C6
102
{ACAD_REACTORS
330
4D9C2
102
}
330
4D50F
100
AcDbEntity
  8
0
 62
     0
100
AcDbLine
 10
222.6955232509512
 20
14.55397424543661
 30
0.0
 11
222.2898978723839
 21
15.53371444636832
 31
0.0
  0
ARC
  5
4D9C7
102
{ACAD_REACTORS
330
4D956
102
}
330
4D50F
100
AcDbEntity
  8
0
 62
    83
100
AcDbCircle
 10
221.3403188118812
 20
23.7981019801981
 30
0.0
 40
1.481435643564357
100
AcDbArc
 50
270.0
 51
0.0
  0
LINE
  5
4D9C8
102
{ACAD_REACTORS
330
4D956
102
}
330
4D50F
100
AcDbEntity
  8
0
 62
    83
100
AcDbLine
 10
222.8217544554455
 20
25.98498316831709
 30
0.0
 11
222.0880910891088
 21
25.98498316831709
 31
0.0
  0
HATCH
  5
4D9C9
330
4D50F
100
AcDbEntity
  8
0
 62
     0
100
AcDbHatch
 10
0.0
 20
0.0
 30
0.0
210
0.0
220
0.0
230
1.0
  2
SOLID
 70
     1
 71
     1
 91
        2
 92
        7
 72
     1
 73
     1
 93
        2
 10
216.1804215910794
 20
14.83074211089973
 42
1.0
 10
218.7671874909046
 20
14.83074211089973
 42
1.0
 97
        1
330
4D9CA
 92
       22
 72
     1
 73
     1
 93
        2
 10
218.5413403447194
 20
14.83074211089973
 42
-1.000000127167677
 10
216.4062687372646
 20
14.83074211089973
 42
-1.000000127167677
 97
        1
330
4D9CD
 75
     0
 76
     1
 47
0.0094553770012845
 98
        2
 10
217.4734007998717
 20
15.982966014498
 10
217.4734007998717
 20
15.982966014498
  0
CIRCLE
  5
4D9CA
102
{ACAD_REACTORS
330
4D9C9
102
}
330
4D50F
100
AcDbEntity
  8
0
 62
     0
100
AcDbCircle
 10
217.473804540992
 20
14.83074211089973
 30
0.0
 40
1.293382949912639
  0
CIRCLE
  5
4D9CB
330
4D50F
100
AcDbEntity
  8
0
 62
     0
100
AcDbCircle
 10
217.473804540992
 20
14.83074211089973
 30
0.0
 40
1.293382949912639
  0
CIRCLE
  5
4D9CC
330
4D50F
100
AcDbEntity
  8
0
 62
     0
100
AcDbCircle
 10
217.473804540992
 20
14.83074211089973
 30
0.0
 40
1.293382949912639
  0
CIRCLE
  5
4D9CD
102
{ACAD_REACTORS
330
4D9C9
102
}
330
4D50F
100
AcDbEntity
  8
0
 62
     0
100
AcDbCircle
 10
217.473804540992
 20
14.83074211089973
 30
0.0
 40
1.067535803727432
  0
HATCH
  5
4D9CE
330
4D50F
100
AcDbEntity
  8
0
 62
     0
100
AcDbHatch
 10
0.0
 20
0.0
 30
0.0
210
0.0
220
0.0
230
1.0
  2
SOLID
 70
     1
 71
     1
 91
        2
 92
        1
 93
        6
 72
     1
 10
214.5233134082022
 20
16.12412506081216
 11
215.2871507553193
 21
16.12412423087619
 72
     2
 10
215.2871500526669
 20
15.47743317088784
 40
0.6466910599887343
 50
270.0000622538648
 51
449.9999377461352
 73
     0
 72
     1
 10
215.2871507553193
 20
14.83074211089949
 11
214.7491605543875
 21
14.83074211089949
 72
     1
 10
214.7491605543875
 20
14.83074211089949
 11
214.7491605543875
 21
13.53735916098692
 72
     1
 10
214.7491605543875
 20
13.53735916098692
 11
214.5233134082022
 21
13.53735916098692
 72
     1
 10
214.5233134082022
 20
13.53735916098692
 11
214.5233134082022
 21
16.12412506081216
 97
        1
330
4D9D0
 92
       16
 93
        4
 72
     1
 10
214.7491605543875
 20
15.89827708469124
 11
215.2871507553193
 21
15.89827708469124
 72
     2
 10
215.2871507553193
 20
15.47743317088803
 40
0.4208439138032176
 50
270.0
 51
450.0
 73
     0
 72
     1
 10
215.2871507553193
 20
15.05658925708481
 11
214.7491605543875
 21
15.05658925708481
 72
     1
 10
214.7491605543875
 20
15.05658925708481
 11
214.7491605543875
 21
15.89827708469124
 97
        1
330
4D9CF
 75
     0
 76
     1
 98
        1
 10
-72.12883341765698
 20
10.24415320912569
  0
LWPOLYLINE
  5
4D9CF
102
{ACAD_REACTORS
330
4D9CE
102
}
330
4D50F
100
AcDbEntity
  8
0
 62
     0
100
AcDbPolyline
 90
        5
 70
     0
 43
0.0
 10
214.7491605543875
 20
15.89827708469124
 10
215.2871507553193
 20
15.89827708469124
 42
-1.0
 10
215.2871507553193
 20
15.05658925708481
 10
214.7491605543875
 20
15.05658925708481
 10
214.7491605543875
 20
15.89827708469124
  0
LWPOLYLINE
  5
4D9D0
102
{ACAD_REACTORS
330
4D9CE
102
}
330
4D50F
100
AcDbEntity
  8
0
 62
     0
100
AcDbPolyline
 90
        7
 70
     0
 43
0.0
 10
214.5233134082022
 20
16.12412506081216
 10
215.2871507553193
 20
16.12412423087619
 42
-0.9999989134656457
 10
215.2871507553193
 20
14.83074211089949
 42
-0.0000005432674547
 10
214.7491605543875
 20
14.83074211089949
 10
214.7491605543875
 20
13.53735916098692
 10
214.5233134082022
 20
13.53735916098692
 10
214.5233134082022
 20
16.12412506081216
  0
LWPOLYLINE
  5
4D9D1
102
{ACAD_REACTORS
330
4D955
102
}
330
4D50F
100
AcDbEntity
  8
0
 62
     0
100
AcDbPolyline
 90
        5
 70
     0
 43
0.0
 10
212.8477623889826
 20
15.89827708469124
 10
213.3857525899145
 20
15.89827708469124
 42
-1.0
 10
213.3857525899145
 20
15.05658925708469
 10
212.8477623889826
 20
15.05658925708481
 10
212.8477623889826
 20
15.89827708469124
  0
HATCH
  5
4D9D2
330
4D50F
100
AcDbEntity
  8
0
 62
     0
100
AcDbHatch
 10
0.0
 20
0.0
 30
0.0
210
0.0
220
0.0
230
1.0
  2
SOLID
 70
     1
 71
     1
 91
        2
 92
        7
 72
     1
 73
     1
 93
        9
 10
220.0043738188021
 20
14.83074211089974
 42
0.0
 10
220.2389859183945
 20
14.83074211089973
 42
1.0
 10
220.2389859183945
 20
16.12412506081216
 42
0.0
 10
219.4751477413414
 20
16.12412506081216
 42
0.0
 10
219.4751477413414
 20
13.53735916098692
 42
0.0
 10
219.7009957174627
 20
13.53735916098692
 42
0.0
 10
219.7009957174627
 20
14.83074211089975
 42
0.0
 10
220.6364920337118
 20
13.53735916098692
 42
0.0
 10
220.9124449020869
 20
13.53735916098692
 42
0.0
 97
        1
330
4D9D4
 92
       22
 72
     1
 73
     1
 93
        4
 10
219.7009957174626
 20
15.05658925708481
 42
0.0
 10
219.7009957174626
 20
15.89827708469124
 42
0.0
 10
220.2389859183945
 20
15.89827708469124
 42
-1.0
 10
220.2389859183944
 20
15.05658925708469
 42
0.0
 97
        1
330
4D9D3
 75
     0
 76
     1
 47
0.0094553770012842
 98
        2
 10
219.8547926880178
 20
14.95486292529618
 10
219.8547926880178
 20
14.95486292529618
  0
LWPOLYLINE
  5
4D9D3
102
{ACAD_REACTORS
330
4D9D2
102
}
330
4D50F
100
AcDbEntity
  8
0
 62
     0
100
AcDbPolyline
 90
        5
 70
     0
 43
0.0
 10
219.7009957174626
 20
15.89827708469124
 10
220.2389859183945
 20
15.89827708469124
 42
-1.0
 10
220.2389859183945
 20
15.05658925708469
 10
219.7009957174626
 20
15.05658925708481
 10
219.7009957174626
 20
15.89827708469124
  0
LWPOLYLINE
  5
4D9D4
102
{ACAD_REACTORS
330
4D9D2
102
}
330
4D50F
100
AcDbEntity
  8
0
 62
     0
100
AcDbPolyline
 90
       10
 70
     0
 43
0.0
 10
219.4751477413414
 20
16.12412506081216
 10
220.2389859183945
 20
16.12412506081216
 42
-1.000000000000001
 10
220.2389859183945
 20
14.83074211089973
 10
220.0043738188021
 20
14.83074211089973
 10
220.9124449020869
 20
13.53735916098692
 10
220.6364920337118
 20
13.53735916098692
 10
219.7009957174627
 20
14.83074211089973
 10
219.7009957174627
 20
13.53735916098692
 10
219.4751477413414
 20
13.53735916098692
 10
219.4751477413414
 20
16.12412506081216
  0
LINE
  5
4D9D5
102
{ACAD_REACTORS
330
4D9C2
102
}
330
4D50F
100
AcDbEntity
  8
0
 62
     0
100
AcDbLine
 10
222.2898978723839
 20
16.12412506081215
 30
0.0
 11
221.2189402427975
 21
13.53735916098692
 31
0.0
  0
LINE
  5
4D9D6
102
{ACAD_REACTORS
330
4D9C2
102
}
330
4D50F
100
AcDbEntity
  8
0
 62
     0
100
AcDbLine
 10
221.4633787838575
 20
13.53735916098692
 30
0.0
 11
221.7907669317899
 21
14.32812626931532
 31
0.0
  0
LINE
  5
4D9D7
102
{ACAD_REACTORS
330
4D9C2
102
}
330
4D50F
100
AcDbEntity
  8
0
 62
     0
100
AcDbLine
 10
221.8842716638807
 20
14.55397424543661
 30
0.0
 11
222.2898978723839
 21
15.53371444636832
 31
0.0
  0
LINE
  5
4D9D8
102
{ACAD_REACTORS
330
4D9C2
102
}
330
4D50F
100
AcDbEntity
  8
0
 62
     0
100
AcDbLine
 10
221.2189402427975
 20
13.53735916098692
 30
0.0
 11
221.4633787838575
 21
13.53735916098692
 31
0.0
  0
LINE
  5
4D9D9
102
{ACAD_REACTORS
330
4D956
102
}
330
4D50F
100
AcDbEntity
  8
0
 62
    83
100
AcDbLine
 10
217.7707643564356
 20
25.00112150553296
 30
0.0
 11
216.8470323820617
 21
23.40117101048351
 31
0.0
  0
LINE
  5
4D9DA
102
{ACAD_REACTORS
330
4D956
102
}
330
4D50F
100
AcDbEntity
  8
0
 62
    83
100
AcDbLine
 10
216.8470323820617
 20
23.40117101048351
 30
0.0
 11
218.6944963308095
 21
23.40117101048351
 31
0.0
  0
LINE
  5
4D9DB
102
{ACAD_REACTORS
330
4D956
102
}
330
4D50F
100
AcDbEntity
  8
0
 62
    83
100
AcDbLine
 10
214.7937841584158
 20
25.98498316831709
 30
0.0
 11
213.5098732673266
 21
25.98498316831709
 31
0.0
  0
LINE
  5
4D9DC
102
{ACAD_REACTORS
330
4D956
102
}
330
4D50F
100
AcDbEntity
  8
0
 62
    83
100
AcDbLine
 10
214.9811397058823
 20
22.31666633663386
 30
0.0
 11
213.5098732673266
 21
22.31666633663386
 31
0.0
  0
LINE
  5
4D9DD
102
{ACAD_REACTORS
330
4D956
102
}
330
4D50F
100
AcDbEntity
  8
0
 62
    83
100
AcDbLine
 10
213.5098732673266
 20
22.31666633663386
 30
0.0
 11
213.5098732673266
 21
25.98498316831709
 31
0.0
  0
ARC
  5
4D9DE
102
{ACAD_REACTORS
330
4D956
102
}
330
4D50F
100
AcDbEntity
  8
0
 62
    83
100
AcDbCircle
 10
214.7373485148514
 20
23.40305247524751
 30
0.0
 40
0.5784653465346538
100
AcDbArc
 50
270.0
 51
90.0
  0
ARC
  5
4D9DF
102
{ACAD_REACTORS
330
4D956
102
}
330
4D50F
100
AcDbEntity
  8
0
 62
    83
100
AcDbCircle
 10
214.6385861386138
 20
24.96914158415854
 30
0.0
 40
0.5079207920792081
100
AcDbArc
 50
270.0
 51
90.0
  0
ARC
  5
4D9E0
102
{ACAD_REACTORS
330
4D956
102
}
330
4D50F
100
AcDbEntity
  8
0
 62
    83
100
AcDbCircle
 10
214.7937841584158
 20
25.06790396039629
 30
0.0
 40
0.9170792079207924
100
AcDbArc
 50
291.6588350860839
 51
90.0
  0
ARC
  5
4D9E1
102
{ACAD_REACTORS
330
4D956
102
}
330
4D50F
100
AcDbEntity
  8
0
 62
    83
100
AcDbCircle
 10
214.9811397058823
 20
23.27213257134557
 30
0.0
 40
0.955466234711707
100
AcDbArc
 50
270.0
 51
80.8997242041225
  0
LINE
  5
4D9E2
102
{ACAD_REACTORS
330
4D956
102
}
330
4D50F
100
AcDbEntity
  8
0
 62
    83
100
AcDbLine
 10
214.1588831683168
 20
24.46122079207927
 30
0.0
 11
214.1588831683168
 21
25.47706237623782
 31
0.0
  0
LINE
  5
4D9E3
102
{ACAD_REACTORS
330
4D956
102
}
330
4D50F
100
AcDbEntity
  8
0
 62
    83
100
AcDbLine
 10
214.1588831683168
 20
24.46122079207927
 30
0.0
 11
214.6385861386138
 21
24.46122079207927
 31
0.0
  0
LINE
  5
4D9E4
102
{ACAD_REACTORS
330
4D956
102
}
330
4D50F
100
AcDbEntity
  8
0
 62
    83
100
AcDbLine
 10
214.1588831683168
 20
23.98151782178226
 30
0.0
 11
214.7373485148514
 21
23.98151782178226
 31
0.0
  0
LINE
  5
4D9E5
102
{ACAD_REACTORS
330
4D956
102
}
330
4D50F
100
AcDbEntity
  8
0
 62
    83
100
AcDbLine
 10
214.1588831683168
 20
25.47706237623782
 30
0.0
 11
214.6385861386138
 21
25.47706237623782
 31
0.0
  0
LINE
  5
4D9E6
102
{ACAD_REACTORS
330
4D956
102
}
330
4D50F
100
AcDbEntity
  8
0
 62
    83
100
AcDbLine
 10
214.1588831683168
 20
22.82458712871313
 30
0.0
 11
214.7373485148514
 21
22.82458712871313
 31
0.0
  0
LINE
  5
4D9E7
102
{ACAD_REACTORS
330
4D956
102
}
330
4D50F
100
AcDbEntity
  8
0
 62
    83
100
AcDbLine
 10
214.1588831683168
 20
23.98151782178226
 30
0.0
 11
214.1588831683168
 21
22.82458712871313
 31
0.0
  0
ARC
  5
4D9E8
102
{ACAD_REACTORS
330
4D956
102
}
330
4D50F
100
AcDbEntity
  8
0
 62
    83
100
AcDbCircle
 10
221.1992297029703
 20
23.7981019801981
 30
0.0
 40
1.481435643564357
100
AcDbArc
 50
180.0
 51
270.0
  0
ARC
  5
4D9E9
102
{ACAD_REACTORS
330
4D956
102
}
330
4D50F
100
AcDbEntity
  8
0
 62
    83
100
AcDbCircle
 10
221.2697742574257
 20
23.69933960396035
 30
0.0
 40
0.8183168316831687
100
AcDbArc
 50
180.0
 51
0.0
  0
LINE
  5
4D9EA
102
{ACAD_REACTORS
330
4D956
102
}
330
4D50F
100
AcDbEntity
  8
0
 62
    83
100
AcDbLine
 10
219.7177940594059
 20
25.98498316831709
 30
0.0
 11
220.4514574257425
 21
25.98498316831709
 31
0.0
  0
LINE
  5
4D9EB
102
{ACAD_REACTORS
330
4D956
102
}
330
4D50F
100
AcDbEntity
  8
0
 62
    83
100
AcDbLine
 10
221.1992297029703
 20
22.31666633663386
 30
0.0
 11
221.3403188118812
 21
22.31666633663386
 31
0.0
  0
LINE
  5
4D9EC
102
{ACAD_REACTORS
330
4D956
102
}
330
4D50F
100
AcDbEntity
  8
0
 62
    83
100
AcDbLine
 10
219.7177940594059
 20
25.98498316831709
 30
0.0
 11
219.7177940594059
 21
23.7981019801981
 31
0.0
  0
LINE
  5
4D9ED
102
{ACAD_REACTORS
330
4D956
102
}
330
4D50F
100
AcDbEntity
  8
0
 62
    83
100
AcDbLine
 10
222.0880910891088
 20
25.98498316831709
 30
0.0
 11
222.0880910891088
 21
23.69933960396035
 31
0.0
  0
LINE
  5
4D9EE
102
{ACAD_REACTORS
330
4D956
102
}
330
4D50F
100
AcDbEntity
  8
0
 62
    83
100
AcDbLine
 10
220.4514574257425
 20
25.98498316831709
 30
0.0
 11
220.4514574257425
 21
23.69933960396035
 31
0.0
  0
LINE
  5
4D9EF
102
{ACAD_REACTORS
330
4D956
102
}
330
4D50F
100
AcDbEntity
  8
0
 62
    83
100
AcDbLine
 10
217.7707643564356
 20
25.00112150553296
 30
0.0
 11
218.6944963308095
 21
23.40117101048351
 31
0.0
  0
HATCH
  5
4D9F0
330
4D50F
100
AcDbEntity
  8
0
 62
     0
100
AcDbHatch
 10
0.0
 20
0.0
 30
0.0
210
0.0
220
0.0
230
1.0
  2
SOLID
 70
     1
 71
     1
 91
        4
 92
        7
 72
     0
 73
     1
 93
        4
 10
225.626012097777
 20
16.12412506081215
 10
225.4001649515919
 20
16.12412506081215
 10
225.4001649515919
 20
13.53735916098692
 10
225.626012097777
 20
13.53735916098692
 97
        4
330
4DA01
330
4D9FC
330
4DA00
330
4D9FD
 92
        7
 72
     1
 73
     1
 93
        2
 10
226.1408147186274
 20
14.83074211089973
 42
1.0
 10
228.7275806184527
 20
14.83074211089973
 42
1.0
 97
        1
330
4D9F1
 92
       22
 72
     1
 73
     1
 93
        2
 10
228.5017334722675
 20
14.83074211089973
 42
-1.000000127167677
 10
226.3666618648126
 20
14.83074211089973
 42
-1.000000127167677
 97
        1
330
4D9F2
 92
        7
 72
     0
 73
     1
 93
        8
 10
229.2785510174043
 20
13.53735916098692
 10
229.5043989935255
 20
13.53735916098692
 10
229.5043989935255
 20
15.57938333105119
 10
231.2173510756454
 20
13.53735916098695
 10
231.2173510756455
 20
16.12412506081215
 10
230.9915030995243
 20
16.12412506081215
 10
230.9915030995243
 20
14.0821008907483
 10
229.2785510174043
 20
16.12412506081215
 97
        8
330
4DA08
330
4DA04
330
4DA0A
330
4DA06
330
4DA07
330
4DA05
330
4DA09
330
4DA03
 75
     0
 76
     1
 47
0.0094553770012842
 98
        4
 10
225.5430116901033
 20
15.18251543079575
 10
226.3130678714966
 20
15.15897329868784
 10
226.3130678714966
 20
15.15897329868784
 10
229.3854354534623
 20
15.14327870694044
  0
CIRCLE
  5
4D9F1
102
{ACAD_REACTORS
330
4D9F0
102
}
330
4D50F
100
AcDbEntity
  8
0
 62
     0
100
AcDbCircle
 10
227.43419766854
 20
14.83074211089973
 30
0.0
 40
1.293382949912639
  0
CIRCLE
  5
4D9F2
102
{ACAD_REACTORS
330
4D9F0
102
}
330
4D50F
100
AcDbEntity
  8
0
 62
     0
100
AcDbCircle
 10
227.43419766854
 20
14.83074211089973
 30
0.0
 40
1.067535803727432
  0
HATCH
  5
4D9F3
330
4D50F
100
AcDbEntity
  8
0
 62
     0
100
AcDbHatch
 10
0.0
 20
0.0
 30
0.0
210
0.0
220
0.0
230
1.0
  2
SOLID
 70
     1
 71
     1
 91
        1
 92
        7
 72
     0
 73
     1
 93
        8
 10
223.371153347049
 20
16.10296667409115
 10
223.371153347049
 20
15.87711952790606
 10
224.0378906796058
 20
15.87711952790607
 10
224.0378906796058
 20
13.51620741375338
 10
224.263738655727
 20
13.51620741375338
 10
224.263738655727
 20
15.87711952790607
 10
224.9304759882837
 20
15.87711952790607
 10
224.9304759882837
 20
16.10296667409115
 97
        8
330
4D9F5
330
4D9FA
330
4D9F8
330
4D9F6
330
4D9FF
330
4D9F7
330
4D9F9
330
4D9FB
 75
     0
 76
     1
 47
0.0094553770012842
 98
        1
 10
224.1608215889343
 20
15.99071380420533
  0
LINE
  5
4D9F4
102
{ACAD_REACTORS
330
4D9C2
102
}
330
4D50F
100
AcDbEntity
  8
0
 62
     0
100
AcDbLine
 10
223.1164161309745
 20
13.53735916098692
 30
0.0
 11
222.789027983042
 21
14.32812626931532
 31
0.0
  0
LINE
  5
4D9F5
102
{ACAD_REACTORS
330
4D9F3
102
}
330
4D50F
100
AcDbEntity
  8
0
 62
     0
100
AcDbLine
 10
224.9304759882837
 20
16.10296667409115
 30
0.0
 11
223.371153347049
 21
16.10296667409115
 31
0.0
  0
LINE
  5
4D9F6
102
{ACAD_REACTORS
330
4D9F3
102
}
330
4D50F
100
AcDbEntity
  8
0
 62
     0
100
AcDbLine
 10
224.0378906796058
 20
15.87711952790607
 30
0.0
 11
224.0378906796058
 21
13.51620741375338
 31
0.0
  0
LINE
  5
4D9F7
102
{ACAD_REACTORS
330
4D9F3
102
}
330
4D50F
100
AcDbEntity
  8
0
 62
     0
100
AcDbLine
 10
224.263738655727
 20
15.87711952790607
 30
0.0
 11
224.263738655727
 21
13.51620741375338
 31
0.0
  0
LINE
  5
4D9F8
102
{ACAD_REACTORS
330
4D9F3
102
}
330
4D50F
100
AcDbEntity
  8
0
 62
     0
100
AcDbLine
 10
223.371153347049
 20
15.87711952790607
 30
0.0
 11
224.0378906796058
 21
15.87711952790607
 31
0.0
  0
LINE
  5
4D9F9
102
{ACAD_REACTORS
330
4D9F3
102
}
330
4D50F
100
AcDbEntity
  8
0
 62
     0
100
AcDbLine
 10
224.263738655727
 20
15.87711952790607
 30
0.0
 11
224.9304759882837
 21
15.87711952790607
 31
0.0
  0
LINE
  5
4D9FA
102
{ACAD_REACTORS
330
4D9F3
102
}
330
4D50F
100
AcDbEntity
  8
0
 62
     0
100
AcDbLine
 10
223.371153347049
 20
15.87711952790607
 30
0.0
 11
223.371153347049
 21
16.10296667409115
 31
0.0
  0
LINE
  5
4D9FB
102
{ACAD_REACTORS
330
4D9F3
102
}
330
4D50F
100
AcDbEntity
  8
0
 62
     0
100
AcDbLine
 10
224.9304759882837
 20
15.87711952790607
 30
0.0
 11
224.9304759882837
 21
16.10296667409115
 31
0.0
  0
LINE
  5
4D9FC
102
{ACAD_REACTORS
330
4D9F0
102
}
330
4D50F
100
AcDbEntity
  8
0
 62
     0
100
AcDbLine
 10
225.4001649515919
 20
16.12412506081215
 30
0.0
 11
225.4001649515919
 21
13.53735916098692
 31
0.0
  0
LINE
  5
4D9FD
102
{ACAD_REACTORS
330
4D9F0
102
}
330
4D50F
100
AcDbEntity
  8
0
 62
     0
100
AcDbLine
 10
225.626012097777
 20
16.12412506081215
 30
0.0
 11
225.626012097777
 21
13.53735916098692
 31
0.0
  0
LINE
  5
4D9FE
102
{ACAD_REACTORS
330
4D9C2
102
}
330
4D50F
100
AcDbEntity
  8
0
 62
     0
100
AcDbLine
 10
223.1164161309745
 20
13.53735916098692
 30
0.0
 11
223.3608546720345
 21
13.53735916098692
 31
0.0
  0
LINE
  5
4D9FF
102
{ACAD_REACTORS
330
4D9F3
102
}
330
4D50F
100
AcDbEntity
  8
0
 62
     0
100
AcDbLine
 10
224.0378906796058
 20
13.51620741375338
 30
0.0
 11
224.263738655727
 21
13.51620741375338
 31
0.0
  0
LINE
  5
4DA00
102
{ACAD_REACTORS
330
4D9F0
102
}
330
4D50F
100
AcDbEntity
  8
0
 62
     0
100
AcDbLine
 10
225.4001649515919
 20
13.53735916098692
 30
0.0
 11
225.626012097777
 21
13.53735916098692
 31
0.0
  0
LINE
  5
4DA01
102
{ACAD_REACTORS
330
4D9F0
102
}
330
4D50F
100
AcDbEntity
  8
0
 62
     0
100
AcDbLine
 10
225.4001649515919
 20
16.12412506081215
 30
0.0
 11
225.626012097777
 21
16.12412506081215
 31
0.0
  0
LINE
  5
4DA02
330
4D50F
100
AcDbEntity
  8
0
 62
     0
100
AcDbLine
 10
224.9304759882837
 20
16.10755455993867
 30
0.0
 11
223.371153347049
 21
16.10755455993867
 31
0.0
  0
LINE
  5
4DA03
102
{ACAD_REACTORS
330
4D9F0
102
}
330
4D50F
100
AcDbEntity
  8
0
 62
     0
100
AcDbLine
 10
229.5043989935255
 20
13.53735916098692
 30
0.0
 11
229.5043989935255
 21
15.57938333105119
 31
0.0
  0
LINE
  5
4DA04
102
{ACAD_REACTORS
330
4D9F0
102
}
330
4D50F
100
AcDbEntity
  8
0
 62
     0
100
AcDbLine
 10
231.2173510756454
 20
13.53735916098692
 30
0.0
 11
231.2173510756454
 21
16.12412506081215
 31
0.0
  0
LINE
  5
4DA05
102
{ACAD_REACTORS
330
4D9F0
102
}
330
4D50F
100
AcDbEntity
  8
0
 62
     0
100
AcDbLine
 10
229.2785510174043
 20
13.53735916098692
 30
0.0
 11
229.2785510174043
 21
16.12412506081215
 31
0.0
  0
LINE
  5
4DA06
102
{ACAD_REACTORS
330
4D9F0
102
}
330
4D50F
100
AcDbEntity
  8
0
 62
     0
100
AcDbLine
 10
230.9915030995243
 20
14.08210089074827
 30
0.0
 11
230.9915030995243
 21
16.12412506081215
 31
0.0
  0
LINE
  5
4DA07
102
{ACAD_REACTORS
330
4D9F0
102
}
330
4D50F
100
AcDbEntity
  8
0
 62
     0
100
AcDbLine
 10
229.2785510174043
 20
16.12412506081215
 30
0.0
 11
230.9915030995243
 21
14.08210089074827
 31
0.0
  0
LINE
  5
4DA08
102
{ACAD_REACTORS
330
4D9F0
102
}
330
4D50F
100
AcDbEntity
  8
0
 62
     0
100
AcDbLine
 10
231.2173510756454
 20
13.53735916098692
 30
0.0
 11
229.5043989935255
 21
15.57938333105119
 31
0.0
  0
LINE
  5
4DA09
102
{ACAD_REACTORS
330
4D9F0
102
}
330
4D50F
100
AcDbEntity
  8
0
 62
     0
100
AcDbLine
 10
229.2785510174043
 20
13.53735916098692
 30
0.0
 11
229.5043989935255
 21
13.53735916098692
 31
0.0
  0
LINE
  5
4DA0A
102
{ACAD_REACTORS
330
4D9F0
102
}
330
4D50F
100
AcDbEntity
  8
0
 62
     0
100
AcDbLine
 10
230.9915030995243
 20
16.12412506081215
 30
0.0
 11
231.2173510756454
 21
16.12412506081215
 31
0.0
  0
LINE
  5
4DA0B
102
{ACAD_REACTORS
330
4D956
102
}
330
4D50F
100
AcDbEntity
  8
0
 62
    83
100
AcDbLine
 10
226.6875960396039
 20
22.31666633663386
 30
0.0
 11
227.3930415841584
 21
22.31666633663386
 31
0.0
  0
LINE
  5
4DA0C
102
{ACAD_REACTORS
330
4D956
102
}
330
4D50F
100
AcDbEntity
  8
0
 62
    83
100
AcDbLine
 10
226.6875960396039
 20
25.98498316831709
 30
0.0
 11
227.3930415841584
 21
25.98498316831709
 31
0.0
  0
LINE
  5
4DA0D
102
{ACAD_REACTORS
330
4D956
102
}
330
4D50F
100
AcDbEntity
  8
0
 62
    83
100
AcDbLine
 10
222.8217544554455
 20
25.98498316831709
 30
0.0
 11
222.8217544554455
 21
23.7981019801981
 31
0.0
  0
LINE
  5
4DA0E
102
{ACAD_REACTORS
330
4D956
102
}
330
4D50F
100
AcDbEntity
  8
0
 62
    83
100
AcDbLine
 10
226.6875960396039
 20
22.31666633663386
 30
0.0
 11
226.6875960396039
 21
25.98498316831709
 31
0.0
  0
LINE
  5
4DA0F
102
{ACAD_REACTORS
330
4D956
102
}
330
4D50F
100
AcDbEntity
  8
0
 62
    83
100
AcDbLine
 10
223.9970267326732
 20
23.35084950495056
 30
0.0
 11
223.9970267326732
 21
24.95080000000002
 31
0.0
  0
LINE
  5
4DA10
102
{ACAD_REACTORS
330
4D956
102
}
330
4D50F
100
AcDbEntity
  8
0
 62
    83
100
AcDbLine
 10
225.5969772277228
 20
23.35084950495056
 30
0.0
 11
223.9970267326732
 21
23.35084950495056
 31
0.0
  0
LINE
  5
4DA11
102
{ACAD_REACTORS
330
4D956
102
}
330
4D50F
100
AcDbEntity
  8
0
 62
    83
100
AcDbLine
 10
225.5969772277228
 20
24.95080000000002
 30
0.0
 11
225.5969772277228
 21
23.35084950495056
 31
0.0
  0
LINE
  5
4DA12
102
{ACAD_REACTORS
330
4D956
102
}
330
4D50F
100
AcDbEntity
  8
0
 62
    83
100
AcDbLine
 10
223.9970267326732
 20
24.95080000000002
 30
0.0
 11
225.5969772277228
 21
24.95080000000002
 31
0.0
  0
LINE
  5
4DA13
102
{ACAD_REACTORS
330
4D956
102
}
330
4D50F
100
AcDbEntity
  8
0
 62
    83
100
AcDbLine
 10
228.5348608037274
 20
25.98498316831709
 30
0.0
 11
227.3930415841584
 21
24.47750579499154
 31
0.0
  0
LINE
  5
4DA14
102
{ACAD_REACTORS
330
4D956
102
}
330
4D50F
100
AcDbEntity
  8
0
 62
    83
100
AcDbLine
 10
228.6628435643564
 20
22.31666633663386
 30
0.0
 11
229.4529425742574
 21
22.31666633663386
 31
0.0
  0
LINE
  5
4DA15
102
{ACAD_REACTORS
330
4D956
102
}
330
4D50F
100
AcDbEntity
  8
0
 62
    83
100
AcDbLine
 10
228.5348608037274
 20
25.98498316831709
 30
0.0
 11
229.2554178217821
 21
25.98498316831709
 31
0.0
  0
LINE
  5
4DA16
102
{ACAD_REACTORS
330
4D956
102
}
330
4D50F
100
AcDbEntity
  8
0
 62
    83
100
AcDbLine
 10
227.3930415841584
 20
24.47750579499154
 30
0.0
 11
227.3930415841584
 21
25.98498316831709
 31
0.0
  0
LINE
  5
4DA17
102
{ACAD_REACTORS
330
4D956
102
}
330
4D50F
100
AcDbEntity
  8
0
 62
    83
100
AcDbLine
 10
227.3930415841584
 20
22.31666633663386
 30
0.0
 11
227.3930415841584
 21
24.15082475247547
 31
0.0
  0
LINE
  5
4DA18
102
{ACAD_REACTORS
330
4D956
102
}
330
4D50F
100
AcDbEntity
  8
0
 62
    83
100
AcDbLine
 10
229.2554178217821
 20
25.98498316831709
 30
0.0
 11
228.0545528101339
 21
24.35977938264443
 31
0.0
  0
LINE
  5
4DA19
102
{ACAD_REACTORS
330
4D956
102
}
330
4D50F
100
AcDbEntity
  8
0
 62
    83
100
AcDbLine
 10
229.4529425742574
 20
22.31666633663386
 30
0.0
 11
228.0545528101339
 21
24.35977938264443
 31
0.0
  0
LINE
  5
4DA1A
102
{ACAD_REACTORS
330
4D956
102
}
330
4D50F
100
AcDbEntity
  8
0
 62
    83
100
AcDbLine
 10
227.3930415841584
 20
24.15082475247547
 30
0.0
 11
228.6628435643564
 21
22.31666633663386
 31
0.0
  0
CIRCLE
  5
4DA1B
102
{ACAD_REACTORS
330
4D956
102
}
330
4D50F
100
AcDbEntity
  8
0
 62
    83
100
AcDbCircle
 10
230.9202693069307
 20
24.15082475247547
 30
0.0
 40
0.8399740099009905
  0
LINE
  5
4DA1C
102
{ACAD_REACTORS
330
4D956
102
}
330
4D50F
100
AcDbEntity
  8
0
 62
    83
100
AcDbLine
 10
233.4880910891088
 20
22.31666633663386
 30
0.0
 11
233.4880910891088
 21
25.98498316831709
 31
0.0
  0
LINE
  5
4DA1D
102
{ACAD_REACTORS
330
4D956
102
}
330
4D50F
100
AcDbEntity
  8
0
 62
    83
100
AcDbLine
 10
234.1653188118811
 20
22.31666633663386
 30
0.0
 11
233.4880910891088
 21
22.31666633663386
 31
0.0
  0
LINE
  5
4DA1E
102
{ACAD_REACTORS
330
4D956
102
}
330
4D50F
100
AcDbEntity
  8
0
 62
    83
100
AcDbLine
 10
234.1653188118811
 20
25.98498316831709
 30
0.0
 11
234.1653188118811
 21
22.31666633663386
 31
0.0
  0
LINE
  5
4DA1F
102
{ACAD_REACTORS
330
4D956
102
}
330
4D50F
100
AcDbEntity
  8
0
 62
    83
100
AcDbLine
 10
233.4880910891088
 20
25.98498316831709
 30
0.0
 11
234.1653188118811
 21
25.98498316831709
 31
0.0
  0
ATTDEF
  5
4DA20
330
4D50F
100
AcDbEntity
  8
0
 62
    83
100
AcDbText
 10
358.533879707976
 20
10.96670330022678
 30
0.0
 40
3.0
  1
.
  7
BIGFONT
 72
     1
 11
358.6767368508332
 21
10.56670330022678
 31
0.0
100
AcDbAttributeDefinition
  3
図番
  2
DWGNO
 70
     0
 74
     1
  0
ATTDEF
  5
4DA21
330
4D50F
100
AcDbEntity
  8
0
 62
    83
100
AcDbText
 10
281.6624924016095
 20
26.12885909990166
 30
0.0
 40
4.0
  1
-
  7
BIGFONT
 72
     1
 11
283.3767781158953
 21
25.59552576656833
 31
0.0
100
AcDbAttributeDefinition
  3
表題 １
  2
PROJECT1
 70
     0
 74
     1
  0
ATTDEF
  5
4DA22
330
4D50F
100
AcDbEntity
  8
0
 62
    83
100
AcDbText
 10
282.4874511365476
 20
18.3750366335602
 30
0.0
 40
4.0
  1
-
  7
BIGFONT
 72
     1
 11
284.2017368508333
 21
17.84170330022687
 31
0.0
100
AcDbAttributeDefinition
  3
表題 ２
  2
PROJECT2
 70
     0
 74
     1
  0
ATTDEF
  5
4DA23
330
4D50F
100
AcDbEntity
  8
0
 62
    83
100
AcDbText
 10
282.4874511365476
 20
11.10003663356011
 30
0.0
 40
4.0
  1
-
  7
BIGFONT
 72
     1
 11
284.2017368508333
 21
10.56670330022678
 31
0.0
100
AcDbAttributeDefinition
  3
表題 ３
  2
PROJECT3
 70
     0
 74
     1
  0
ATTDEF
  5
4DA24
330
4D50F
100
AcDbEntity
  8
0
 62
    83
100
AcDbText
 10
331.7481654222618
 20
26.24170330022686
 30
0.0
 40
3.0
  1
1998/01/01
  7
BIGFONT
 72
     1
 11
344.6767368508332
 21
25.84170330022686
 31
0.0
100
AcDbAttributeDefinition
  3
日付
  2
DATE
 70
     0
 74
     1
  0
ATTDEF
  5
4DA25
330
4D50F
100
AcDbEntity
  8
0
 62
    83
100
AcDbText
 10
334.033879707976
 20
18.24170330022687
 30
0.0
 40
3.0
  1
.
  7
BIGFONT
 72
     1
 11
334.1767368508332
 21
17.84170330022687
 31
0.0
100
AcDbAttributeDefinition
  3
作成者
  2
DRAWN
 70
     0
 74
     1
  0
ATTDEF
  5
4DA26
330
4D50F
100
AcDbEntity
  8
0
 62
    83
100
AcDbText
 10
355.033879707976
 20
18.24170330022687
 30
0.0
 40
3.0
  1
.
  7
BIGFONT
 72
     1
 11
355.1767368508332
 21
17.84170330022687
 31
0.0
100
AcDbAttributeDefinition
  3
検図者
  2
CHECKED
 70
     8
 74
     1
  0
ATTDEF
  5
4DA27
330
4D50F
100
AcDbEntity
  8
0
 62
    83
100
AcDbText
 10
379.533879707976
 20
18.24170330022687
 30
0.0
 40
3.0
  1
.
  7
BIGFONT
 72
     1
 11
379.6767368508332
 21
17.84170330022687
 31
0.0
100
AcDbAttributeDefinition
  3
承認
  2
APPROVED
 70
     8
 74
     1
  0
ATTDEF
  5
4DA28
330
4D50F
100
AcDbEntity
  8
0
 62
    83
100
AcDbText
 10
376.6053082794047
 20
26.24170330022687
 30
0.0
 40
3.0
  1
1/1
  7
BIGFONT
 72
     1
 11
379.6767368508332
 21
25.84170330022687
 31
0.0
100
AcDbAttributeDefinition
  3
縮尺
  2
SCALE
 70
     0
 74
     1
  0
LWPOLYLINE
  5
4DA29
330
4D50F
100
AcDbEntity
  8
0
100
AcDbPolyline
 90
        3
 70
     1
 43
0.0
 10
23.91470288034736
 20
13.97268728129055
 10
22.04408800817297
 20
10.73268728129055
 10
25.78531775252175
 20
10.73268728129055
  0
TEXT
  5
4DA2A
330
4D50F
100
AcDbEntity
  8
0
100
AcDbText
 10
23.22898859463308
 20
10.91268728129055
 30
0.0
 40
1.8
  1
A
  7
BIGFONT
 72
     4
 11
23.91470288034736
 21
11.81268728129055
 31
0.0
100
AcDbText
  0
LWPOLYLINE
  5
4DA2B
330
4D50F
100
AcDbEntity
  8
0
100
AcDbPolyline
 90
        3
 70
     1
 43
0.0
 10
23.91470288034736
 20
19.97268728129055
 10
22.04408800817297
 20
16.73268728129055
 10
25.78531775252175
 20
16.73268728129055
  0
TEXT
  5
4DA2C
330
4D50F
100
AcDbEntity
  8
0
100
AcDbText
 10
23.31470288034736
 20
16.91268728129055
 30
0.0
 40
1.8
  1
B
  7
BIGFONT
 72
     4
 11
23.91470288034736
 21
17.81268728129055
 31
0.0
100
AcDbText
  0
LWPOLYLINE
  5
4DA2D
330
4D50F
100
AcDbEntity
  8
0
100
AcDbPolyline
 90
        3
 70
     1
 43
0.0
 10
23.91470288034736
 20
25.97268728129055
 10
22.04408800817297
 20
22.73268728129055
 10
25.78531775252175
 20
22.73268728129055
  0
TEXT
  5
4DA2E
330
4D50F
100
AcDbEntity
  8
0
100
AcDbText
 10
23.27184573749022
 20
22.91268728129055
 30
0.0
 40
1.8
  1
C
  7
BIGFONT
 72
     4
 11
23.91470288034736
 21
23.81268728129055
 31
0.0
100
AcDbText
  0
LWPOLYLINE
  5
4DA2F
330
4D50F
100
AcDbEntity
  8
0
100
AcDbPolyline
 90
        3
 70
     1
 43
0.0
 10
23.91470288034736
 20
31.44768728129046
 10
22.04408800817297
 20
28.20768728129046
 10
25.78531775252175
 20
28.20768728129046
  0
TEXT
  5
4DA30
330
4D50F
100
AcDbEntity
  8
0
100
AcDbText
 10
23.31470288034736
 20
28.38768728129046
 30
0.0
 40
1.8
  1
D
  7
BIGFONT
 72
     4
 11
23.91470288034736
 21
29.28768728129046
 31
0.0
100
AcDbText
  0
ATTDEF
  5
4DA31
330
4D50F
100
AcDbEntity
  8
0
 62
    83
 48
0.5
100
AcDbText
 10
26.47495122985561
 20
10.59212324367185
 30
0.0
 40
2.0
  1

  7
BIGFONT
 11
26.47495122985561
 21
10.32545657700518
 31
0.0
100
AcDbAttributeDefinition
  3
改定内容 1
  2
REV01
 70
     8
 74
     1
  0
ATTDEF
  5
4DA32
330
4D50F
100
AcDbEntity
  8
0
 62
    83
 48
0.5
100
AcDbText
 10
80.97889358425684
 20
10.59212324367185
 30
0.0
 40
2.0
  1

  7
BIGFONT
 72
     1
 11
80.97889358425684
 21
10.32545657700518
 31
0.0
100
AcDbAttributeDefinition
  3
改訂日付1
  2
REVD1
 70
     8
 74
     1
  0
ATTDEF
  5
4DA33
330
4D50F
100
AcDbEntity
  8
0
 62
    83
 48
0.5
100
AcDbText
 10
92.67184913363053
 20
10.59212324367185
 30
0.0
 40
2.0
  1

  7
BIGFONT
 72
     1
 11
92.67184913363053
 21
10.32545657700518
 31
0.0
100
AcDbAttributeDefinition
  3
改定者 1
  2
R1D
 70
     8
 74
     1
  0
ATTDEF
  5
4DA34
330
4D50F
100
AcDbEntity
  8
0
 62
    83
 48
0.5
100
AcDbText
 10
101.7968241336305
 20
10.59212324367185
 30
0.0
 40
2.0
  1

  7
BIGFONT
 72
     1
 11
101.7968241336305
 21
10.32545657700518
 31
0.0
100
AcDbAttributeDefinition
  3
改定検図 1
  2
R1C
 70
     8
 74
     1
  0
ATTDEF
  5
4DA35
330
4D50F
100
AcDbEntity
  8
0
 62
    83
 48
0.5
100
AcDbText
 10
110.9218241336305
 20
10.59212324367185
 30
0.0
 40
2.0
  1

  7
BIGFONT
 72
     1
 11
110.9218241336305
 21
10.32545657700518
 31
0.0
100
AcDbAttributeDefinition
  3
改定承認 1
  2
R1A
 70
     8
 74
     1
  0
ATTDEF
  5
4DA36
330
4D50F
100
AcDbEntity
  8
0
 62
    83
 48
0.5
100
AcDbText
 10
26.47495122985561
 20
15.84212324367185
 30
0.0
 40
2.0
  1

  7
BIGFONT
 11
26.47495122985561
 21
15.57545657700518
 31
0.0
100
AcDbAttributeDefinition
  3
改定内容 2
  2
REV02
 70
     8
 74
     1
  0
ATTDEF
  5
4DA37
330
4D50F
100
AcDbEntity
  8
0
 62
    83
 48
0.5
100
AcDbText
 10
80.97889358425684
 20
15.84212324367185
 30
0.0
 40
2.0
  1

  7
BIGFONT
 72
     1
 11
80.97889358425684
 21
15.57545657700518
 31
0.0
100
AcDbAttributeDefinition
  3
改訂日付2
  2
REVD2
 70
     8
 74
     1
  0
ATTDEF
  5
4DA38
330
4D50F
100
AcDbEntity
  8
0
 62
    83
 48
0.5
100
AcDbText
 10
92.67184913363053
 20
15.84212324367185
 30
0.0
 40
2.0
  1

  7
BIGFONT
 72
     1
 11
92.67184913363053
 21
15.57545657700518
 31
0.0
100
AcDbAttributeDefinition
  3
改定者 2
  2
R2D
 70
     8
 74
     1
  0
ATTDEF
  5
4DA39
330
4D50F
100
AcDbEntity
  8
0
 62
    83
 48
0.5
100
AcDbText
 10
101.7968241336305
 20
15.84212324367185
 30
0.0
 40
2.0
  1

  7
BIGFONT
 72
     1
 11
101.7968241336305
 21
15.57545657700518
 31
0.0
100
AcDbAttributeDefinition
  3
改定検図 2
  2
R2C
 70
     8
 74
     1
  0
ATTDEF
  5
4DA3A
330
4D50F
100
AcDbEntity
  8
0
 62
    83
 48
0.5
100
AcDbText
 10
110.9218241336305
 20
15.84212324367185
 30
0.0
 40
2.0
  1

  7
BIGFONT
 72
     1
 11
110.9218241336305
 21
15.57545657700518
 31
0.0
100
AcDbAttributeDefinition
  3
改定承認 2
  2
R2A
 70
     8
 74
     1
  0
ATTDEF
  5
4DA3B
330
4D50F
100
AcDbEntity
  8
0
 62
    83
 48
0.5
100
AcDbText
 10
26.47495122985561
 20
21.97120919868645
 30
0.0
 40
2.0
  1

  7
BIGFONT
 11
26.47495122985561
 21
21.70454253201979
 31
0.0
100
AcDbAttributeDefinition
  3
改定内容 3
  2
REV03
 70
     8
 74
     1
  0
ATTDEF
  5
4DA3C
330
4D50F
100
AcDbEntity
  8
0
 62
    83
 48
0.5
100
AcDbText
 10
80.97889358425684
 20
21.97120919868645
 30
0.0
 40
2.0
  1

  7
BIGFONT
 72
     1
 11
80.97889358425684
 21
21.70454253201979
 31
0.0
100
AcDbAttributeDefinition
  3
改訂日付3
  2
REVD3
 70
     8
 74
     1
  0
ATTDEF
  5
4DA3D
330
4D50F
100
AcDbEntity
  8
0
 62
    83
 48
0.5
100
AcDbText
 10
92.67184913363053
 20
21.97120919868645
 30
0.0
 40
2.0
  1

  7
BIGFONT
 72
     1
 11
92.67184913363053
 21
21.70454253201979
 31
0.0
100
AcDbAttributeDefinition
  3
改定者 3
  2
R3D
 70
     8
 74
     1
  0
ATTDEF
  5
4DA3E
330
4D50F
100
AcDbEntity
  8
0
 62
    83
 48
0.5
100
AcDbText
 10
101.7968241336305
 20
21.97120919868645
 30
0.0
 40
2.0
  1

  7
BIGFONT
 72
     1
 11
101.7968241336305
 21
21.70454253201979
 31
0.0
100
AcDbAttributeDefinition
  3
改定検図 3
  2
R3C
 70
     8
 74
     1
  0
ATTDEF
  5
4DA3F
330
4D50F
100
AcDbEntity
  8
0
 62
    83
 48
0.5
100
AcDbText
 10
110.9218241336305
 20
21.97120919868645
 30
0.0
 40
2.0
  1

  7
BIGFONT
 72
     1
 11
110.9218241336305
 21
21.70454253201979
 31
0.0
100
AcDbAttributeDefinition
  3
改定承認 3
  2
R3A
 70
     8
 74
     1
  0
ATTDEF
  5
4DA40
330
4D50F
100
AcDbEntity
  8
0
 62
    83
 48
0.5
100
AcDbText
 10
26.47495122985561
 20
27.88052406770488
 30
0.0
 40
2.0
  1

  7
BIGFONT
 11
26.47495122985561
 21
27.61385740103822
 31
0.0
100
AcDbAttributeDefinition
  3
改定内容 4
  2
REV04
 70
     8
 74
     1
  0
ATTDEF
  5
4DA41
330
4D50F
100
AcDbEntity
  8
0
 62
    83
 48
0.5
100
AcDbText
 10
80.97889358425684
 20
27.88052406770488
 30
0.0
 40
2.0
  1

  7
BIGFONT
 72
     1
 11
80.97889358425684
 21
27.61385740103822
 31
0.0
100
AcDbAttributeDefinition
  3
改訂日付4
  2
REVD4
 70
     8
 74
     1
  0
ATTDEF
  5
4DA42
330
4D50F
100
AcDbEntity
  8
0
 62
    83
 48
0.5
100
AcDbText
 10
92.67184913363053
 20
27.88052406770488
 30
0.0
 40
2.0
  1

  7
BIGFONT
 72
     1
 11
92.67184913363053
 21
27.61385740103822
 31
0.0
100
AcDbAttributeDefinition
  3
改定者 4
  2
R4D
 70
     8
 74
     1
  0
ATTDEF
  5
4DA43
330
4D50F
100
AcDbEntity
  8
0
 62
    83
 48
0.5
100
AcDbText
 10
101.7968241336305
 20
27.88052406770488
 30
0.0
 40
2.0
  1

  7
BIGFONT
 72
     1
 11
101.7968241336305
 21
27.61385740103822
 31
0.0
100
AcDbAttributeDefinition
  3
改定検図 4
  2
R4C
 70
     8
 74
     1
  0
ATTDEF
  5
4DA44
330
4D50F
100
AcDbEntity
  8
0
 62
    83
 48
0.5
100
AcDbText
 10
110.9218241336305
 20
27.88052406770488
 30
0.0
 40
2.0
  1

  7
BIGFONT
 72
     1
 11
110.9218241336305
 21
27.61385740103822
 31
0.0
100
AcDbAttributeDefinition
  3
改定承認 4
  2
R4A
 70
     8
 74
     1
  0
TEXT
  5
4DA45
330
4D50F
100
AcDbEntity
  8
0
 62
     0
100
AcDbText
 10
391.1356686741034
 20
10.23410826057125
 30
0.0
 40
2.8
  1
3
  7
BIGFONT
100
AcDbText
  0
ENDBLK
  5
4DA47
330
4D50F
100
AcDbEntity
  8
0
100
AcDbBlockEnd
  0
BLOCK
  5
4DA7F
330
4DA75
100
AcDbEntity
  8
0
100
AcDbBlockBegin
  2
*D7
 70
     1
 10
0.0
 20
0.0
 30
0.0
  3
*D7
  1

  0
LINE
  5
4DB0F
330
4DA75
100
AcDbEntity
  8
P_2DIM
 62
     0
370
    -2
100
AcDbLine
 10
1877.446326216868
 20
3713.610830011578
 30
0.0
 11
1457.195715059398
 21
3713.610830011578
 31
0.0
  0
LINE
  5
4DB10
330
4DA75
100
AcDbEntity
  8
P_2DIM
 62
     0
370
    -2
100
AcDbLine
 10
1853.901836788891
 20
1359.610830011577
 30
0.0
 11
1457.195715059397
 21
1359.610830011577
 31
0.0
  0
LINE
  5
4DB11
330
4DA75
100
AcDbEntity
  8
P_2DIM
 62
     0
370
    -2
100
AcDbLine
 10
1479.695715059398
 20
3695.610830011578
 30
0.0
 11
1479.695715059397
 21
1377.610830011577
 31
0.0
  0
SOLID
  5
4DB12
330
4DA75
100
AcDbEntity
  8
P_2DIM
 62
     0
100
AcDbTrace
 10
1476.695715059398
 20
3695.610830011578
 30
0.0
 11
1482.695715059398
 21
3695.610830011578
 31
0.0
 12
1479.695715059398
 22
3713.610830011578
 32
0.0
 13
1479.695715059398
 23
3713.610830011578
 33
0.0
  0
SOLID
  5
4DB13
330
4DA75
100
AcDbEntity
  8
P_2DIM
 62
     0
100
AcDbTrace
 10
1476.695715059397
 20
1377.610830011577
 30
0.0
 11
1482.695715059397
 21
1377.610830011577
 31
0.0
 12
1479.695715059397
 22
1359.610830011577
 32
0.0
 13
1479.695715059397
 23
1359.610830011577
 33
0.0
  0
MTEXT
  5
4DB14
330
4DA75
100
AcDbEntity
  8
P_2DIM
 62
   230
100
AcDbMText
 10
1434.160000773683
 20
2536.610830011578
 30
0.0
 40
45.0
 41
0.0
 71
     5
 72
     1
  1
\A1;(2354)
  7
BIGFONT
 11
6.123031769111886E-17
 21
1.0
 31
0.0
 73
     1
 44
1.0
  0
POINT
  5
4DB15
330
4DA75
100
AcDbEntity
  8
DEFPOINTS
 62
     0
100
AcDbPoint
 10
1922.446326216868
 20
3713.610830011578
 30
0.0
  0
POINT
  5
4DB16
330
4DA75
100
AcDbEntity
  8
DEFPOINTS
 62
     0
100
AcDbPoint
 10
1898.901836788891
 20
1359.610830011577
 30
0.0
  0
POINT
  5
4DB17
330
4DA75
100
AcDbEntity
  8
DEFPOINTS
 62
     0
100
AcDbPoint
 10
1479.695715059397
 20
1359.610830011577
 30
0.0
  0
ENDBLK
  5
4DA80
330
4DA75
100
AcDbEntity
  8
0
100
AcDbBlockEnd
  0
BLOCK
  5
4DA8C
330
4DA82
100
AcDbEntity
  8
0
100
AcDbBlockBegin
  2
*D8
 70
     1
 10
0.0
 20
0.0
 30
0.0
  3
*D8
  1

  0
LINE
  5
4DB2A
330
4DA82
100
AcDbEntity
  8
P_2DIM
 62
     0
370
    -2
100
AcDbLine
 10
1952.957954359908
 20
1308.687083773897
 30
0.0
 11
1952.957954359908
 21
903.8232149840514
 31
0.0
  0
LINE
  5
4DB2B
330
4DA82
100
AcDbEntity
  8
P_2DIM
 62
     0
370
    -2
100
AcDbLine
 10
4302.957954359908
 20
1313.114616504521
 30
0.0
 11
4302.957954359908
 21
903.8232149840514
 31
0.0
  0
LINE
  5
4DB2C
330
4DA82
100
AcDbEntity
  8
P_2DIM
 62
     0
370
    -2
100
AcDbLine
 10
1970.957954359908
 20
926.3232149840514
 30
0.0
 11
4284.957954359908
 21
926.3232149840514
 31
0.0
  0
SOLID
  5
4DB2D
330
4DA82
100
AcDbEntity
  8
P_2DIM
 62
     0
100
AcDbTrace
 10
1970.957954359908
 20
929.3232149840514
 30
0.0
 11
1970.957954359908
 21
923.3232149840514
 31
0.0
 12
1952.957954359908
 22
926.3232149840514
 32
0.0
 13
1952.957954359908
 23
926.3232149840514
 33
0.0
  0
SOLID
  5
4DB2E
330
4DA82
100
AcDbEntity
  8
P_2DIM
 62
     0
100
AcDbTrace
 10
4284.957954359908
 20
929.3232149840514
 30
0.0
 11
4284.957954359908
 21
923.3232149840514
 31
0.0
 12
4302.957954359908
 22
926.3232149840514
 32
0.0
 13
4302.957954359908
 23
926.3232149840514
 33
0.0
  0
MTEXT
  5
4DB2F
330
4DA82
100
AcDbEntity
  8
P_2DIM
 62
   230
100
AcDbMText
 10
3127.957954359908
 20
971.8589292697658
 30
0.0
 40
45.0
 41
0.0
 71
     5
 72
     1
  1
\A1;(2350)
  7
BIGFONT
 73
     1
 44
1.0
  0
POINT
  5
4DB30
330
4DA82
100
AcDbEntity
  8
DEFPOINTS
 62
     0
100
AcDbPoint
 10
1952.957954359908
 20
1353.687083773897
 30
0.0
  0
POINT
  5
4DB31
330
4DA82
100
AcDbEntity
  8
DEFPOINTS
 62
     0
100
AcDbPoint
 10
4302.957954359908
 20
1358.114616504521
 30
0.0
  0
POINT
  5
4DB32
330
4DA82
100
AcDbEntity
  8
DEFPOINTS
 62
     0
100
AcDbPoint
 10
4302.957954359908
 20
926.3232149840514
 30
0.0
  0
ENDBLK
  5
4DA8D
330
4DA82
100
AcDbEntity
  8
0
100
AcDbBlockEnd
  0
BLOCK
  5
4DA99
330
4DA8F
100
AcDbEntity
  8
0
100
AcDbBlockBegin
  2
*D9
 70
     1
 10
0.0
 20
0.0
 30
0.0
  3
*D9
  1

  0
LINE
  5
4DB39
330
4DA8F
100
AcDbEntity
  8
P_2DIM
 62
     0
370
    -2
100
AcDbLine
 10
1919.724717977063
 20
2456.928334169277
 30
0.0
 11
1729.832482424979
 21
2630.292260208945
 31
0.0
  0
LINE
  5
4DB3A
330
4DA8F
100
AcDbEntity
  8
P_2DIM
 62
     0
370
    -2
100
AcDbLine
 10
3094.724717977062
 20
3743.95142986593
 30
0.0
 11
2904.832482424978
 21
3917.315355905598
 31
0.0
  0
LINE
  5
4DB3B
330
4DA8F
100
AcDbEntity
  8
P_2DIM
 62
     0
370
    -2
100
AcDbLine
 10
1758.585340558142
 20
2628.415254834906
 30
0.0
 11
2909.312860674659
 21
3888.851761425284
 31
0.0
  0
SOLID
  5
4DB3C
330
4DA8F
100
AcDbEntity
  8
P_2DIM
 62
     0
100
AcDbTrace
 10
1756.369791465953
 20
2630.437961491863
 30
0.0
 11
1760.800889650332
 21
2626.392548177949
 31
0.0
 12
1746.449100616401
 22
2615.121960281768
 32
0.0
 13
1746.449100616401
 23
2615.121960281768
 33
0.0
  0
SOLID
  5
4DB3D
330
4DA8F
100
AcDbEntity
  8
P_2DIM
 62
     0
100
AcDbTrace
 10
2907.09731158247
 20
3890.874468082241
 30
0.0
 11
2911.528409766849
 21
3886.829054768327
 31
0.0
 12
2921.4491006164
 22
3902.145055978422
 32
0.0
 13
2921.4491006164
 23
3902.145055978422
 33
0.0
  0
MTEXT
  5
4DB3E
330
4DA8F
100
AcDbEntity
  8
P_2DIM
 62
   230
100
AcDbMText
 10
2300.320230467094
 20
3289.335305601761
 30
0.0
 40
45.0
 41
0.0
 71
     5
 72
     1
  1
\A1;(1743)
  7
BIGFONT
 11
0.6742355523189528
 21
0.7385163640632189
 31
0.0
 73
     1
 44
1.0
  0
POINT
  5
4DB3F
330
4DA8F
100
AcDbEntity
  8
DEFPOINTS
 62
     0
100
AcDbPoint
 10
1952.957954359908
 20
2426.587734314924
 30
0.0
  0
POINT
  5
4DB40
330
4DA8F
100
AcDbEntity
  8
DEFPOINTS
 62
     0
100
AcDbPoint
 10
3127.957954359907
 20
3713.610830011577
 30
0.0
  0
POINT
  5
4DB41
330
4DA8F
100
AcDbEntity
  8
DEFPOINTS
 62
     0
100
AcDbPoint
 10
2921.4491006164
 20
3902.145055978422
 30
0.0
  0
ENDBLK
  5
4DA9A
330
4DA8F
100
AcDbEntity
  8
0
100
AcDbBlockEnd
  0
BLOCK
  5
4DAA6
330
4DA9C
100
AcDbEntity
  8
0
100
AcDbBlockBegin
  2
*D10
 70
     1
 10
0.0
 20
0.0
 30
0.0
  3
*D10
  1

  0
LINE
  5
4DB42
330
4DA9C
100
AcDbEntity
  8
P_2DIM
 62
     0
370
    -2
100
AcDbLine
 10
1909.989989235878
 20
2413.217843773112
 30
0.0
 11
1676.625262117801
 21
2340.604191977351
 31
0.0
  0
LINE
  5
4DB43
330
4DA9C
100
AcDbEntity
  8
P_2DIM
 62
     0
370
    -2
100
AcDbLine
 10
2241.989989235878
 20
1346.240939469764
 30
0.0
 11
2008.625262117801
 21
1273.627287674004
 31
0.0
  0
LINE
  5
4DB44
330
4DA9C
100
AcDbEntity
  8
P_2DIM
 62
     0
370
    -2
100
AcDbLine
 10
1703.457200896541
 20
2330.101951198646
 30
0.0
 11
2024.761288463091
 21
1297.499418994523
 31
0.0
  0
SOLID
  5
4DB45
330
4DA9C
100
AcDbEntity
  8
P_2DIM
 62
     0
100
AcDbTrace
 10
1706.32173190481
 20
2330.993277234767
 30
0.0
 11
1700.592669888273
 21
2329.210625162525
 31
0.0
 12
1698.109244679816
 22
2347.289137248258
 32
0.0
 13
1698.109244679816
 23
2347.289137248258
 33
0.0
  0
SOLID
  5
4DB46
330
4DA9C
100
AcDbEntity
  8
P_2DIM
 62
     0
100
AcDbTrace
 10
2027.62581947136
 20
1298.390745030644
 30
0.0
 11
2021.896757454823
 21
1296.608092958402
 31
0.0
 12
2030.109244679816
 22
1280.31223294491
 32
0.0
 13
2030.109244679816
 23
1280.31223294491
 33
0.0
  0
MTEXT
  5
4DB47
330
4DA9C
100
AcDbEntity
  8
P_2DIM
 62
   230
100
AcDbMText
 10
1907.588733198181
 20
1827.32974100199
 30
0.0
 40
45.0
 41
0.0
 71
     5
 72
     1
  1
\A1;(1117)
  7
BIGFONT
 11
0.2971086787069565
 21
-0.9548436694229095
 31
0.0
 73
     1
 44
1.0
  0
POINT
  5
4DB48
330
4DA9C
100
AcDbEntity
  8
DEFPOINTS
 62
     0
100
AcDbPoint
 10
1952.957954359909
 20
2426.587734314925
 30
0.0
  0
POINT
  5
4DB49
330
4DA9C
100
AcDbEntity
  8
DEFPOINTS
 62
     0
100
AcDbPoint
 10
2284.957954359908
 20
1359.610830011577
 30
0.0
  0
POINT
  5
4DB4A
330
4DA9C
100
AcDbEntity
  8
DEFPOINTS
 62
     0
100
AcDbPoint
 10
2030.109244679816
 20
1280.31223294491
 30
0.0
  0
ENDBLK
  5
4DAA7
330
4DA9C
100
AcDbEntity
  8
0
100
AcDbBlockEnd
  0
ENDSEC
  0
SECTION
  2
ENTITIES
  0
ARC
  5
4BB85
330
4B4D3
100
AcDbEntity
  8
P006
100
AcDbCircle
 10
4190.124630385087
 20
2401.862334155276
 30
0.0
 40
100.0
100
AcDbArc
 50
342.3251396036525
 51
42.39481455388859
  0
ARC
  5
4BB86
330
4B4D3
100
AcDbEntity
  8
P006
100
AcDbCircle
 10
3127.957954359908
 20
3565.294711622297
 30
0.0
 40
100.0
100
AcDbArc
 50
42.39481455388859
 51
137.6051854461114
  0
ARC
  5
4BB87
330
4B4D3
100
AcDbEntity
  8
P006
100
AcDbCircle
 10
2065.79127833473
 20
2401.862334155276
 30
0.0
 40
100.0
100
AcDbArc
 50
137.6051854461114
 51
197.6748603963475
  0
ARC
  5
4BB88
330
4B4D3
100
AcDbEntity
  8
P006
100
AcDbCircle
 10
2065.79127833473
 20
2401.862334155276
 30
0.0
 40
100.0
100
AcDbArc
 50
137.6051854461114
 51
197.6748603963475
  0
LINE
  5
4BF8F
330
4B4D3
100
AcDbEntity
  8
P902
  6
PHANTOM2
100
AcDbLine
 10
3853.519098437916
 20
2993.03361280751
 30
0.0
 11
3788.895911237786
 21
2934.035258221611
 31
0.0
  0
LINE
  5
4BF90
330
4B4D3
100
AcDbEntity
  8
P902
  6
PHANTOM2
100
AcDbLine
 10
3920.942653669812
 20
2919.181976401188
 30
0.0
 11
3857.14665936725
 21
2860.938815453922
 31
0.0
  0
LINE
  5
4BF91
330
4B4D3
100
AcDbEntity
  8
P902
  6
PHANTOM2
100
AcDbLine
 10
3988.366208901707
 20
2845.330339994866
 30
0.0
 11
3925.872541252028
 21
2788.27615057597
 31
0.0
  0
LINE
  5
4BF92
330
4B4D3
100
AcDbEntity
  8
P902
  6
PHANTOM2
100
AcDbLine
 10
4055.789764133602
 20
2771.478703588544
 30
0.0
 11
3995.073718616118
 21
2716.047411235219
 31
0.0
  0
LINE
  5
4BF93
330
4B4D3
100
AcDbEntity
  8
P902
  6
PHANTOM2
100
AcDbLine
 10
4123.213319365498
 20
2697.627067182222
 30
0.0
 11
4064.750412324589
 21
2644.25279907254
 31
0.0
  0
LINE
  5
4BF94
330
4B4D3
100
AcDbEntity
  8
P902
  6
PHANTOM2
100
AcDbLine
 10
4190.636874597392
 20
2623.7754307759
 30
0.0
 11
4134.902902520923
 21
2572.892569847595
 31
0.0
  0
LINE
  5
4BF95
330
4B4D3
100
AcDbEntity
  8
P902
  6
PHANTOM2
100
AcDbLine
 10
4258.060429829288
 20
2549.923794369579
 30
0.0
 11
4205.531528801409
 21
2501.96703359805
 31
0.0
  0
LINE
  5
4C013
330
4B4D3
100
AcDbEntity
  8
P902
  6
PHANTOM2
100
AcDbLine
 10
3786.095400061997
 20
3066.885406005036
 30
0.0
 11
3721.12005079278
 21
3007.56554170221
 31
0.0
  0
LINE
  5
4C0B0
330
4B4D3
100
AcDbEntity
  8
P902
  6
PHANTOM2
100
AcDbLine
 10
3384.782136156748
 20
4069.078381551689
 30
0.0
 11
1896.541292372497
 21
2438.950434394749
 31
0.0
  0
LINE
  5
4C0B1
330
4B4D3
100
AcDbEntity
  8
P902
  6
PHANTOM2
100
AcDbLine
 10
1820.318214870636
 20
2678.151208716546
 30
0.0
 11
2330.318214870635
 21
1077.685852261525
 31
0.0
  0
LINE
  5
4C0B2
330
4B4D3
100
AcDbEntity
  8
P902
  6
PHANTOM2
100
AcDbLine
 10
2256.413623199549
 20
1309.610830011578
 30
0.0
 11
3999.502285520268
 21
1309.610830011577
 31
0.0
  0
LINE
  5
4C0B3
330
4B4D3
100
AcDbEntity
  8
P902
  6
PHANTOM2
100
AcDbLine
 10
4435.59769384918
 20
2678.151208716545
 30
0.0
 11
3925.597693849182
 21
1077.685852261525
 31
0.0
  0
LINE
  5
4C0B4
330
4B4D3
100
AcDbEntity
  8
P902
  6
PHANTOM2
100
AcDbLine
 10
2871.13377256307
 20
4069.078381551689
 30
0.0
 11
4359.374616347319
 21
2438.950434394749
 31
0.0
  0
LINE
  5
4C0D1
330
4B4D3
100
AcDbEntity
  8
P902
  6
PHANTOM2
100
AcDbLine
 10
3718.672145064141
 20
3140.736713553365
 30
0.0
 11
3653.696795794925
 21
3081.416849250539
 31
0.0
  0
LINE
  5
4C0D2
330
4B4D3
100
AcDbEntity
  8
P902
  6
PHANTOM2
100
AcDbLine
 10
3651.248446688222
 20
3214.588506750891
 30
0.0
 11
3586.625259488094
 21
3155.590152164994
 31
0.0
  0
LINE
  5
4C0D3
330
4B4D3
100
AcDbEntity
  8
P902
  6
PHANTOM2
100
AcDbLine
 10
3583.824891456327
 20
3288.440143157214
 30
0.0
 11
3520.028897153771
 21
3230.196982209951
 31
0.0
  0
LINE
  5
4C0D4
330
4B4D3
100
AcDbEntity
  8
P902
  6
PHANTOM2
100
AcDbLine
 10
3516.401336224433
 20
3362.291779563536
 30
0.0
 11
3453.907668574761
 21
3305.237590144644
 31
0.0
  0
LINE
  5
4C0D5
330
4B4D3
100
AcDbEntity
  8
P902
  6
PHANTOM2
100
AcDbLine
 10
3448.977780992538
 20
3436.143415969858
 30
0.0
 11
3388.261735475061
 21
3380.712123616539
 31
0.0
  0
LINE
  5
4C0D6
330
4B4D3
100
AcDbEntity
  8
P902
  6
PHANTOM2
100
AcDbLine
 10
3381.554225760643
 20
3509.995052376182
 30
0.0
 11
3323.091318719744
 21
3456.620784266506
 31
0.0
  0
LINE
  5
4C0D7
330
4B4D3
100
AcDbEntity
  8
P902
  6
PHANTOM2
100
AcDbLine
 10
3314.130670528748
 20
3583.846688782503
 30
0.0
 11
3258.396698452289
 21
3532.963827854206
 31
0.0
  0
LINE
  5
4C0D8
330
4B4D3
100
AcDbEntity
  8
P902
  6
PHANTOM2
100
AcDbLine
 10
3246.707115296855
 20
3657.698325188825
 30
0.0
 11
3194.178214268987
 21
3609.741564417307
 31
0.0
  0
LINE
  5
4C0D9
330
4B4D3
100
AcDbEntity
  8
P902
  6
PHANTOM2
100
AcDbLine
 10
3009.208793422962
 20
3657.698325188825
 30
0.0
 11
3061.73769445083
 21
3609.741564417307
 31
0.0
  0
LINE
  5
4C0DA
330
4B4D3
100
AcDbEntity
  8
P902
  6
PHANTOM2
100
AcDbLine
 10
2941.785238191068
 20
3583.846688782503
 30
0.0
 11
2997.519210267527
 21
3532.963827854205
 31
0.0
  0
LINE
  5
4C0DB
330
4B4D3
100
AcDbEntity
  8
P902
  6
PHANTOM2
100
AcDbLine
 10
2874.361682959174
 20
3509.995052376182
 30
0.0
 11
2932.824590000073
 21
3456.620784266506
 31
0.0
  0
LINE
  5
4C0DC
330
4B4D3
100
AcDbEntity
  8
P902
  6
PHANTOM2
100
AcDbLine
 10
2806.938127727279
 20
3436.143415969858
 30
0.0
 11
2867.654173244756
 21
3380.712123616539
 31
0.0
  0
LINE
  5
4C0DD
330
4B4D3
100
AcDbEntity
  8
P902
  6
PHANTOM2
100
AcDbLine
 10
2739.514572495384
 20
3362.291779563536
 30
0.0
 11
2801.269723780998
 21
3305.911825696958
 31
0.0
  0
LINE
  5
4C0DE
330
4B4D3
100
AcDbEntity
  8
P902
  6
PHANTOM2
100
AcDbLine
 10
2672.091017263489
 20
3288.440143157214
 30
0.0
 11
2735.148495201987
 21
3230.871217762266
 31
0.0
  0
LINE
  5
4C0DF
330
4B4D3
100
AcDbEntity
  8
P902
  6
PHANTOM2
100
AcDbLine
 10
2604.667462031595
 20
3214.588506750891
 30
0.0
 11
2668.552132867661
 21
3156.264387717311
 31
0.0
  0
LINE
  5
4C0E0
330
4B4D3
100
AcDbEntity
  8
P902
  6
PHANTOM2
100
AcDbLine
 10
2537.243763655676
 20
3140.736713553365
 30
0.0
 11
2601.480596560829
 21
3082.091084802857
 31
0.0
  0
LINE
  5
4C0E1
330
4B4D3
100
AcDbEntity
  8
P902
  6
PHANTOM2
100
AcDbLine
 10
2469.82050865782
 20
3066.885406005036
 30
0.0
 11
2534.057341562974
 21
3008.239777254529
 31
0.0
  0
LINE
  5
4C0E2
330
4B4D3
100
AcDbEntity
  8
P902
  6
PHANTOM2
100
AcDbLine
 10
2402.3968102819
 20
2993.03361280751
 30
0.0
 11
2466.281481117967
 21
2934.70949377393
 31
0.0
  0
LINE
  5
4C0E3
330
4B4D3
100
AcDbEntity
  8
P902
  6
PHANTOM2
100
AcDbLine
 10
2334.973255050005
 20
2919.181976401188
 30
0.0
 11
2398.030732988504
 21
2861.613051006241
 31
0.0
  0
LINE
  5
4C0E4
330
4B4D3
100
AcDbEntity
  8
P902
  6
PHANTOM2
100
AcDbLine
 10
2267.54969981811
 20
2845.330339994866
 30
0.0
 11
2330.043367467788
 21
2788.27615057597
 31
0.0
  0
LINE
  5
4C0E5
330
4B4D3
100
AcDbEntity
  8
P902
  6
PHANTOM2
100
AcDbLine
 10
2200.126144586215
 20
2771.478703588544
 30
0.0
 11
2260.842190103699
 21
2716.047411235219
 31
0.0
  0
LINE
  5
4C0E6
330
4B4D3
100
AcDbEntity
  8
P902
  6
PHANTOM2
100
AcDbLine
 10
2132.702589354319
 20
2697.627067182222
 30
0.0
 11
2191.165496395227
 21
2644.25279907254
 31
0.0
  0
LINE
  5
4C0E7
330
4B4D3
100
AcDbEntity
  8
P902
  6
PHANTOM2
100
AcDbLine
 10
2065.279034122424
 20
2623.7754307759
 30
0.0
 11
2121.013006198894
 21
2572.892569847595
 31
0.0
  0
LINE
  5
4C0E8
330
4B4D3
100
AcDbEntity
  8
P902
  6
PHANTOM2
100
AcDbLine
 10
1997.855478890529
 20
2549.923794369579
 30
0.0
 11
2050.384379918408
 21
2501.96703359805
 31
0.0
  0
MTEXT
  5
4C244
330
4B4D3
100
AcDbEntity
  8
P_3TEXT
100
AcDbMText
 10
4424.721332321961
 20
1087.807339145656
 30
0.0
 40
45.0
 41
1110.0
 71
     1
 72
     5
  1
仕様：t8.7 天然ゴム・ポリエステル芯材\P\P＊取付可能枚数\P・ＣＰ－８００３３      ４枚
  7
BIGFONT
 73
     1
 44
1.0
  0
ARC
  5
4C29A
330
4B4D3
100
AcDbEntity
  8
P006
100
AcDbCircle
 10
3131.826811005829
 20
-14723.13107358436
 30
0.0
 40
16102.7423683631
100
AcDbArc
 50
87.13137083129753
 51
92.8740088371935
  0
ARC
  5
4C31C
330
4B4D3
100
AcDbEntity
  8
P006
100
AcDbCircle
 10
12562.08167299371
 20
-735.8947492199973
 30
0.0
 40
8840.774784093752
100
AcDbArc
 50
159.4218574183472
 51
166.037747525783
  0
LINE
  5
4C4BC
330
4B4D3
100
AcDbEntity
  8
P902
  6
PHANTOM2
100
AcDbLine
 10
3181.457954359908
 20
1397.534937197675
 30
0.0
 11
3181.457954359908
 21
1309.610830011577
 31
0.0
  0
LINE
  5
4C4C0
330
4B4D3
100
AcDbEntity
  8
P902
  6
PHANTOM2
100
AcDbLine
 10
3609.457954359907
 20
1390.537978426419
 30
0.0
 11
3609.457954359908
 21
1309.610830011577
 31
0.0
  0
LINE
  5
4C4C1
330
4B4D3
100
AcDbEntity
  8
P902
  6
PHANTOM2
100
AcDbLine
 10
3716.457954359908
 20
1387.012678364388
 30
0.0
 11
3716.457954359908
 21
1309.610830011577
 31
0.0
  0
LINE
  5
4C4C2
330
4B4D3
100
AcDbEntity
  8
P902
  6
PHANTOM2
100
AcDbLine
 10
3823.457954359908
 20
1382.776162615002
 30
0.0
 11
3823.457954359908
 21
1309.610830011577
 31
0.0
  0
LINE
  5
4C4C3
330
4B4D3
100
AcDbEntity
  8
P902
  6
PHANTOM2
100
AcDbLine
 10
4253.576245871564
 20
2337.66922969283
 30
0.0
 11
4320.322988878688
 21
2316.399891499198
 31
0.0
  0
LINE
  5
4C4C4
330
4B4D3
100
AcDbEntity
  8
P902
  6
PHANTOM2
100
AcDbLine
 10
4219.667791234039
 20
2241.420974876401
 30
0.0
 11
4289.354269944143
 21
2219.214868384429
 31
0.0
  0
LINE
  5
4C4C5
330
4B4D3
100
AcDbEntity
  8
P902
  6
PHANTOM2
100
AcDbLine
 10
4185.927830940026
 20
2145.12363167096
 30
0.0
 11
4258.386882742392
 21
2122.034024470053
 31
0.0
  0
LINE
  5
4C4C6
330
4B4D3
100
AcDbEntity
  8
P902
  6
PHANTOM2
100
AcDbLine
 10
4153.305155330637
 20
2048.465653956309
 30
0.0
 11
4227.418163807846
 21
2024.849001355283
 31
0.0
  0
LINE
  5
4C4CD
330
4B4D3
100
AcDbEntity
  8
P902
  6
PHANTOM2
100
AcDbLine
 10
2001.386868058467
 20
2337.365614659346
 30
0.0
 11
1935.59291984113
 21
2316.399891499199
 31
0.0
  0
LINE
  5
4C4CE
330
4B4D3
100
AcDbEntity
  8
P902
  6
PHANTOM2
100
AcDbLine
 10
2036.248117485778
 20
2241.420974876401
 30
0.0
 11
1966.561638775675
 21
2219.214868384429
 31
0.0
  0
LINE
  5
4C4CF
330
4B4D3
100
AcDbEntity
  8
P902
  6
PHANTOM2
100
AcDbLine
 10
2069.988077779792
 20
2145.12363167096
 30
0.0
 11
1997.529025977426
 21
2122.034024470053
 31
0.0
  0
LINE
  5
4C4D0
330
4B4D3
100
AcDbEntity
  8
P902
  6
PHANTOM2
100
AcDbLine
 10
2102.610753389181
 20
2048.465653956309
 30
0.0
 11
2028.497744911971
 21
2024.849001355283
 31
0.0
  0
LINE
  5
4C4D1
330
4B4D3
100
AcDbEntity
  8
P902
  6
PHANTOM2
100
AcDbLine
 10
2134.113995542837
 20
1951.455564144401
 30
0.0
 11
2059.465132113723
 21
1927.668157440907
 31
0.0
  0
LINE
  5
4C4D2
330
4B4D3
100
AcDbEntity
  8
P902
  6
PHANTOM2
100
AcDbLine
 10
2165.453511578174
 20
1854.388733254551
 30
0.0
 11
2090.433840919086
 21
1830.483166113204
 31
0.0
  0
LINE
  5
4C4D3
330
4B4D3
100
AcDbEntity
  8
P902
  6
PHANTOM2
100
AcDbLine
 10
2194.720887336399
 20
1756.666168250929
 30
0.0
 11
2121.401228120837
 21
1733.302322198828
 31
0.0
  0
LINE
  5
4C4D4
330
4B4D3
100
AcDbEntity
  8
P902
  6
PHANTOM2
100
AcDbLine
 10
2222.870749409753
 20
1658.582895765494
 30
0.0
 11
2152.369947055383
 21
1636.117299084058
 31
0.0
  0
LINE
  5
4C4D5
330
4B4D3
100
AcDbEntity
  8
P902
  6
PHANTOM2
100
AcDbLine
 10
2249.899555897341
 20
1560.146994279193
 30
0.0
 11
2183.337334257134
 21
1538.936455169683
 31
0.0
  0
LINE
  5
4C4D6
330
4B4D3
100
AcDbEntity
  8
P902
  6
PHANTOM2
100
AcDbLine
 10
2275.808062734918
 20
1461.349497542894
 30
0.0
 11
2214.306053191679
 21
1441.751432054912
 31
0.0
  0
LINE
  5
4C4D7
330
4B4D3
100
AcDbEntity
  8
P902
  6
PHANTOM2
100
AcDbLine
 10
2432.457954359909
 20
1382.776162615002
 30
0.0
 11
2432.457954359909
 21
1309.610830011578
 31
0.0
  0
LINE
  5
4C4D8
330
4B4D3
100
AcDbEntity
  8
P902
  6
PHANTOM2
100
AcDbLine
 10
2539.457954359909
 20
1387.012678364388
 30
0.0
 11
2539.457954359909
 21
1309.610830011577
 31
0.0
  0
LINE
  5
4C4D9
330
4B4D3
100
AcDbEntity
  8
P902
  6
PHANTOM2
100
AcDbLine
 10
2646.457954359909
 20
1390.537978426419
 30
0.0
 11
2646.457954359909
 21
1309.610830011577
 31
0.0
  0
LINE
  5
4C4DA
330
4B4D3
100
AcDbEntity
  8
P902
  6
PHANTOM2
100
AcDbLine
 10
3074.457954359909
 20
1396.534937197675
 30
0.0
 11
3074.457954359909
 21
1309.610830011577
 31
0.0
  0
LINE
  5
4C4DB
330
4B4D3
100
AcDbEntity
  8
P902
  6
PHANTOM2
100
AcDbLine
 10
2967.457954359909
 20
1396.850777564816
 30
0.0
 11
2967.457954359909
 21
1309.610830011577
 31
0.0
  0
LINE
  5
4C4DC
330
4B4D3
100
AcDbEntity
  8
P902
  6
PHANTOM2
100
AcDbLine
 10
2860.457954359909
 20
1395.456702956237
 30
0.0
 11
2860.457954359909
 21
1309.610830011577
 31
0.0
  0
LINE
  5
4C4DD
330
4B4D3
100
AcDbEntity
  8
P902
  6
PHANTOM2
100
AcDbLine
 10
2753.457954359909
 20
1393.352529251986
 30
0.0
 11
2753.457954359909
 21
1309.610830011577
 31
0.0
  0
ARC
  5
4C6DE
330
4B4D3
100
AcDbEntity
  8
P006
100
AcDbCircle
 10
2321.930174959065
 20
1409.294455691535
 30
0.0
 40
50.0
100
AcDbArc
 50
193.9622524742171
 51
272.8740088371932
  0
ARC
  5
4C6DF
330
4B4D3
100
AcDbEntity
  8
P006
100
AcDbCircle
 10
3933.985733760752
 20
1409.294455691535
 30
0.0
 40
50.0
100
AcDbArc
 50
267.1259911628068
 51
346.0377475257829
  0
CIRCLE
  5
4C6E1
330
4B4D3
100
AcDbEntity
  8
P006
100
AcDbCircle
 10
4024.470006201994
 20
1661.315431066853
 30
0.0
 40
9.0
  0
CIRCLE
  5
4C6E2
330
4B4D3
100
AcDbEntity
  8
P006
100
AcDbCircle
 10
3971.53269287683
 20
1464.082032844253
 30
0.0
 40
9.0
  0
CIRCLE
  5
4C6E3
330
4B4D3
100
AcDbEntity
  8
P006
100
AcDbCircle
 10
3997.441199714407
 20
1562.879529580552
 30
0.0
 40
9.0
  0
CIRCLE
  5
4C6E4
330
4B4D3
100
AcDbEntity
  8
P006
100
AcDbCircle
 10
3823.457954359908
 20
1391.776162615002
 30
0.0
 40
9.0
  0
CIRCLE
  5
4C6E5
330
4B4D3
100
AcDbEntity
  8
P006
100
AcDbCircle
 10
3716.457954359908
 20
1396.012678364388
 30
0.0
 40
9.0
  0
CIRCLE
  5
4C6E6
330
4B4D3
100
AcDbEntity
  8
P006
100
AcDbCircle
 10
3395.457954359908
 20
1404.456702956237
 30
0.0
 40
9.0
  0
CIRCLE
  5
4C6E7
330
4B4D3
100
AcDbEntity
  8
P006
100
AcDbCircle
 10
3609.457954359907
 20
1399.537978426419
 30
0.0
 40
9.0
  0
CIRCLE
  5
4C6E8
330
4B4D3
100
AcDbEntity
  8
P006
100
AcDbCircle
 10
3502.457954359908
 20
1402.352529251986
 30
0.0
 40
9.0
  0
CIRCLE
  5
4C6E9
330
4B4D3
100
AcDbEntity
  8
P006
100
AcDbCircle
 10
3288.457954359907
 20
1405.850777564816
 30
0.0
 40
9.0
  0
CIRCLE
  5
4C6EA
330
4B4D3
100
AcDbEntity
  8
P006
100
AcDbCircle
 10
3181.457954359908
 20
1406.534937197675
 30
0.0
 40
9.0
  0
CIRCLE
  5
4C6EC
330
4B4D3
100
AcDbEntity
  8
P006
100
AcDbCircle
 10
3647.050148518358
 20
3075.348729279667
 30
0.0
 40
9.0
  0
CIRCLE
  5
4C6ED
330
4B4D3
100
AcDbEntity
  8
P006
100
AcDbCircle
 10
4143.777207432781
 20
2051.501804291152
 30
0.0
 40
9.0
  0
CIRCLE
  5
4C6EE
330
4B4D3
100
AcDbEntity
  8
P006
100
AcDbCircle
 10
4176.399883042171
 20
2148.159782005803
 30
0.0
 40
9.0
  0
CIRCLE
  5
4C6EF
330
4B4D3
100
AcDbEntity
  8
P006
100
AcDbCircle
 10
4210.139843336184
 20
2244.457125211246
 30
0.0
 40
9.0
  0
CIRCLE
  5
4C6F0
330
4B4D3
100
AcDbEntity
  8
P006
100
AcDbCircle
 10
4245.001092763495
 20
2340.401764994189
 30
0.0
 40
9.0
  0
CIRCLE
  5
4C6F1
330
4B4D3
100
AcDbEntity
  8
P006
100
AcDbCircle
 10
4052.619868275349
 20
1759.398703552288
 30
0.0
 40
9.0
  0
CIRCLE
  5
4C6F2
330
4B4D3
100
AcDbEntity
  8
P006
100
AcDbCircle
 10
4081.887244033574
 20
1857.121268555909
 30
0.0
 40
9.0
  0
CIRCLE
  5
4C6F3
330
4B4D3
100
AcDbEntity
  8
P006
100
AcDbCircle
 10
4112.273965279126
 20
1954.491714479243
 30
0.0
 40
9.0
  0
CIRCLE
  5
4C6F4
330
4B4D3
100
AcDbEntity
  8
P006
100
AcDbCircle
 10
4128.256255244354
 20
2566.824449876724
 30
0.0
 40
9.0
  0
CIRCLE
  5
4C6F5
330
4B4D3
100
AcDbEntity
  8
P006
100
AcDbCircle
 10
4198.88488152484
 20
2495.898913627179
 30
0.0
 40
9.0
  0
CIRCLE
  5
4C6F6
330
4B4D3
100
AcDbEntity
  8
P006
100
AcDbCircle
 10
3988.427071339549
 20
2709.979291264348
 30
0.0
 40
9.0
  0
CIRCLE
  5
4C6F7
330
4B4D3
100
AcDbEntity
  8
P006
100
AcDbCircle
 10
4058.103765048019
 20
2638.184679101671
 30
0.0
 40
9.0
  0
CIRCLE
  5
4C6F8
330
4B4D3
100
AcDbEntity
  8
P006
100
AcDbCircle
 10
3919.225893975459
 20
2782.208030605099
 30
0.0
 40
9.0
  0
CIRCLE
  5
4C6F9
330
4B4D3
100
AcDbEntity
  8
P006
100
AcDbCircle
 10
3850.500012090681
 20
2854.870695483052
 30
0.0
 40
9.0
  0
CIRCLE
  5
4C6FA
330
4B4D3
100
AcDbEntity
  8
P006
100
AcDbCircle
 10
3782.249263961217
 20
2927.96713825074
 30
0.0
 40
9.0
  0
CIRCLE
  5
4C6FB
330
4B4D3
100
AcDbEntity
  8
P006
100
AcDbCircle
 10
3714.473403516211
 20
3001.497421731339
 30
0.0
 40
9.0
  0
CIRCLE
  5
4C6FC
330
4B4D3
100
AcDbEntity
  8
P006
100
AcDbCircle
 10
3513.382249877203
 20
3224.128862239078
 30
0.0
 40
9.0
  0
CIRCLE
  5
4C6FD
330
4B4D3
100
AcDbEntity
  8
P006
100
AcDbCircle
 10
3579.978612211527
 20
3149.522032194122
 30
0.0
 40
9.0
  0
CIRCLE
  5
4C6FE
330
4B4D3
100
AcDbEntity
  8
P006
100
AcDbCircle
 10
3447.261021298193
 20
3299.169470173772
 30
0.0
 40
9.0
  0
CIRCLE
  5
4C6FF
330
4B4D3
100
AcDbEntity
  8
P006
100
AcDbCircle
 10
3381.615088198493
 20
3374.644003645667
 30
0.0
 40
9.0
  0
CIRCLE
  5
4C700
330
4B4D3
100
AcDbEntity
  8
P006
100
AcDbCircle
 10
3316.444671443177
 20
3450.552664295633
 30
0.0
 40
9.0
  0
CIRCLE
  5
4C701
330
4B4D3
100
AcDbEntity
  8
P006
100
AcDbCircle
 10
3251.750051175722
 20
3526.895707883334
 30
0.0
 40
9.0
  0
CIRCLE
  5
4C702
330
4B4D3
100
AcDbEntity
  8
P006
100
AcDbCircle
 10
3187.531566992419
 20
3603.673444446435
 30
0.0
 40
9.0
  0
CIRCLE
  5
4C703
330
4B4D3
100
AcDbEntity
  8
P006
100
AcDbCircle
 10
2231.445902517823
 20
1661.315431066853
 30
0.0
 40
9.0
  0
CIRCLE
  5
4C704
330
4B4D3
100
AcDbEntity
  8
P006
100
AcDbCircle
 10
2284.383215842987
 20
1464.082032844253
 30
0.0
 40
9.0
  0
CIRCLE
  5
4C705
330
4B4D3
100
AcDbEntity
  8
P006
100
AcDbCircle
 10
2258.47470900541
 20
1562.879529580552
 30
0.0
 40
9.0
  0
CIRCLE
  5
4C706
330
4B4D3
100
AcDbEntity
  8
P006
100
AcDbCircle
 10
2432.457954359909
 20
1391.776162615002
 30
0.0
 40
9.0
  0
CIRCLE
  5
4C707
330
4B4D3
100
AcDbEntity
  8
P006
100
AcDbCircle
 10
2539.457954359909
 20
1396.012678364388
 30
0.0
 40
9.0
  0
CIRCLE
  5
4C708
330
4B4D3
100
AcDbEntity
  8
P006
100
AcDbCircle
 10
2860.457954359909
 20
1404.456702956237
 30
0.0
 40
9.0
  0
CIRCLE
  5
4C709
330
4B4D3
100
AcDbEntity
  8
P006
100
AcDbCircle
 10
2646.457954359909
 20
1399.537978426419
 30
0.0
 40
9.0
  0
CIRCLE
  5
4C70A
330
4B4D3
100
AcDbEntity
  8
P006
100
AcDbCircle
 10
2753.457954359909
 20
1402.352529251986
 30
0.0
 40
9.0
  0
CIRCLE
  5
4C70B
330
4B4D3
100
AcDbEntity
  8
P006
100
AcDbCircle
 10
2967.457954359909
 20
1405.850777564816
 30
0.0
 40
9.0
  0
CIRCLE
  5
4C70C
330
4B4D3
100
AcDbEntity
  8
P006
100
AcDbCircle
 10
3074.457954359909
 20
1406.534937197675
 30
0.0
 40
9.0
  0
CIRCLE
  5
4C70E
330
4B4D3
100
AcDbEntity
  8
P006
100
AcDbCircle
 10
2608.865760201459
 20
3075.348729279667
 30
0.0
 40
9.0
  0
CIRCLE
  5
4C70F
330
4B4D3
100
AcDbEntity
  8
P006
100
AcDbCircle
 10
2112.138701287035
 20
2051.501804291152
 30
0.0
 40
9.0
  0
CIRCLE
  5
4C710
330
4B4D3
100
AcDbEntity
  8
P006
100
AcDbCircle
 10
2079.516025677646
 20
2148.159782005803
 30
0.0
 40
9.0
  0
CIRCLE
  5
4C711
330
4B4D3
100
AcDbEntity
  8
P006
100
AcDbCircle
 10
2045.776065383633
 20
2244.457125211246
 30
0.0
 40
9.0
  0
CIRCLE
  5
4C712
330
4B4D3
100
AcDbEntity
  8
P006
100
AcDbCircle
 10
2010.914815956322
 20
2340.401764994189
 30
0.0
 40
9.0
  0
CIRCLE
  5
4C713
330
4B4D3
100
AcDbEntity
  8
P006
100
AcDbCircle
 10
2203.296040444468
 20
1759.398703552288
 30
0.0
 40
9.0
  0
CIRCLE
  5
4C714
330
4B4D3
100
AcDbEntity
  8
P006
100
AcDbCircle
 10
2174.028664686243
 20
1857.121268555909
 30
0.0
 40
9.0
  0
CIRCLE
  5
4C715
330
4B4D3
100
AcDbEntity
  8
P006
100
AcDbCircle
 10
2143.641943440691
 20
1954.491714479243
 30
0.0
 40
9.0
  0
CIRCLE
  5
4C716
330
4B4D3
100
AcDbEntity
  8
P006
100
AcDbCircle
 10
2127.659653475463
 20
2566.824449876724
 30
0.0
 40
9.0
  0
CIRCLE
  5
4C717
330
4B4D3
100
AcDbEntity
  8
P006
100
AcDbCircle
 10
2057.031027194977
 20
2495.898913627179
 30
0.0
 40
9.0
  0
CIRCLE
  5
4C718
330
4B4D3
100
AcDbEntity
  8
P006
100
AcDbCircle
 10
2267.488837380268
 20
2709.979291264348
 30
0.0
 40
9.0
  0
CIRCLE
  5
4C719
330
4B4D3
100
AcDbEntity
  8
P006
100
AcDbCircle
 10
2197.812143671797
 20
2638.184679101671
 30
0.0
 40
9.0
  0
CIRCLE
  5
4C71A
330
4B4D3
100
AcDbEntity
  8
P006
100
AcDbCircle
 10
2336.690014744358
 20
2782.208030605099
 30
0.0
 40
9.0
  0
CIRCLE
  5
4C71B
330
4B4D3
100
AcDbEntity
  8
P006
100
AcDbCircle
 10
2405.415896629136
 20
2854.870695483052
 30
0.0
 40
9.0
  0
CIRCLE
  5
4C71C
330
4B4D3
100
AcDbEntity
  8
P006
100
AcDbCircle
 10
2473.666644758599
 20
2927.96713825074
 30
0.0
 40
9.0
  0
CIRCLE
  5
4C71D
330
4B4D3
100
AcDbEntity
  8
P006
100
AcDbCircle
 10
2541.442505203606
 20
3001.497421731339
 30
0.0
 40
9.0
  0
CIRCLE
  5
4C71E
330
4B4D3
100
AcDbEntity
  8
P006
100
AcDbCircle
 10
2742.533658842613
 20
3224.128862239078
 30
0.0
 40
9.0
  0
CIRCLE
  5
4C71F
330
4B4D3
100
AcDbEntity
  8
P006
100
AcDbCircle
 10
2675.93729650829
 20
3149.522032194122
 30
0.0
 40
9.0
  0
CIRCLE
  5
4C720
330
4B4D3
100
AcDbEntity
  8
P006
100
AcDbCircle
 10
2808.654887421624
 20
3299.169470173772
 30
0.0
 40
9.0
  0
CIRCLE
  5
4C721
330
4B4D3
100
AcDbEntity
  8
P006
100
AcDbCircle
 10
2874.300820521324
 20
3374.644003645667
 30
0.0
 40
9.0
  0
CIRCLE
  5
4C722
330
4B4D3
100
AcDbEntity
  8
P006
100
AcDbCircle
 10
2939.47123727664
 20
3450.552664295633
 30
0.0
 40
9.0
  0
CIRCLE
  5
4C723
330
4B4D3
100
AcDbEntity
  8
P006
100
AcDbCircle
 10
3004.165857544095
 20
3526.895707883334
 30
0.0
 40
9.0
  0
CIRCLE
  5
4C724
330
4B4D3
100
AcDbEntity
  8
P006
100
AcDbCircle
 10
3068.384341727397
 20
3603.673444446435
 30
0.0
 40
9.0
  0
LINE
  5
4C725
330
4B4D3
100
AcDbEntity
  8
P902
  6
PHANTOM2
100
AcDbLine
 10
3395.457954359908
 20
1395.456702956237
 30
0.0
 11
3395.457954359908
 21
1309.610830011577
 31
0.0
  0
LINE
  5
4C726
330
4B4D3
100
AcDbEntity
  8
P902
  6
PHANTOM2
100
AcDbLine
 10
3288.457954359908
 20
1396.850777564816
 30
0.0
 11
3288.457954359908
 21
1309.610830011577
 31
0.0
  0
LINE
  5
4C727
330
4B4D3
100
AcDbEntity
  8
P902
  6
PHANTOM2
100
AcDbLine
 10
3502.457954359908
 20
1393.352529251986
 30
0.0
 11
3502.457954359908
 21
1309.610830011577
 31
0.0
  0
LINE
  5
4C728
330
4B4D3
100
AcDbEntity
  8
P902
  6
PHANTOM2
100
AcDbLine
 10
4120.849118387195
 20
1951.759179177885
 30
0.0
 11
4196.450776606095
 21
1927.668157440906
 31
0.0
  0
LINE
  5
4C729
330
4B4D3
100
AcDbEntity
  8
P902
  6
PHANTOM2
100
AcDbLine
 10
4090.462397141643
 20
1854.388733254551
 30
0.0
 11
4165.482067800731
 21
1830.483166113204
 31
0.0
  0
LINE
  5
4C72A
330
4B4D3
100
AcDbEntity
  8
P902
  6
PHANTOM2
100
AcDbLine
 10
4061.195021383418
 20
1756.666168250929
 30
0.0
 11
4134.514680598981
 21
1733.302322198828
 31
0.0
  0
LINE
  5
4C72B
330
4B4D3
100
AcDbEntity
  8
P902
  6
PHANTOM2
100
AcDbLine
 10
4033.045159310063
 20
1658.582895765494
 30
0.0
 11
4103.545961664435
 21
1636.117299084058
 31
0.0
  0
LINE
  5
4C72C
330
4B4D3
100
AcDbEntity
  8
P902
  6
PHANTOM2
100
AcDbLine
 10
3980.107845984899
 20
1461.349497542894
 30
0.0
 11
4041.609855528138
 21
1441.751432054912
 31
0.0
  0
ARC
  5
4C72F
330
4B4D3
100
AcDbEntity
  8
P006
100
AcDbCircle
 10
15180.88902732162
 20
13502.55921082829
 30
0.0
 40
15521.3435116504
100
AcDbArc
 50
219.4859001750611
 51
225.303728932716
  0
ARC
  5
4C730
330
4B4D3
100
AcDbEntity
  8
P006
100
AcDbCircle
 10
-8924.973118601803
 20
13502.55921082829
 30
0.0
 40
15521.3435116504
100
AcDbArc
 50
314.696271067284
 51
320.5140998249389
  0
ARC
  5
4C732
330
4B4D3
100
AcDbEntity
  8
P006
100
AcDbCircle
 10
-6306.165764273897
 20
-735.8947492199941
 30
0.0
 40
8840.774784093752
100
AcDbArc
 50
13.96225247421699
 51
20.57814258165295
  0
INSERT
  5
4DA48
330
4B4D3
100
AcDbEntity
  8
P_5DRAWFRAME
100
AcDbBlockReference
 66
     1
  2
DFP3
 10
0.0
 20
0.0
 30
0.0
 41
15.0
 42
15.0
 43
15.0
  0
ATTRIB
  5
4DA49
330
4DA48
100
AcDbEntity
  8
0
 62
    83
100
AcDbText
 10
5144.436767048212
 20
164.5005495034017
 30
0.0
 40
45.0
  1
E3P0446-003
  7
BIGFONT
 72
     1
 11
5380.151052762498
 21
158.5005495034017
 31
0.0
100
AcDbAttribute
  2
DWGNO
 70
     0
 74
     1
  0
ATTRIB
  5
4DA4A
330
4DA48
100
AcDbEntity
  8
0
 62
    83
100
AcDbText
 10
4224.937386024144
 20
391.9328864985249
 30
0.0
 40
60.0
  1
-
  7
BIGFONT
 72
     1
 11
4250.651671738429
 21
383.9328864985249
 31
0.0
100
AcDbAttribute
  2
PROJECT1
 70
     0
 74
     1
  0
ATTRIB
  5
4DA4B
330
4DA48
100
AcDbEntity
  8
0
 62
    83
100
AcDbText
 10
3695.768909905357
 20
275.625549503403
 30
0.0
 40
60.0
  1
ザイルオプション（ペンタゴン2000）
 41
0.9
  7
BIGFONT
 72
     1
 11
4263.0260527625
 21
267.625549503403
 31
0.0
100
AcDbAttribute
  2
PROJECT2
 70
     0
 74
     1
  0
ATTRIB
  5
4DA4C
330
4DA48
100
AcDbEntity
  8
0
 62
    83
100
AcDbText
 10
3973.0260527625
 20
166.5005495034017
 30
0.0
 40
60.0
  1
CPP-80033P
  7
BIGFONT
 72
     1
 11
4263.0260527625
 21
158.5005495034017
 31
0.0
100
AcDbAttribute
  2
PROJECT3
 70
     0
 74
     1
  0
ATTRIB
  5
4DA4D
330
4DA48
100
AcDbEntity
  8
0
 62
    83
100
AcDbText
 10
4971.936767048212
 20
393.625549503403
 30
0.0
 40
45.0
  1
2010/03/01
  7
BIGFONT
 72
     1
 11
5170.151052762498
 21
387.625549503403
 31
0.0
100
AcDbAttribute
  2
DATE
 70
     0
 74
     1
  0
ATTRIB
  5
4DA4E
330
4DA48
100
AcDbEntity
  8
0
 62
    83
100
AcDbText
 10
4963.151052762498
 20
273.625549503403
 30
0.0
 40
45.0
  1
内野
  7
BIGFONT
 72
     1
 11
5012.651052762498
 21
267.625549503403
 31
0.0
100
AcDbAttribute
  2
DRAWN
 70
     0
 74
     1
  0
ATTRIB
  5
4DA4F
330
4DA48
100
AcDbEntity
  8
0
 62
    83
100
AcDbText
 10
5279.651052762498
 20
273.625549503403
 30
0.0
 40
45.0
  1
守谷
  7
BIGFONT
 72
     1
 11
5327.651052762498
 21
267.625549503403
 31
0.0
100
AcDbAttribute
  2
CHECKED
 70
     8
 74
     1
  0
ATTRIB
  5
4DA50
330
4DA48
100
AcDbEntity
  8
0
 62
    83
100
AcDbText
 10
5645.651052762498
 20
273.625549503403
 30
0.0
 40
45.0
  1
中西
  7
BIGFONT
 72
     1
 11
5695.151052762498
 21
267.625549503403
 31
0.0
100
AcDbAttribute
  2
APPROVED
 70
     8
 74
     1
  0
ATTRIB
  5
4DA51
330
4DA48
100
AcDbEntity
  8
0
 62
    83
100
AcDbText
 10
5622.293909905355
 20
393.625549503403
 30
0.0
 40
45.0
  1
1/15
  7
BIGFONT
 72
     1
 11
5695.151052762498
 21
387.625549503403
 31
0.0
100
AcDbAttribute
  2
SCALE
 70
     0
 74
     1
  0
ATTRIB
  5
4DA52
330
4DA48
100
AcDbEntity
  8
0
 62
    83
 48
0.5
100
AcDbText
 10
397.1242684478339
 20
158.8818486550778
 30
0.0
 40
30.0
  1

  7
BIGFONT
 11
397.1242684478339
 21
154.8818486550778
 31
0.0
100
AcDbAttribute
  2
REV01
 70
     8
 74
     1
  0
ATTRIB
  5
4DA53
330
4DA48
100
AcDbEntity
  8
0
 62
    83
 48
0.5
100
AcDbText
 10
1214.683403763853
 20
158.8818486550778
 30
0.0
 40
30.0
  1

  7
BIGFONT
 72
     1
 11
1214.683403763853
 21
154.8818486550778
 31
0.0
100
AcDbAttribute
  2
REVD1
 70
     8
 74
     1
  0
ATTRIB
  5
4DA54
330
4DA48
100
AcDbEntity
  8
0
 62
    83
 48
0.5
100
AcDbText
 10
1390.077737004458
 20
158.8818486550778
 30
0.0
 40
30.0
  1

  7
BIGFONT
 72
     1
 11
1390.077737004458
 21
154.8818486550778
 31
0.0
100
AcDbAttribute
  2
R1D
 70
     8
 74
     1
  0
ATTRIB
  5
4DA55
330
4DA48
100
AcDbEntity
  8
0
 62
    83
 48
0.5
100
AcDbText
 10
1526.952362004457
 20
158.8818486550778
 30
0.0
 40
30.0
  1

  7
BIGFONT
 72
     1
 11
1526.952362004457
 21
154.8818486550778
 31
0.0
100
AcDbAttribute
  2
R1C
 70
     8
 74
     1
  0
ATTRIB
  5
4DA56
330
4DA48
100
AcDbEntity
  8
0
 62
    83
 48
0.5
100
AcDbText
 10
1663.827362004457
 20
158.8818486550778
 30
0.0
 40
30.0
  1

  7
BIGFONT
 72
     1
 11
1663.827362004457
 21
154.8818486550778
 31
0.0
100
AcDbAttribute
  2
R1A
 70
     8
 74
     1
  0
ATTRIB
  5
4DA57
330
4DA48
100
AcDbEntity
  8
0
 62
    83
 48
0.5
100
AcDbText
 10
397.1242684478339
 20
237.6318486550778
 30
0.0
 40
30.0
  1

  7
BIGFONT
 11
397.1242684478339
 21
233.6318486550778
 31
0.0
100
AcDbAttribute
  2
REV02
 70
     8
 74
     1
  0
ATTRIB
  5
4DA58
330
4DA48
100
AcDbEntity
  8
0
 62
    83
 48
0.5
100
AcDbText
 10
1214.683403763853
 20
237.6318486550778
 30
0.0
 40
30.0
  1

  7
BIGFONT
 72
     1
 11
1214.683403763853
 21
233.6318486550778
 31
0.0
100
AcDbAttribute
  2
REVD2
 70
     8
 74
     1
  0
ATTRIB
  5
4DA59
330
4DA48
100
AcDbEntity
  8
0
 62
    83
 48
0.5
100
AcDbText
 10
1390.077737004458
 20
237.6318486550778
 30
0.0
 40
30.0
  1

  7
BIGFONT
 72
     1
 11
1390.077737004458
 21
233.6318486550778
 31
0.0
100
AcDbAttribute
  2
R2D
 70
     8
 74
     1
  0
ATTRIB
  5
4DA5A
330
4DA48
100
AcDbEntity
  8
0
 62
    83
 48
0.5
100
AcDbText
 10
1526.952362004457
 20
237.6318486550778
 30
0.0
 40
30.0
  1

  7
BIGFONT
 72
     1
 11
1526.952362004457
 21
233.6318486550778
 31
0.0
100
AcDbAttribute
  2
R2C
 70
     8
 74
     1
  0
ATTRIB
  5
4DA5B
330
4DA48
100
AcDbEntity
  8
0
 62
    83
 48
0.5
100
AcDbText
 10
1663.827362004457
 20
237.6318486550778
 30
0.0
 40
30.0
  1

  7
BIGFONT
 72
     1
 11
1663.827362004457
 21
233.6318486550778
 31
0.0
100
AcDbAttribute
  2
R2A
 70
     8
 74
     1
  0
ATTRIB
  5
4DA5C
330
4DA48
100
AcDbEntity
  8
0
 62
    83
 48
0.5
100
AcDbText
 10
397.1242684478339
 20
329.5681379802968
 30
0.0
 40
30.0
  1

  7
BIGFONT
 11
397.1242684478339
 21
325.5681379802968
 31
0.0
100
AcDbAttribute
  2
REV03
 70
     8
 74
     1
  0
ATTRIB
  5
4DA5D
330
4DA48
100
AcDbEntity
  8
0
 62
    83
 48
0.5
100
AcDbText
 10
1214.683403763853
 20
329.5681379802968
 30
0.0
 40
30.0
  1

  7
BIGFONT
 72
     1
 11
1214.683403763853
 21
325.5681379802968
 31
0.0
100
AcDbAttribute
  2
REVD3
 70
     8
 74
     1
  0
ATTRIB
  5
4DA5E
330
4DA48
100
AcDbEntity
  8
0
 62
    83
 48
0.5
100
AcDbText
 10
1390.077737004458
 20
329.5681379802968
 30
0.0
 40
30.0
  1

  7
BIGFONT
 72
     1
 11
1390.077737004458
 21
325.5681379802968
 31
0.0
100
AcDbAttribute
  2
R3D
 70
     8
 74
     1
  0
ATTRIB
  5
4DA5F
330
4DA48
100
AcDbEntity
  8
0
 62
    83
 48
0.5
100
AcDbText
 10
1526.952362004457
 20
329.5681379802968
 30
0.0
 40
30.0
  1

  7
BIGFONT
 72
     1
 11
1526.952362004457
 21
325.5681379802968
 31
0.0
100
AcDbAttribute
  2
R3C
 70
     8
 74
     1
  0
ATTRIB
  5
4DA60
330
4DA48
100
AcDbEntity
  8
0
 62
    83
 48
0.5
100
AcDbText
 10
1663.827362004457
 20
329.5681379802968
 30
0.0
 40
30.0
  1

  7
BIGFONT
 72
     1
 11
1663.827362004457
 21
325.5681379802968
 31
0.0
100
AcDbAttribute
  2
R3A
 70
     8
 74
     1
  0
ATTRIB
  5
4DA61
330
4DA48
100
AcDbEntity
  8
0
 62
    83
 48
0.5
100
AcDbText
 10
397.1242684478339
 20
418.2078610155733
 30
0.0
 40
30.0
  1

  7
BIGFONT
 11
397.1242684478339
 21
414.2078610155733
 31
0.0
100
AcDbAttribute
  2
REV04
 70
     8
 74
     1
  0
ATTRIB
  5
4DA62
330
4DA48
100
AcDbEntity
  8
0
 62
    83
 48
0.5
100
AcDbText
 10
1214.683403763853
 20
418.2078610155733
 30
0.0
 40
30.0
  1

  7
BIGFONT
 72
     1
 11
1214.683403763853
 21
414.2078610155733
 31
0.0
100
AcDbAttribute
  2
REVD4
 70
     8
 74
     1
  0
ATTRIB
  5
4DA63
330
4DA48
100
AcDbEntity
  8
0
 62
    83
 48
0.5
100
AcDbText
 10
1390.077737004458
 20
418.2078610155733
 30
0.0
 40
30.0
  1

  7
BIGFONT
 72
     1
 11
1390.077737004458
 21
414.2078610155733
 31
0.0
100
AcDbAttribute
  2
R4D
 70
     8
 74
     1
  0
ATTRIB
  5
4DA64
330
4DA48
100
AcDbEntity
  8
0
 62
    83
 48
0.5
100
AcDbText
 10
1526.952362004457
 20
418.2078610155733
 30
0.0
 40
30.0
  1

  7
BIGFONT
 72
     1
 11
1526.952362004457
 21
414.2078610155733
 31
0.0
100
AcDbAttribute
  2
R4C
 70
     8
 74
     1
  0
ATTRIB
  5
4DA65
330
4DA48
100
AcDbEntity
  8
0
 62
    83
 48
0.5
100
AcDbText
 10
1663.827362004457
 20
418.2078610155733
 30
0.0
 40
30.0
  1

  7
BIGFONT
 72
     1
 11
1663.827362004457
 21
414.2078610155733
 31
0.0
100
AcDbAttribute
  2
R4A
 70
     8
 74
     1
  0
SEQEND
  5
4DA66
330
4DA48
100
AcDbEntity
  8
P_5DRAWFRAME
  0
DIMENSION
  5
4DA74
330
4B4D3
100
AcDbEntity
  8
P_2DIM
100
AcDbDimension
  2
*D7
 10
1479.695715059397
 20
1359.610830011577
 30
0.0
 11
1434.160000773683
 21
2536.610830011578
 31
0.0
 70
    32
  1
(<>)
 71
     5
 42
2354.000000000001
  3
DIMBIGFONT$0
100
AcDbAlignedDimension
 13
1922.446326216868
 23
3713.610830011578
 33
0.0
 14
1898.901836788891
 24
1359.610830011577
 34
0.0
 50
90.0
100
AcDbRotatedDimension
1001
ACAD
1000
DSTYLE
1002
{
1070
    40
1040
15.0
1070
   173
1070
     0
1002
}
  0
DIMENSION
  5
4DA81
330
4B4D3
100
AcDbEntity
  8
P_2DIM
100
AcDbDimension
  2
*D8
 10
4302.957954359908
 20
926.3232149840514
 30
0.0
 11
3127.957954359908
 21
971.8589292697658
 31
0.0
 70
    32
  1
(<>)
 71
     5
 42
2350.0
  3
DIMBIGFONT$0
100
AcDbAlignedDimension
 13
1952.957954359908
 23
1353.687083773897
 33
0.0
 14
4302.957954359908
 24
1358.114616504521
 34
0.0
100
AcDbRotatedDimension
1001
ACAD
1000
DSTYLE
1002
{
1070
    40
1040
15.0
1070
   173
1070
     0
1002
}
  0
DIMENSION
  5
4DA8E
330
4B4D3
100
AcDbEntity
  8
P_2DIM
100
AcDbDimension
  2
*D9
 10
2921.4491006164
 20
3902.145055978422
 30
0.0
 11
2300.320230467094
 21
3289.335305601761
 31
0.0
 70
    33
  1
(<>)
 71
     5
 42
1742.71439107405
  3
DIMBIGFONT$0
100
AcDbAlignedDimension
 13
1952.957954359908
 23
2426.587734314925
 33
0.0
 14
3127.957954359907
 24
3713.610830011578
 34
0.0
1001
ACAD
1000
DSTYLE
1002
{
1070
   271
1070
     0
1070
    40
1040
15.0
1070
   173
1070
     0
1002
}
  0
DIMENSION
  5
4DA9B
330
4B4D3
100
AcDbEntity
  8
P_2DIM
100
AcDbDimension
  2
*D10
 10
2030.109244679816
 20
1280.31223294491
 30
0.0
 11
1907.588733198181
 21
1827.32974100199
 31
0.0
 70
    33
  1
(<>)
 71
     5
 42
1117.436223825214
  3
DIMBIGFONT$0
100
AcDbAlignedDimension
 13
1952.957954359908
 23
2426.587734314925
 33
0.0
 14
2284.957954359908
 24
1359.610830011577
 34
0.0
1001
ACAD
1000
DSTYLE
1002
{
1070
    40
1040
15.0
1070
   173
1070
     0
1070
   271
1070
     0
1002
}
  0
LEADER
  5
4DB33
330
4B4D3
100
AcDbEntity
  8
P_2DIM
100
AcDbLeader
  3
DIMBIGFONT$7
 73
     0
 74
     0
 75
     1
 40
45.0
 41
476.9999999999998
 76
     3
 10
3836.938480388055
 20
3011.195007165889
 30
0.0
 10
4115.971607468078
 20
3266.079454621995
 30
0.0
 10
4117.971607468078
 20
3266.079454621995
 30
0.0
340
4DB34
1001
ACAD
1000
DSTYLE
1002
{
1070
    40
1040
15.0
1070
   173
1070
     0
1002
}
  0
MTEXT
  5
4DB34
102
{ACAD_REACTORS
330
4DB33
102
}
330
4B4D3
100
AcDbEntity
  8
P_2DIM
 62
   230
100
AcDbMText
 10
4129.221607468078
 20
3277.329454621995
 30
0.0
 40
45.0
 41
0.0
 71
     7
 72
     1
  1
ザイルロープを示す
  7
BIGFONT
 73
     1
 44
1.0
  0
LEADER
  5
4DB35
330
4B4D3
100
AcDbEntity
  8
P_2DIM
100
AcDbLeader
  3
DIMBIGFONT$7
 73
     0
 74
     0
 75
     1
 40
45.0
 41
357.8571428571428
 76
     3
 10
3889.413914700562
 20
2890.397513703714
 30
0.0
 10
4132.359067454532
 20
3124.974942784009
 30
0.0
 10
4134.359067454532
 20
3124.974942784009
 30
0.0
340
4DB36
1001
ACAD
1000
DSTYLE
1002
{
1070
    40
1040
15.0
1070
   173
1070
     0
1002
}
  0
MTEXT
  5
4DB36
102
{ACAD_REACTORS
330
4DB35
102
}
330
4B4D3
100
AcDbEntity
  8
P_2DIM
 62
   230
100
AcDbMText
 10
4145.609067454532
 20
3136.224942784009
 30
0.0
 40
45.0
 41
0.0
 71
     7
 72
     1
  1
Sフックを示す
  7
BIGFONT
 73
     1
 44
1.0
  0
LEADER
  5
4DB37
330
4B4D3
100
AcDbEntity
  8
P_2DIM
100
AcDbLeader
  3
DIMBIGFONT$7
 73
     0
 74
     0
 75
     1
 40
45.00000000000001
 41
334.2857142857142
 76
     3
 10
3919.225893975459
 20
2782.208030605099
 30
0.0
 10
4167.34624361323
 20
3014.437736466472
 30
0.0
 10
4169.34624361323
 20
3014.437736466472
 30
0.0
340
4DB38
1001
ACAD
1000
DSTYLE
1002
{
1070
    40
1040
15.0
1070
   173
1070
     0
1002
}
  0
MTEXT
  5
4DB38
102
{ACAD_REACTORS
330
4DB37
102
}
330
4B4D3
100
AcDbEntity
  8
P_2DIM
 62
   230
100
AcDbMText
 10
4180.59624361323
 20
3025.687736466472
 30
0.0
 40
45.0
 41
0.0
 71
     7
 72
     1
  1
\A1;ハトメ穴φ18
  7
BIGFONT
 73
     1
 44
1.0
  0
ENDSEC
  0
SECTION
  2
OBJECTS
  0
DICTIONARY
  5
4B4C7
330
0
100
AcDbDictionary
281
     1
  3
ACAD_GROUP
350
4B4C8
  3
ACAD_LAYOUT
350
4D3F9
  3
ACAD_MLEADERSTYLE
350
4DB4D
  3
ACAD_MLINESTYLE
350
4B4C9
  3
ACAD_PLOTSETTINGS
350
4D3FA
  3
ACAD_PLOTSTYLENAME
350
4D3F7
  3
ACAD_TABLESTYLE
350
4DB4C
  3
AcDbVariableDictionary
350
4D402
  0
DICTIONARY
  5
4B4C8
102
{ACAD_REACTORS
330
4B4C7
102
}
330
4B4C7
100
AcDbDictionary
281
     1
  0
DICTIONARY
  5
4D3F9
102
{ACAD_REACTORS
330
4B4C7
102
}
330
4B4C7
100
AcDbDictionary
281
     1
  3
Model
350
4D3FB
  3
ﾚｲｱｳﾄ1
350
4D3FC
  0
DICTIONARY
  5
4DB4D
102
{ACAD_REACTORS
330
4B4C7
102
}
330
4B4C7
100
AcDbDictionary
281
     1
  0
DICTIONARY
  5
4B4C9
102
{ACAD_REACTORS
330
4B4C7
102
}
330
4B4C7
100
AcDbDictionary
281
     1
  3
STANDARD
350
4B4D6
  0
DICTIONARY
  5
4D3FA
102
{ACAD_REACTORS
330
4B4C7
102
}
330
4B4C7
100
AcDbDictionary
281
     1
  0
ACDBDICTIONARYWDFLT
  5
4D3F7
102
{ACAD_REACTORS
330
4B4C7
102
}
330
4B4C7
100
AcDbDictionary
281
     1
  3
Normal
350
4D3F8
100
AcDbDictionaryWithDefault
340
4D3F8
  0
DICTIONARY
  5
4DB4C
102
{ACAD_REACTORS
330
4B4C7
102
}
330
4B4C7
100
AcDbDictionary
281
     1
  0
DICTIONARY
  5
4D402
102
{ACAD_REACTORS
330
4B4C7
102
}
330
4B4C7
100
AcDbDictionary
281
     1
  3
DIMASSOC
350
4D403
  0
LAYOUT
  5
4D3FB
102
{ACAD_REACTORS
330
4D3F9
102
}
330
4D3F9
100
AcDbPlotSettings
  1

  2
なし
  4

  6

 40
0.0
 41
0.0
 42
0.0
 43
0.0
 44
0.0
 45
0.0
 46
0.0
 47
0.0
 48
0.0
 49
0.0
140
0.0
141
0.0
142
1.0
143
1.0
 70
  1712
 72
     0
 73
     0
 74
     0
  7
KOTOBUKImono2.ctb
 75
     0
147
1.0
148
0.0
149
0.0
100
AcDbLayout
  1
Model
 70
     1
 71
     0
 10
0.0
 20
0.0
 11
12.0
 21
9.0
 12
0.0
 22
0.0
 32
0.0
 14
0.0
 24
0.0
 34
0.0
 15
0.0
 25
0.0
 35
0.0
146
0.0
 13
0.0
 23
0.0
 33
0.0
 16
1.0
 26
0.0
 36
0.0
 17
0.0
 27
1.0
 37
0.0
 76
     0
330
4B4D3
331
4DB4B
  0
LAYOUT
  5
4D3FC
102
{ACAD_REACTORS
330
4D3F9
102
}
330
4D3F9
100
AcDbPlotSettings
  1

  2
なし
  4

  6

 40
0.0
 41
0.0
 42
0.0
 43
0.0
 44
0.0
 45
0.0
 46
0.0
 47
0.0
 48
0.0
 49
0.0
140
0.0
141
0.0
142
1.0
143
1.0
 70
   688
 72
     0
 73
     0
 74
     5
  7
KOTOBUKImono2.ctb
 75
    16
147
1.0
148
0.0
149
0.0
100
AcDbLayout
  1
ﾚｲｱｳﾄ1
 70
     0
 71
     1
 10
0.0
 20
0.0
 11
420.0
 21
297.0
 12
0.0
 22
0.0
 32
0.0
 14
1.000000000000000E+20
 24
1.000000000000000E+20
 34
1.000000000000000E+20
 15
-1.000000000000000E+20
 25
-1.000000000000000E+20
 35
-1.000000000000000E+20
146
0.0
 13
0.0
 23
0.0
 33
0.0
 16
1.0
 26
0.0
 36
0.0
 17
0.0
 27
1.0
 37
0.0
 76
     0
330
4B4D0
  0
MLINESTYLE
  5
4B4D6
102
{ACAD_REACTORS
330
4B4C9
102
}
330
4B4C9
100
AcDbMlineStyle
  2
STANDARD
 70
     0
  3

 62
     0
 51
90.0
 52
90.0
 71
     2
 49
0.5
 62
   256
  6
BYLAYER
 49
-0.5
 62
   256
  6
BYLAYER
  0
ACDBPLACEHOLDER
  5
4D3F8
102
{ACAD_REACTORS
330
4D3F7
102
}
330
4D3F7
  0
DICTIONARYVAR
  5
4D403
102
{ACAD_REACTORS
330
4D402
102
}
330
4D402
100
DictionaryVariables
280
     0
  1
1
  0
ENDSEC
  0
EOF
