  0
SECTION
  2
HEADER
  9
$ACADVER
  1
AC1015
  9
$ACADMAINTVER
 70
     6
  9
$DWGCODEPAGE
  3
ANSI_932
  9
$INSBASE
 10
2172.830121653811
 20
25.25418401242223
 30
0.0
  9
$EXTMIN
 10
-0.0230374039965682
 20
-0.0668986267692162
 30
-0.0000000349181948
  9
$EXTMAX
 10
2100.118882055565
 20
1485.066037919574
 30
0.0000000814935746
  9
$LIMMIN
 10
2172.830121653811
 20
25.25418401242223
  9
$LIMMAX
 10
4272.830121653811
 20
1510.254184012422
  9
$ORTHOMODE
 70
     0
  9
$REGENMODE
 70
     1
  9
$FILLMODE
 70
     1
  9
$QTEXTMODE
 70
     0
  9
$MIRRTEXT
 70
     0
  9
$LTSCALE
 40
1.5
  9
$ATTMODE
 70
     1
  9
$TEXTSIZE
 40
15.0
  9
$TRACEWID
 40
1.0
  9
$TEXTSTYLE
  7
BIGFONT
  9
$CLAYER
  8
P_2DIM
  9
$CELTYPE
  6
BYLAYER
  9
$CECOLOR
 62
   256
  9
$CELTSCALE
 40
1.0
  9
$DISPSILH
 70
     0
  9
$DIMSCALE
 40
5.0
  9
$DIMASZ
 40
2.0
  9
$DIMEXO
 40
3.0
  9
$DIMDLI
 40
8.0
  9
$DIMRND
 40
0.0
  9
$DIMDLE
 40
0.0
  9
$DIMEXE
 40
1.5
  9
$DIMTP
 40
0.0
  9
$DIMTM
 40
0.0
  9
$DIMTXT
 40
3.0
  9
$DIMCEN
 40
0.0
  9
$DIMTSZ
 40
0.0
  9
$DIMTOL
 70
     0
  9
$DIMLIM
 70
     0
  9
$DIMTIH
 70
     0
  9
$DIMTOH
 70
     0
  9
$DIMSE1
 70
     0
  9
$DIMSE2
 70
     0
  9
$DIMTAD
 70
     1
  9
$DIMZIN
 70
     8
  9
$DIMBLK
  1

  9
$DIMASO
 70
     1
  9
$DIMSHO
 70
     1
  9
$DIMPOST
  1

  9
$DIMAPOST
  1

  9
$DIMALT
 70
     0
  9
$DIMALTD
 70
     4
  9
$DIMALTF
 40
25.4
  9
$DIMLFAC
 40
1.0
  9
$DIMTOFL
 70
     0
  9
$DIMTVP
 40
1.0
  9
$DIMTIX
 70
     0
  9
$DIMSOXD
 70
     0
  9
$DIMSAH
 70
     0
  9
$DIMBLK1
  1

  9
$DIMBLK2
  1

  9
$DIMSTYLE
  2
DIMBIGFONT
  9
$DIMCLRD
 70
     0
  9
$DIMCLRE
 70
     0
  9
$DIMCLRT
 70
   230
  9
$DIMTFAC
 40
0.6
  9
$DIMGAP
 40
0.75
  9
$DIMJUST
 70
     0
  9
$DIMSD1
 70
     0
  9
$DIMSD2
 70
     0
  9
$DIMTOLJ
 70
     1
  9
$DIMTZIN
 70
     8
  9
$DIMALTZ
 70
     0
  9
$DIMALTTZ
 70
     0
  9
$DIMUPT
 70
     0
  9
$DIMDEC
 70
     1
  9
$DIMTDEC
 70
     1
  9
$DIMALTU
 70
     8
  9
$DIMALTTD
 70
     4
  9
$DIMTXSTY
  7
BIGFONT
  9
$DIMAUNIT
 70
     0
  9
$DIMADEC
 70
     1
  9
$DIMALTRND
 40
0.0
  9
$DIMAZIN
 70
     2
  9
$DIMDSEP
 70
    46
  9
$DIMATFIT
 70
     3
  9
$DIMFRAC
 70
     0
  9
$DIMLDRBLK
  1

  9
$DIMLUNIT
 70
     2
  9
$DIMLWD
 70
    -2
  9
$DIMLWE
 70
    -2
  9
$DIMTMOVE
 70
     0
  9
$LUNITS
 70
     2
  9
$LUPREC
 70
     6
  9
$SKETCHINC
 40
1.0
  9
$FILLETRAD
 40
10.0
  9
$AUNITS
 70
     0
  9
$AUPREC
 70
     6
  9
$MENU
  1
acad
  9
$ELEVATION
 40
0.0
  9
$PELEVATION
 40
0.0
  9
$THICKNESS
 40
0.0
  9
$LIMCHECK
 70
     0
  9
$CHAMFERA
 40
27.0
  9
$CHAMFERB
 40
27.0
  9
$CHAMFERC
 40
0.0
  9
$CHAMFERD
 40
0.0
  9
$SKPOLY
 70
     0
  9
$TDCREATE
 40
2450626.4569
  9
$TDUCREATE
 40
2450626.0819
  9
$TDUPDATE
 40
2455145.453658415
  9
$TDUUPDATE
 40
2455145.078658415
  9
$TDINDWG
 40
0.1004746759
  9
$TDUSRTIMER
 40
0.1004746759
  9
$USRTIMER
 70
     1
  9
$ANGBASE
 50
0.0
  9
$ANGDIR
 70
     0
  9
$PDMODE
 70
     0
  9
$PDSIZE
 40
0.0
  9
$PLINEWID
 40
0.0
  9
$SPLFRAME
 70
     0
  9
$SPLINETYPE
 70
     6
  9
$SPLINESEGS
 70
     8
  9
$HANDSEED
  5
4C4FB
  9
$SURFTAB1
 70
     6
  9
$SURFTAB2
 70
     6
  9
$SURFTYPE
 70
     6
  9
$SURFU
 70
     6
  9
$SURFV
 70
     6
  9
$UCSBASE
  2

  9
$UCSNAME
  2

  9
$UCSORG
 10
0.0
 20
0.0
 30
0.0
  9
$UCSXDIR
 10
1.0
 20
0.0
 30
0.0
  9
$UCSYDIR
 10
0.0
 20
1.0
 30
0.0
  9
$UCSORTHOREF
  2

  9
$UCSORTHOVIEW
 70
     0
  9
$UCSORGTOP
 10
0.0
 20
0.0
 30
0.0
  9
$UCSORGBOTTOM
 10
0.0
 20
0.0
 30
0.0
  9
$UCSORGLEFT
 10
0.0
 20
0.0
 30
0.0
  9
$UCSORGRIGHT
 10
0.0
 20
0.0
 30
0.0
  9
$UCSORGFRONT
 10
0.0
 20
0.0
 30
0.0
  9
$UCSORGBACK
 10
0.0
 20
0.0
 30
0.0
  9
$PUCSBASE
  2

  9
$PUCSNAME
  2

  9
$PUCSORG
 10
0.0
 20
0.0
 30
0.0
  9
$PUCSXDIR
 10
1.0
 20
0.0
 30
0.0
  9
$PUCSYDIR
 10
0.0
 20
1.0
 30
0.0
  9
$PUCSORTHOREF
  2

  9
$PUCSORTHOVIEW
 70
     0
  9
$PUCSORGTOP
 10
0.0
 20
0.0
 30
0.0
  9
$PUCSORGBOTTOM
 10
0.0
 20
0.0
 30
0.0
  9
$PUCSORGLEFT
 10
0.0
 20
0.0
 30
0.0
  9
$PUCSORGRIGHT
 10
0.0
 20
0.0
 30
0.0
  9
$PUCSORGFRONT
 10
0.0
 20
0.0
 30
0.0
  9
$PUCSORGBACK
 10
0.0
 20
0.0
 30
0.0
  9
$USERI1
 70
     0
  9
$USERI2
 70
     0
  9
$USERI3
 70
     0
  9
$USERI4
 70
     0
  9
$USERI5
 70
     0
  9
$USERR1
 40
0.0
  9
$USERR2
 40
0.0
  9
$USERR3
 40
0.0
  9
$USERR4
 40
0.0
  9
$USERR5
 40
0.0
  9
$WORLDVIEW
 70
     1
  9
$SHADEDGE
 70
     3
  9
$SHADEDIF
 70
    70
  9
$TILEMODE
 70
     1
  9
$MAXACTVP
 70
    16
  9
$PINSBASE
 10
0.0
 20
0.0
 30
0.0
  9
$PLIMCHECK
 70
     0
  9
$PEXTMIN
 10
1.000000000000000E+20
 20
1.000000000000000E+20
 30
1.000000000000000E+20
  9
$PEXTMAX
 10
-1.000000000000000E+20
 20
-1.000000000000000E+20
 30
-1.000000000000000E+20
  9
$PLIMMIN
 10
0.0
 20
0.0
  9
$PLIMMAX
 10
420.0
 20
297.0
  9
$UNITMODE
 70
     0
  9
$VISRETAIN
 70
     0
  9
$PLINEGEN
 70
     0
  9
$PSLTSCALE
 70
     0
  9
$TREEDEPTH
 70
  3020
  9
$CMLSTYLE
  2
STANDARD
  9
$CMLJUST
 70
     0
  9
$CMLSCALE
 40
5.0
  9
$PROXYGRAPHICS
 70
     1
  9
$MEASUREMENT
 70
     1
  9
$CELWEIGHT
370
    -1
  9
$ENDCAPS
280
     0
  9
$JOINSTYLE
280
     0
  9
$LWDISPLAY
290
     0
  9
$INSUNITS
 70
     0
  9
$HYPERLINKBASE
  1

  9
$STYLESHEET
  1

  9
$XEDIT
290
     1
  9
$CEPSNTYPE
380
     0
  9
$PSTYLEMODE
290
     1
  9
$FINGERPRINTGUID
  2
{EB3C933B-3FA3-49D3-BADC-41CC18847996}
  9
$VERSIONGUID
  2
{7A56DF98-60B1-4D69-8969-3463DD134233}
  9
$EXTNAMES
290
     1
  9
$PSVPSCALE
 40
0.0
  9
$OLESTARTUP
290
     0
  0
ENDSEC
  0
SECTION
  2
CLASSES
  0
CLASS
  1
LWPOLYLINE
  2
AcDbPolyline
  3
AutoCAD 2000
 90
        0
280
     0
281
     1
  0
CLASS
  1
ACDBDICTIONARYWDFLT
  2
AcDbDictionaryWithDefault
  3
ObjectDBX Classes
 90
        0
280
     0
281
     0
  0
CLASS
  1
ACDBPLACEHOLDER
  2
AcDbPlaceHolder
  3
ObjectDBX Classes
 90
        0
280
     0
281
     0
  0
CLASS
  1
LAYOUT
  2
AcDbLayout
  3
ObjectDBX Classes
 90
        0
280
     0
281
     0
  0
CLASS
  1
DICTIONARYVAR
  2
AcDbDictionaryVar
  3
ObjectDBX Classes
 90
        0
280
     0
281
     0
  0
CLASS
  1
RTEXT
  2
RText
  3
RText|AutoCAD Express Tool|expresstools@autodesk.com
 90
        0
280
     0
281
     1
  0
ENDSEC
  0
SECTION
  2
TABLES
  0
TABLE
  2
VPORT
  5
4B4AD
330
0
100
AcDbSymbolTable
 70
     2
  0
VPORT
  5
4C4F8
330
4B4AD
100
AcDbSymbolTableRecord
100
AcDbViewportTableRecord
  2
*Active
 70
     0
 10
0.0
 20
0.0
 11
1.0
 21
1.0
 12
1050.047922325784
 22
742.4995696464026
 13
0.0
 23
0.0
 14
25.0
 24
25.0
 15
25.0
 25
25.0
 16
0.0
 26
0.0
 36
1.0
 17
0.0
 27
0.0
 37
0.0
 40
1497.935806688984
 41
1.733812949640288
 42
50.0
 43
0.0
 44
0.0
 50
0.0
 51
0.0
 71
     0
 72
   100
 73
     1
 74
     0
 75
     0
 76
     0
 77
     0
 78
     0
281
     0
 65
     1
110
0.0
120
0.0
130
0.0
111
1.0
121
0.0
131
0.0
112
0.0
122
1.0
132
0.0
 79
     0
146
0.0
  0
ENDTAB
  0
TABLE
  2
LTYPE
  5
4B4AA
330
0
100
AcDbSymbolTable
 70
     5
  0
LTYPE
  5
4B4B7
330
4B4AA
100
AcDbSymbolTableRecord
100
AcDbLinetypeTableRecord
  2
BYBLOCK
 70
     0
  3

 72
    65
 73
     0
 40
0.0
  0
LTYPE
  5
4B4B8
330
4B4AA
100
AcDbSymbolTableRecord
100
AcDbLinetypeTableRecord
  2
BYLAYER
 70
     0
  3

 72
    65
 73
     0
 40
0.0
  0
LTYPE
  5
4B4B9
330
4B4AA
100
AcDbSymbolTableRecord
100
AcDbLinetypeTableRecord
  2
CONTINUOUS
 70
     0
  3
Solid line
 72
    65
 73
     0
 40
0.0
  0
LTYPE
  5
4BD51
330
4B4AA
100
AcDbSymbolTableRecord
100
AcDbLinetypeTableRecord
  2
ACAD_ISO07W100
 70
     0
  3
ISO dot . . . . . . . . . . . . . . . . . . . .
 72
    65
 73
     2
 40
3.5
 49
0.5
 74
     0
 49
-3.0
 74
     0
  0
LTYPE
  5
4BD52
330
4B4AA
100
AcDbSymbolTableRecord
100
AcDbLinetypeTableRecord
  2
CENTER2
 70
     0
  3
Center (.5x) ___ _ ___ _ ___ _ ___ _ ___ _ ___
 72
    65
 73
     4
 40
28.575
 49
19.05
 74
     0
 49
-3.175
 74
     0
 49
3.175
 74
     0
 49
-3.175
 74
     0
  0
LTYPE
  5
4BD53
330
4B4AA
100
AcDbSymbolTableRecord
100
AcDbLinetypeTableRecord
  2
HIDDEN2
 70
     0
  3
Hidden (.5x) _ _ _ _ _ _ _ _ _ _ _ _ _ _ _ _ _
 72
    65
 73
     2
 40
4.762499999999999
 49
3.175
 74
     0
 49
-1.5875
 74
     0
  0
LTYPE
  5
4BD54
330
4B4AA
100
AcDbSymbolTableRecord
100
AcDbLinetypeTableRecord
  2
PHANTOM2
 70
     0
  3
Phantom (.5x) ___ _ _ ___ _ _ ___ _ _ ___ _ _
 72
    65
 73
     6
 40
31.75
 49
15.875
 74
     0
 49
-3.175
 74
     0
 49
3.175
 74
     0
 49
-3.175
 74
     0
 49
3.175
 74
     0
 49
-3.175
 74
     0
  0
ENDTAB
  0
TABLE
  2
LAYER
  5
4B4A7
330
0
100
AcDbSymbolTable
 70
    49
  0
LAYER
  5
4B4B4
330
4B4A7
100
AcDbSymbolTableRecord
100
AcDbLayerTableRecord
  2
0
 70
     0
 62
     7
  6
CONTINUOUS
370
    -3
390
4B7D4
  0
LAYER
  5
4B54C
330
4B4A7
100
AcDbSymbolTableRecord
100
AcDbLayerTableRecord
  2
DEFPOINTS
 70
     0
 62
     7
  6
CONTINUOUS
290
     0
370
    -3
390
4B7D4
  0
LAYER
  5
4BD55
330
4B4A7
100
AcDbSymbolTableRecord
100
AcDbLayerTableRecord
  2
P001
 70
     0
 62
   131
  6
CONTINUOUS
370
    -3
390
4B7D4
  0
LAYER
  5
4BD56
330
4B4A7
100
AcDbSymbolTableRecord
100
AcDbLayerTableRecord
  2
P_5DRAWFRAME
 70
     0
 62
   104
  6
CONTINUOUS
370
    -3
390
4B7D4
  0
LAYER
  5
4BD57
330
4B4A7
100
AcDbSymbolTableRecord
100
AcDbLayerTableRecord
  2
P002
 70
     0
 62
   181
  6
CONTINUOUS
370
    -3
390
4B7D4
  0
LAYER
  5
4BD58
330
4B4A7
100
AcDbSymbolTableRecord
100
AcDbLayerTableRecord
  2
P003
 70
     0
 62
   231
  6
CONTINUOUS
370
    -3
390
4B7D4
  0
LAYER
  5
4BD59
330
4B4A7
100
AcDbSymbolTableRecord
100
AcDbLayerTableRecord
  2
P004
 70
     0
 62
    41
  6
CONTINUOUS
370
    -3
390
4B7D4
  0
LAYER
  5
4BD5A
330
4B4A7
100
AcDbSymbolTableRecord
100
AcDbLayerTableRecord
  2
P005
 70
     0
 62
    91
  6
CONTINUOUS
370
    -3
390
4B7D4
  0
LAYER
  5
4BD5B
330
4B4A7
100
AcDbSymbolTableRecord
100
AcDbLayerTableRecord
  2
P006
 70
     0
 62
   141
  6
CONTINUOUS
370
    -3
390
4B7D4
  0
LAYER
  5
4BD5C
330
4B4A7
100
AcDbSymbolTableRecord
100
AcDbLayerTableRecord
  2
P007
 70
     0
 62
   191
  6
CONTINUOUS
370
    -3
390
4B7D4
  0
LAYER
  5
4BD5D
330
4B4A7
100
AcDbSymbolTableRecord
100
AcDbLayerTableRecord
  2
P008
 70
     0
 62
   241
  6
CONTINUOUS
370
    -3
390
4B7D4
  0
LAYER
  5
4BD5E
330
4B4A7
100
AcDbSymbolTableRecord
100
AcDbLayerTableRecord
  2
P009
 70
     0
 62
    51
  6
CONTINUOUS
370
    -3
390
4B7D4
  0
LAYER
  5
4BD5F
330
4B4A7
100
AcDbSymbolTableRecord
100
AcDbLayerTableRecord
  2
P010
 70
     0
 62
   101
  6
CONTINUOUS
370
    -3
390
4B7D4
  0
LAYER
  5
4BD60
330
4B4A7
100
AcDbSymbolTableRecord
100
AcDbLayerTableRecord
  2
P011
 70
     0
 62
   151
  6
CONTINUOUS
370
    -3
390
4B7D4
  0
LAYER
  5
4BD61
330
4B4A7
100
AcDbSymbolTableRecord
100
AcDbLayerTableRecord
  2
P_1CENTER
 70
     0
 62
     2
  6
CONTINUOUS
370
    -3
390
4B7D4
  0
LAYER
  5
4BD62
330
4B4A7
100
AcDbSymbolTableRecord
100
AcDbLayerTableRecord
  2
P012
 70
     0
 62
   201
  6
CONTINUOUS
370
    -3
390
4B7D4
  0
LAYER
  5
4BD63
330
4B4A7
100
AcDbSymbolTableRecord
100
AcDbLayerTableRecord
  2
P013
 70
     0
 62
    11
  6
CONTINUOUS
370
    -3
390
4B7D4
  0
LAYER
  5
4BD64
330
4B4A7
100
AcDbSymbolTableRecord
100
AcDbLayerTableRecord
  2
P014
 70
     0
 62
    61
  6
CONTINUOUS
370
    -3
390
4B7D4
  0
LAYER
  5
4BD65
330
4B4A7
100
AcDbSymbolTableRecord
100
AcDbLayerTableRecord
  2
P015
 70
     0
 62
   111
  6
CONTINUOUS
370
    -3
390
4B7D4
  0
LAYER
  5
4BD66
330
4B4A7
100
AcDbSymbolTableRecord
100
AcDbLayerTableRecord
  2
P016
 70
     0
 62
   161
  6
CONTINUOUS
370
    -3
390
4B7D4
  0
LAYER
  5
4BD67
330
4B4A7
100
AcDbSymbolTableRecord
100
AcDbLayerTableRecord
  2
P017
 70
     0
 62
   211
  6
CONTINUOUS
370
    -3
390
4B7D4
  0
LAYER
  5
4BD68
330
4B4A7
100
AcDbSymbolTableRecord
100
AcDbLayerTableRecord
  2
P018
 70
     0
 62
    21
  6
CONTINUOUS
370
    -3
390
4B7D4
  0
LAYER
  5
4BD69
330
4B4A7
100
AcDbSymbolTableRecord
100
AcDbLayerTableRecord
  2
P019
 70
     0
 62
    71
  6
CONTINUOUS
370
    -3
390
4B7D4
  0
LAYER
  5
4BD6A
330
4B4A7
100
AcDbSymbolTableRecord
100
AcDbLayerTableRecord
  2
P020
 70
     0
 62
   121
  6
CONTINUOUS
370
    -3
390
4B7D4
  0
LAYER
  5
4BD6B
330
4B4A7
100
AcDbSymbolTableRecord
100
AcDbLayerTableRecord
  2
P_2DIM
 70
     0
 62
     6
  6
CONTINUOUS
370
    -3
390
4B7D4
  0
LAYER
  5
4BD6C
330
4B4A7
100
AcDbSymbolTableRecord
100
AcDbLayerTableRecord
  2
P_3TEXT
 70
     0
 62
    60
  6
CONTINUOUS
370
    -3
390
4B7D4
  0
LAYER
  5
4BD6D
330
4B4A7
100
AcDbSymbolTableRecord
100
AcDbLayerTableRecord
  2
P_4ARCHI
 70
     0
 62
     1
  6
CONTINUOUS
370
    -3
390
4B7D4
  0
LAYER
  5
4BD6E
330
4B4A7
100
AcDbSymbolTableRecord
100
AcDbLayerTableRecord
  2
P_6DMY
 70
     0
 62
   253
  6
CONTINUOUS
370
    -3
390
4B7D4
  0
LAYER
  5
4BD6F
330
4B4A7
100
AcDbSymbolTableRecord
100
AcDbLayerTableRecord
  2
P901
 70
     0
 62
   135
  6
CONTINUOUS
370
    -3
390
4B7D4
  0
LAYER
  5
4BD70
330
4B4A7
100
AcDbSymbolTableRecord
100
AcDbLayerTableRecord
  2
P902
 70
     0
 62
   185
  6
CONTINUOUS
370
    -3
390
4B7D4
  0
LAYER
  5
4BD71
330
4B4A7
100
AcDbSymbolTableRecord
100
AcDbLayerTableRecord
  2
P903
 70
     0
 62
   225
  6
CONTINUOUS
370
    -3
390
4B7D4
  0
LAYER
  5
4BD72
330
4B4A7
100
AcDbSymbolTableRecord
100
AcDbLayerTableRecord
  2
P913
 70
     0
 62
    15
  6
CONTINUOUS
370
    -3
390
4B7D4
  0
LAYER
  5
4BD73
330
4B4A7
100
AcDbSymbolTableRecord
100
AcDbLayerTableRecord
  2
P918
 70
     0
 62
    25
  6
CONTINUOUS
370
    -3
390
4B7D4
  0
LAYER
  5
4BD74
330
4B4A7
100
AcDbSymbolTableRecord
100
AcDbLayerTableRecord
  2
P904
 70
     0
 62
    45
  6
CONTINUOUS
370
    -3
390
4B7D4
  0
LAYER
  5
4BD75
330
4B4A7
100
AcDbSymbolTableRecord
100
AcDbLayerTableRecord
  2
P906
 70
     0
 62
   145
  6
CONTINUOUS
370
    -3
390
4B7D4
  0
LAYER
  5
4BD76
330
4B4A7
100
AcDbSymbolTableRecord
100
AcDbLayerTableRecord
  2
P914
 70
     0
 62
    65
  6
CONTINUOUS
370
    -3
390
4B7D4
  0
LAYER
  5
4BD77
330
4B4A7
100
AcDbSymbolTableRecord
100
AcDbLayerTableRecord
  2
P919
 70
     0
 62
    75
  6
CONTINUOUS
370
    -3
390
4B7D4
  0
LAYER
  5
4BD78
330
4B4A7
100
AcDbSymbolTableRecord
100
AcDbLayerTableRecord
  2
P905
 70
     0
 62
    95
  6
CONTINUOUS
370
    -3
390
4B7D4
  0
LAYER
  5
4BD79
330
4B4A7
100
AcDbSymbolTableRecord
100
AcDbLayerTableRecord
  2
P910
 70
     0
 62
   105
  6
CONTINUOUS
370
    -3
390
4B7D4
  0
LAYER
  5
4BD7A
330
4B4A7
100
AcDbSymbolTableRecord
100
AcDbLayerTableRecord
  2
P915
 70
     0
 62
   115
  6
CONTINUOUS
370
    -3
390
4B7D4
  0
LAYER
  5
4BD7B
330
4B4A7
100
AcDbSymbolTableRecord
100
AcDbLayerTableRecord
  2
P920
 70
     0
 62
   125
  6
CONTINUOUS
370
    -3
390
4B7D4
  0
LAYER
  5
4BD7C
330
4B4A7
100
AcDbSymbolTableRecord
100
AcDbLayerTableRecord
  2
P909
 70
     0
 62
    55
  6
CONTINUOUS
370
    -3
390
4B7D4
  0
LAYER
  5
4BD7D
330
4B4A7
100
AcDbSymbolTableRecord
100
AcDbLayerTableRecord
  2
P911
 70
     0
 62
   155
  6
CONTINUOUS
370
    -3
390
4B7D4
  0
LAYER
  5
4BD7E
330
4B4A7
100
AcDbSymbolTableRecord
100
AcDbLayerTableRecord
  2
P916
 70
     0
 62
   165
  6
CONTINUOUS
370
    -3
390
4B7D4
  0
LAYER
  5
4BD7F
330
4B4A7
100
AcDbSymbolTableRecord
100
AcDbLayerTableRecord
  2
P907
 70
     0
 62
   195
  6
CONTINUOUS
370
    -3
390
4B7D4
  0
LAYER
  5
4BD80
330
4B4A7
100
AcDbSymbolTableRecord
100
AcDbLayerTableRecord
  2
P912
 70
     0
 62
   205
  6
CONTINUOUS
370
    -3
390
4B7D4
  0
LAYER
  5
4BD81
330
4B4A7
100
AcDbSymbolTableRecord
100
AcDbLayerTableRecord
  2
P917
 70
     0
 62
   215
  6
CONTINUOUS
370
    -3
390
4B7D4
  0
LAYER
  5
4BD82
330
4B4A7
100
AcDbSymbolTableRecord
100
AcDbLayerTableRecord
  2
P908
 70
     0
 62
   245
  6
CONTINUOUS
370
    -3
390
4B7D4
  0
LAYER
  5
4BD83
330
4B4A7
100
AcDbSymbolTableRecord
100
AcDbLayerTableRecord
  2
P_7THICK
 70
     0
 62
     7
  6
CONTINUOUS
370
    -3
390
4B7D4
  0
ENDTAB
  0
TABLE
  2
STYLE
  5
4B4A8
330
0
100
AcDbSymbolTable
 70
     7
  0
STYLE
  5
4B4B5
330
4B4A8
100
AcDbSymbolTableRecord
100
AcDbTextStyleTableRecord
  2
STANDARD
 70
     0
 40
0.0
 41
1.0
 50
0.0
 71
     0
 42
15.0
  3
txt
  4
bigfont
  0
STYLE
  5
4B4C3
330
4B4A8
100
AcDbSymbolTableRecord
100
AcDbTextStyleTableRecord
  2
EXTFONT
 70
     0
 40
17.5
 41
1.0
 50
0.0
 71
     0
 42
3.5
  3
txt.shx
  4
extfont
  0
STYLE
  5
4B4C4
330
4B4A8
100
AcDbSymbolTableRecord
100
AcDbTextStyleTableRecord
  2
BIGFONT
 70
     0
 40
0.0
 41
1.0
 50
0.0
 71
     0
 42
15.0
  3
simplex.shx
  4
bigfont.shx
  0
STYLE
  5
4BD84
330
4B4A8
100
AcDbSymbolTableRecord
100
AcDbTextStyleTableRecord
  2

 70
     1
 40
0.0
 41
1.0
 50
0.0
 71
     0
 42
2.5
  3
ltypeshp.shx
  4

  0
STYLE
  5
4BD85
330
4B4A8
100
AcDbSymbolTableRecord
100
AcDbTextStyleTableRecord
  2
GOTHIC
 70
     0
 40
0.0
 41
1.0
 50
0.0
 71
     0
 42
3.0
  3
MS PGothic.ttf
  4

1001
ACAD
1000
MS PGothic
1071
    32818
  0
STYLE
  5
4BD86
330
4B4A8
100
AcDbSymbolTableRecord
100
AcDbTextStyleTableRecord
  2
MINCHO
 70
     0
 40
0.0
 41
1.0
 50
0.0
 71
     0
 42
3.0
  3
MS PMincho.ttf
  4

1001
ACAD
1000
MS PMincho
1071
    32786
  0
STYLE
  5
4BD87
330
4B4A8
100
AcDbSymbolTableRecord
100
AcDbTextStyleTableRecord
  2
RGOTHIC
 70
     0
 40
0.0
 41
1.0
 50
0.0
 71
     0
 42
3.0
  3
HGRSMP.TTF
  4

1001
ACAD
1000
HG丸ｺﾞｼｯｸM-PRO
1071
    32818
  0
ENDTAB
  0
TABLE
  2
VIEW
  5
4B4AB
330
0
100
AcDbSymbolTable
 70
     0
  0
ENDTAB
  0
TABLE
  2
UCS
  5
4B4AC
330
0
100
AcDbSymbolTable
 70
     0
  0
ENDTAB
  0
TABLE
  2
APPID
  5
4B4AE
330
0
100
AcDbSymbolTable
 70
     1
  0
APPID
  5
4B4B6
330
4B4AE
100
AcDbSymbolTableRecord
100
AcDbRegAppTableRecord
  2
ACAD
 70
     0
  0
ENDTAB
  0
TABLE
  2
DIMSTYLE
  5
4B4AF
330
0
100
AcDbSymbolTable
 70
    39
100
AcDbDimStyleTable
  0
DIMSTYLE
105
4B4CB
330
4B4AF
100
AcDbSymbolTableRecord
100
AcDbDimStyleTableRecord
  2
P-DWG
 70
     0
 40
5.0
 41
2.0
 42
3.0
 43
0.0
 44
1.0
 73
     0
 74
     0
 77
     1
 78
     8
140
2.5
141
2.5
143
0.0394
145
0.7000000000000001
146
0.6666666666666666
147
0.3
172
     1
173
     1
176
     2
177
     2
178
     1
271
     2
272
     2
279
     2
340
4B4B5
341
4B536
343
4B536
344
4B536
  0
DIMSTYLE
105
4B501
330
4B4AF
100
AcDbSymbolTableRecord
100
AcDbDimStyleTableRecord
  2
P-DWG$7
 70
     0
 40
5.0
 41
2.0
 42
3.0
 43
0.0
 44
1.0
 73
     0
 74
     0
 77
     1
 78
     8
140
3.0
141
2.5
143
0.0394
145
0.7000000000000001
146
0.6666666666666666
147
0.3
172
     1
173
     1
176
     2
177
     2
178
     1
271
     2
272
     2
279
     2
340
4B4B5
341
4B536
343
4B536
344
4B536
  0
DIMSTYLE
105
4B502
330
4B4AF
100
AcDbSymbolTableRecord
100
AcDbDimStyleTableRecord
  2
VISION
 70
     0
 40
5.0
 41
2.0
 42
0.0
 43
0.0
 44
1.0
 73
     0
 74
     0
 77
     1
 78
     8
140
3.0
141
2.5
143
0.0394
145
0.7000000000000001
146
0.6666666666666666
147
0.3
172
     1
173
     1
176
     2
177
     2
178
     1
271
     0
272
     2
279
     2
340
4B4B5
341
4B536
343
4B536
344
4B536
  0
DIMSTYLE
105
4B503
330
4B4AF
100
AcDbSymbolTableRecord
100
AcDbDimStyleTableRecord
  2
VISION$7
 70
     0
 40
5.0
 41
2.0
 42
0.0
 43
0.0
 44
1.0
 73
     0
 74
     0
 77
     1
 78
     8
140
3.5
141
2.5
143
0.0394
145
0.7000000000000001
146
0.6666666666666666
147
0.5
172
     1
173
     1
176
     2
177
     2
178
     1
271
     0
272
     2
279
     2
340
4B4B5
341
4B536
343
4B536
344
4B536
  0
DIMSTYLE
105
4B7E5
330
4B4AF
100
AcDbSymbolTableRecord
100
AcDbDimStyleTableRecord
  2
STANDARD
 70
     0
340
4B4B5
  0
DIMSTYLE
105
4BD88
330
4B4AF
100
AcDbSymbolTableRecord
100
AcDbDimStyleTableRecord
  2
DIMBIGFONT
 70
     0
 41
2.0
 42
3.0
 43
8.0
 44
1.5
 73
     0
 74
     0
 77
     1
 78
     8
140
3.0
141
0.0
145
1.0
146
0.6
147
0.75
171
     4
173
     1
178
   230
271
     1
272
     1
273
     8
274
     4
284
     8
340
4B4C4
  0
DIMSTYLE
105
4BD89
330
4B4AF
100
AcDbSymbolTableRecord
100
AcDbDimStyleTableRecord
  2
DIMBIGFONT$2
 70
     0
 41
2.0
 42
3.0
 43
8.0
 44
1.5
 73
     0
 74
     0
 77
     1
 78
     8
140
3.0
141
0.0
145
1.0
146
0.6
147
0.75
171
     4
173
     1
178
   230
179
     1
271
     1
272
     1
273
     8
274
     4
284
     8
288
     1
340
4B4C4
  0
DIMSTYLE
105
4BD8A
330
4B4AF
100
AcDbSymbolTableRecord
100
AcDbDimStyleTableRecord
  2
DIMBIGFONT$3
 70
     0
 41
2.0
 42
3.0
 43
8.0
 44
1.5
 77
     1
 78
     8
140
3.0
141
0.0
145
1.0
146
0.6
147
0.75
171
     4
173
     1
178
   230
271
     1
272
     1
273
     8
274
     4
284
     8
288
     1
289
     0
340
4B4C4
  0
DIMSTYLE
105
4BD8B
330
4B4AF
100
AcDbSymbolTableRecord
100
AcDbDimStyleTableRecord
  2
DIMBIGFONT$7
 70
     0
 41
2.0
 42
3.0
 43
8.0
 44
1.5
 73
     0
 74
     0
 77
     1
 78
     8
140
3.0
141
0.0
145
1.0
146
0.6
147
0.75
171
     4
173
     1
178
   230
271
     1
272
     1
273
     8
274
     4
284
     8
340
4B4C4
  0
DIMSTYLE
105
4BD8C
102
{ACAD_REACTORS
330
4C457
330
4C464
330
4C471
330
4C47E
330
4C48B
330
4C498
102
}
330
4B4AF
100
AcDbSymbolTableRecord
100
AcDbDimStyleTableRecord
  2
DIMBIGFONT$0
 70
     0
 41
1.2
 42
3.0
 43
8.0
 44
1.5
 73
     0
 74
     0
 77
     1
 78
     8
140
3.0
141
0.0
145
1.0
146
0.6
147
0.75
171
     4
173
     1
178
   230
271
     1
272
     1
273
     8
274
     4
279
     2
284
     8
340
4B4C4
341
4BD4C
343
4BD4C
344
4BD4C
  0
DIMSTYLE
105
4BD8D
330
4B4AF
100
AcDbSymbolTableRecord
100
AcDbDimStyleTableRecord
  2
DIMGOTHIC
 70
     0
 41
2.0
 42
3.0
 43
8.0
 44
1.5
 73
     0
 74
     0
 77
     1
 78
     8
140
3.0
141
0.0
145
1.0
146
0.6
147
0.75
171
     4
173
     1
178
   230
271
     1
272
     1
273
     8
274
     4
284
     8
340
4BD85
  0
DIMSTYLE
105
4BD8E
330
4B4AF
100
AcDbSymbolTableRecord
100
AcDbDimStyleTableRecord
  2
DIMGOTHIC$2
 70
     0
 41
2.0
 42
3.0
 43
8.0
 44
1.5
 73
     0
 74
     0
 77
     1
 78
     8
140
3.0
141
0.0
146
0.6
147
0.75
171
     4
173
     1
178
   230
179
     1
271
     1
272
     1
273
     8
274
     4
284
     8
288
     1
340
4BD85
  0
DIMSTYLE
105
4BD8F
330
4B4AF
100
AcDbSymbolTableRecord
100
AcDbDimStyleTableRecord
  2
DIMGOTHIC$3
 70
     0
 41
2.0
 42
3.0
 43
8.0
 44
1.5
 77
     1
 78
     8
140
3.0
141
0.0
146
0.6
147
0.75
171
     4
173
     1
178
   230
271
     1
272
     1
273
     8
274
     4
284
     8
288
     1
289
     0
340
4BD85
  0
DIMSTYLE
105
4BD90
330
4B4AF
100
AcDbSymbolTableRecord
100
AcDbDimStyleTableRecord
  2
DIMGOTHIC$7
 70
     0
 41
2.0
 42
3.0
 43
8.0
 44
1.5
 73
     0
 74
     0
 77
     1
 78
     8
140
3.0
141
0.0
146
0.6
147
0.75
171
     4
173
     1
178
   230
271
     1
272
     1
273
     8
274
     4
284
     8
340
4BD85
  0
DIMSTYLE
105
4BD91
330
4B4AF
100
AcDbSymbolTableRecord
100
AcDbDimStyleTableRecord
  2
DIMGOTHIC$0
 70
     0
 41
2.0
 42
3.0
 43
8.0
 44
1.5
 73
     0
 74
     0
 77
     1
 78
     8
140
3.0
141
0.0
146
0.6
147
0.75
171
     4
173
     1
178
   230
271
     1
272
     1
273
     8
274
     4
279
     2
284
     8
340
4BD85
  0
DIMSTYLE
105
4BD92
330
4B4AF
100
AcDbSymbolTableRecord
100
AcDbDimStyleTableRecord
  2
DIMMINCHO
 70
     0
 41
2.0
 42
3.0
 43
8.0
 44
1.5
 73
     0
 74
     0
 77
     1
 78
     8
140
3.0
141
0.0
145
1.0
146
0.6
147
0.75
171
     4
173
     1
178
   230
271
     1
272
     1
273
     8
274
     4
284
     8
340
4BD86
  0
DIMSTYLE
105
4BD93
330
4B4AF
100
AcDbSymbolTableRecord
100
AcDbDimStyleTableRecord
  2
DIMMINCHO$2
 70
     0
 41
2.0
 42
3.0
 43
8.0
 44
1.5
 73
     0
 74
     0
 77
     1
 78
     8
140
3.0
141
0.0
146
0.6
147
0.75
171
     4
173
     1
178
   230
179
     1
271
     1
272
     1
273
     8
274
     4
284
     8
288
     1
340
4BD86
  0
DIMSTYLE
105
4BD94
330
4B4AF
100
AcDbSymbolTableRecord
100
AcDbDimStyleTableRecord
  2
DIMMINCHO$3
 70
     0
 41
2.0
 42
3.0
 43
8.0
 44
1.5
 77
     1
 78
     8
140
3.0
141
0.0
146
0.6
147
0.75
171
     4
173
     1
178
   230
271
     1
272
     1
273
     8
274
     4
284
     8
288
     1
289
     0
340
4BD86
  0
DIMSTYLE
105
4BD95
330
4B4AF
100
AcDbSymbolTableRecord
100
AcDbDimStyleTableRecord
  2
DIMMINCHO$7
 70
     0
 41
2.0
 42
3.0
 43
8.0
 44
1.5
 73
     0
 74
     0
 77
     1
 78
     8
140
3.0
141
0.0
146
0.6
147
0.75
171
     4
173
     1
178
   230
271
     1
272
     1
273
     8
274
     4
284
     8
340
4BD86
  0
DIMSTYLE
105
4BD96
330
4B4AF
100
AcDbSymbolTableRecord
100
AcDbDimStyleTableRecord
  2
DIMMINCHO$0
 70
     0
 41
2.0
 42
3.0
 43
8.0
 44
1.5
 73
     0
 74
     0
 77
     1
 78
     8
140
3.0
141
0.0
146
0.6
147
0.75
171
     4
173
     1
178
   230
271
     1
272
     1
273
     8
274
     4
279
     2
284
     8
340
4BD86
  0
DIMSTYLE
105
4BD97
330
4B4AF
100
AcDbSymbolTableRecord
100
AcDbDimStyleTableRecord
  2
STANDARD$2
 70
     0
 41
2.0
 42
3.0
 43
8.0
 44
1.5
 73
     0
 74
     0
 77
     1
 78
     8
140
3.0
141
0.0
146
0.6
147
0.75
171
     4
173
     1
178
   230
179
     1
271
     1
272
     1
273
     8
274
     4
284
     8
288
     1
340
4B4B5
  0
DIMSTYLE
105
4BD98
330
4B4AF
100
AcDbSymbolTableRecord
100
AcDbDimStyleTableRecord
  2
STANDARD$3
 70
     0
 41
2.0
 42
3.0
 43
8.0
 44
1.5
 77
     1
 78
     8
140
3.0
141
0.0
146
0.6
147
0.75
171
     4
173
     1
178
   230
271
     1
272
     1
273
     8
274
     4
284
     8
288
     1
289
     0
340
4B4B5
  0
DIMSTYLE
105
4BD99
330
4B4AF
100
AcDbSymbolTableRecord
100
AcDbDimStyleTableRecord
  2
STANDARD$7
 70
     0
 41
2.0
 42
3.0
 43
8.0
 44
1.5
 73
     0
 74
     0
 77
     1
 78
     8
140
3.0
141
0.0
146
0.6
147
0.75
171
     4
173
     1
178
   230
271
     1
272
     1
273
     8
274
     4
284
     8
340
4B4B5
  0
DIMSTYLE
105
4BD9A
330
4B4AF
100
AcDbSymbolTableRecord
100
AcDbDimStyleTableRecord
  2
STANDARD$0
 70
     0
 41
2.0
 42
3.0
 43
8.0
 44
1.5
 73
     0
 74
     0
 77
     1
 78
     8
140
3.0
141
0.0
146
0.6
147
0.75
171
     4
173
     1
178
   230
271
     1
272
     1
273
     8
274
     4
279
     2
284
     8
340
4B4B5
  0
DIMSTYLE
105
4BD9B
330
4B4AF
100
AcDbSymbolTableRecord
100
AcDbDimStyleTableRecord
  2
STANDARD$4
 70
     0
 41
2.0
 42
3.0
 43
8.0
 44
1.5
 73
     0
 74
     0
 77
     1
 78
     8
140
3.0
141
0.0
146
0.6
147
0.75
171
     4
173
     1
178
   230
271
     1
272
     1
273
     8
274
     4
284
     8
340
4B4B5
  0
DIMSTYLE
105
4BD9C
330
4B4AF
100
AcDbSymbolTableRecord
100
AcDbDimStyleTableRecord
  2
STANDARD$6
 70
     0
 41
2.0
 42
3.0
 43
8.0
 44
1.5
 73
     0
 74
     0
 77
     1
 78
     8
140
3.0
141
0.0
146
0.6
147
0.75
171
     4
173
     1
178
   230
271
     1
272
     1
273
     8
274
     4
284
     8
340
4B4B5
  0
DIMSTYLE
105
4BD9D
330
4B4AF
100
AcDbSymbolTableRecord
100
AcDbDimStyleTableRecord
  2
DIMBIGFONT$4
 70
     0
 41
2.0
 42
3.0
 43
8.0
 44
1.5
 73
     0
 74
     0
 77
     1
 78
     8
140
3.0
141
0.0
145
1.0
146
0.6
147
0.75
171
     4
173
     1
178
   230
271
     1
272
     1
273
     8
274
     4
284
     8
340
4B4C4
  0
DIMSTYLE
105
4BD9E
330
4B4AF
100
AcDbSymbolTableRecord
100
AcDbDimStyleTableRecord
  2
DIMBIGFONT$6
 70
     0
 41
2.0
 42
3.0
 43
8.0
 44
1.5
 73
     0
 74
     0
 77
     1
 78
     8
140
3.0
141
0.0
145
1.0
146
0.6
147
0.75
171
     4
173
     1
178
   230
271
     1
272
     1
273
     8
274
     4
284
     8
340
4B4C4
  0
DIMSTYLE
105
4BD9F
330
4B4AF
100
AcDbSymbolTableRecord
100
AcDbDimStyleTableRecord
  2
DIMGOTHIC$4
 70
     0
 41
2.0
 42
3.0
 43
8.0
 44
1.5
 73
     0
 74
     0
 77
     1
 78
     8
140
3.0
141
0.0
146
0.6
147
0.75
171
     4
173
     1
178
   230
271
     1
272
     1
273
     8
274
     4
284
     8
340
4BD85
  0
DIMSTYLE
105
4BDA0
330
4B4AF
100
AcDbSymbolTableRecord
100
AcDbDimStyleTableRecord
  2
DIMGOTHIC$6
 70
     0
 41
2.0
 42
3.0
 43
8.0
 44
1.5
 73
     0
 74
     0
 77
     1
 78
     8
140
3.0
141
0.0
146
0.6
147
0.75
171
     4
173
     1
178
   230
271
     1
272
     1
273
     8
274
     4
284
     8
340
4BD85
  0
DIMSTYLE
105
4BDA1
330
4B4AF
100
AcDbSymbolTableRecord
100
AcDbDimStyleTableRecord
  2
DIMMINCHO$4
 70
     0
 41
2.0
 42
3.0
 43
8.0
 44
1.5
 73
     0
 74
     0
 77
     1
 78
     8
140
3.0
141
0.0
146
0.6
147
0.75
171
     4
173
     1
178
   230
271
     1
272
     1
273
     8
274
     4
284
     8
340
4BD86
  0
DIMSTYLE
105
4BDA2
330
4B4AF
100
AcDbSymbolTableRecord
100
AcDbDimStyleTableRecord
  2
DIMMINCHO$6
 70
     0
 41
2.0
 42
3.0
 43
8.0
 44
1.5
 73
     0
 74
     0
 77
     1
 78
     8
140
3.0
141
0.0
146
0.6
147
0.75
171
     4
173
     1
178
   230
271
     1
272
     1
273
     8
274
     4
284
     8
340
4BD86
  0
DIMSTYLE
105
4BDA3
330
4B4AF
100
AcDbSymbolTableRecord
100
AcDbDimStyleTableRecord
  2
DIMRGOTHIC
 70
     0
 41
2.0
 42
3.0
 43
8.0
 44
1.5
 73
     0
 74
     0
 77
     1
 78
     8
140
3.0
141
0.0
145
1.0
146
0.6
147
0.75
171
     4
173
     1
178
   230
271
     1
272
     1
273
     8
274
     4
284
     8
340
4BD87
  0
DIMSTYLE
105
4BDA4
330
4B4AF
100
AcDbSymbolTableRecord
100
AcDbDimStyleTableRecord
  2
DIMRGOTHIC$4
 70
     0
 41
2.0
 42
3.0
 43
8.0
 44
1.5
 73
     0
 74
     0
 77
     1
 78
     8
140
3.0
141
0.0
146
0.6
147
0.75
171
     4
173
     1
178
   230
271
     1
272
     1
273
     8
274
     4
284
     8
340
4BD87
  0
DIMSTYLE
105
4BDA5
330
4B4AF
100
AcDbSymbolTableRecord
100
AcDbDimStyleTableRecord
  2
DIMRGOTHIC$6
 70
     0
 41
2.0
 42
3.0
 43
8.0
 44
1.5
 73
     0
 74
     0
 77
     1
 78
     8
140
3.0
141
0.0
146
0.6
147
0.75
171
     4
173
     1
178
   230
271
     1
272
     1
273
     8
274
     4
284
     8
340
4BD87
  0
DIMSTYLE
105
4BDA6
330
4B4AF
100
AcDbSymbolTableRecord
100
AcDbDimStyleTableRecord
  2
DIMRGOTHIC$2
 70
     0
 41
2.0
 42
3.0
 43
8.0
 44
1.5
 73
     0
 74
     0
 77
     1
 78
     8
140
3.0
141
0.0
146
0.6
147
0.75
171
     4
173
     1
178
   230
179
     1
271
     1
272
     1
273
     8
274
     4
284
     8
288
     1
340
4BD87
  0
DIMSTYLE
105
4BDA7
330
4B4AF
100
AcDbSymbolTableRecord
100
AcDbDimStyleTableRecord
  2
DIMRGOTHIC$3
 70
     0
 41
2.0
 42
3.0
 43
8.0
 44
1.5
 77
     1
 78
     8
140
3.0
141
0.0
146
0.6
147
0.75
171
     4
173
     1
178
   230
271
     1
272
     1
273
     8
274
     4
284
     8
288
     1
289
     0
340
4BD87
  0
DIMSTYLE
105
4BDA8
330
4B4AF
100
AcDbSymbolTableRecord
100
AcDbDimStyleTableRecord
  2
DIMRGOTHIC$7
 70
     0
 41
2.0
 42
3.0
 43
8.0
 44
1.5
 73
     0
 74
     0
 77
     1
 78
     8
140
3.0
141
0.0
146
0.6
147
0.75
171
     4
173
     1
178
   230
271
     1
272
     1
273
     8
274
     4
284
     8
340
4BD87
  0
DIMSTYLE
105
4BDA9
330
4B4AF
100
AcDbSymbolTableRecord
100
AcDbDimStyleTableRecord
  2
DIMRGOTHIC$0
 70
     0
 41
2.0
 42
3.0
 43
8.0
 44
1.5
 73
     0
 74
     0
 77
     1
 78
     8
140
3.0
141
0.0
146
0.6
147
0.75
171
     4
173
     1
178
   230
271
     1
272
     1
273
     8
274
     4
279
     2
284
     8
340
4BD87
  0
ENDTAB
  0
TABLE
  2
BLOCK_RECORD
  5
4B4A6
330
0
100
AcDbSymbolTable
 70
     9
  0
BLOCK_RECORD
  5
4B4BD
330
4B4A6
100
AcDbSymbolTableRecord
100
AcDbBlockTableRecord
  2
*MODEL_SPACE
340
4B7D7
  0
BLOCK_RECORD
  5
4B4BA
330
4B4A6
100
AcDbSymbolTableRecord
100
AcDbBlockTableRecord
  2
*PAPER_SPACE
340
4B7D8
  0
BLOCK_RECORD
  5
4B536
330
4B4A6
100
AcDbSymbolTableRecord
100
AcDbBlockTableRecord
  2
_OPEN
340
0
  0
BLOCK_RECORD
  5
4B7F3
330
4B4A6
100
AcDbSymbolTableRecord
100
AcDbBlockTableRecord
  2
DFP3
340
0
102
{BLKREFS
331
4C3C4
102
}
  0
BLOCK_RECORD
  5
4BD4C
330
4B4A6
100
AcDbSymbolTableRecord
100
AcDbBlockTableRecord
  2
_DOT
340
0
  0
BLOCK_RECORD
  5
4C458
330
4B4A6
100
AcDbSymbolTableRecord
100
AcDbBlockTableRecord
  2
*D3
340
0
  0
BLOCK_RECORD
  5
4C465
330
4B4A6
100
AcDbSymbolTableRecord
100
AcDbBlockTableRecord
  2
*D4
340
0
  0
BLOCK_RECORD
  5
4C472
330
4B4A6
100
AcDbSymbolTableRecord
100
AcDbBlockTableRecord
  2
*D5
340
0
  0
BLOCK_RECORD
  5
4C47F
330
4B4A6
100
AcDbSymbolTableRecord
100
AcDbBlockTableRecord
  2
*D6
340
0
  0
BLOCK_RECORD
  5
4C48C
330
4B4A6
100
AcDbSymbolTableRecord
100
AcDbBlockTableRecord
  2
*D7
340
0
  0
BLOCK_RECORD
  5
4C499
330
4B4A6
100
AcDbSymbolTableRecord
100
AcDbBlockTableRecord
  2
*D8
340
0
  0
ENDTAB
  0
ENDSEC
  0
SECTION
  2
BLOCKS
  0
BLOCK
  5
4B4D4
330
4B4BD
100
AcDbEntity
  8
0
100
AcDbBlockBegin
  2
*MODEL_SPACE
 70
     0
 10
0.0
 20
0.0
 30
0.0
  3
*MODEL_SPACE
  1

  0
ENDBLK
  5
4B4D5
330
4B4BD
100
AcDbEntity
  8
0
100
AcDbBlockEnd
  0
BLOCK
  5
4B4D2
330
4B4BA
100
AcDbEntity
 67
     1
  8
0
100
AcDbBlockBegin
  2
*PAPER_SPACE
 70
     0
 10
0.0
 20
0.0
 30
0.0
  3
*PAPER_SPACE
  1

  0
ENDBLK
  5
4B4D3
330
4B4BA
100
AcDbEntity
 67
     1
  8
0
100
AcDbBlockEnd
  0
BLOCK
  5
4B537
330
4B536
100
AcDbEntity
  8
0
 48
0.5
100
AcDbBlockBegin
  2
_OPEN
 70
     0
 10
0.0
 20
0.0
 30
0.0
  3
_OPEN
  1

  0
LINE
  5
4B538
330
4B536
100
AcDbEntity
  8
0
  6
ByBlock
 62
     0
 48
0.5
100
AcDbLine
 10
-1.0
 20
0.1666666666666667
 30
0.0
 11
0.0
 21
0.0
 31
0.0
  0
LINE
  5
4B539
330
4B536
100
AcDbEntity
  8
0
  6
ByBlock
 62
     0
 48
0.5
100
AcDbLine
 10
0.0
 20
0.0
 30
0.0
 11
-1.0
 21
-0.1666666666666667
 31
0.0
  0
LINE
  5
4B53A
330
4B536
100
AcDbEntity
  8
0
  6
ByBlock
 62
     0
 48
0.5
100
AcDbLine
 10
0.0
 20
0.0
 30
0.0
 11
-1.0
 21
0.0
 31
0.0
  0
ENDBLK
  5
4B53B
330
4B536
100
AcDbEntity
  8
0
 48
0.5
100
AcDbBlockEnd
  0
BLOCK
  5
4BD2A
330
4B7F3
100
AcDbEntity
  8
0
100
AcDbBlockBegin
  2
DFP3
 70
     2
 10
0.0
 20
0.0
 30
0.0
  3
DFP3
  1

  0
LINE
  5
4BE8E
330
4B7F3
100
AcDbEntity
  8
DEFPOINTS
 62
     0
100
AcDbLine
 10
420.0
 20
297.0
 30
0.0
 11
420.0
 21
0.0
 31
0.0
  0
LINE
  5
4BE8F
330
4B7F3
100
AcDbEntity
  8
DEFPOINTS
 62
     0
100
AcDbLine
 10
0.0
 20
297.0
 30
0.0
 11
0.0
 21
0.0
 31
0.0
  0
LINE
  5
4BE90
330
4B7F3
100
AcDbEntity
  8
0
 62
     0
100
AcDbLine
 10
21.5
 20
9.75
 30
0.0
 11
408.0
 21
9.75
 31
0.0
  0
LINE
  5
4BE91
330
4B7F3
100
AcDbEntity
  8
0
 62
     0
100
AcDbLine
 10
21.5
 20
9.699999999999818
 30
0.0
 11
408.0
 21
9.699999999999818
 31
0.0
  0
LINE
  5
4BE92
330
4B7F3
100
AcDbEntity
  8
0
 62
     0
100
AcDbLine
 10
21.5
 20
9.650000000000091
 30
0.0
 11
408.0
 21
9.650000000000091
 31
0.0
  0
LINE
  5
4BE93
330
4B7F3
100
AcDbEntity
  8
0
 62
     0
100
AcDbLine
 10
21.5
 20
32.5
 30
0.0
 11
408.0
 21
32.5
 31
0.0
  0
LINE
  5
4BE94
330
4B7F3
100
AcDbEntity
  8
0
 62
     0
100
AcDbLine
 10
21.5
 20
32.55000000000018
 30
0.0
 11
408.0
 21
32.55000000000018
 31
0.0
  0
LINE
  5
4BE95
330
4B7F3
100
AcDbEntity
  8
0
 62
     0
100
AcDbLine
 10
21.5
 20
33.5
 30
0.0
 11
408.0
 21
33.5
 31
0.0
  0
LINE
  5
4BE96
330
4B7F3
100
AcDbEntity
  8
0
 62
     0
100
AcDbLine
 10
21.5
 20
33.44999999999982
 30
0.0
 11
408.0
 21
33.44999999999982
 31
0.0
  0
LINE
  5
4BE97
330
4B7F3
100
AcDbEntity
  8
0
 62
     0
100
AcDbLine
 10
21.5
 20
9.599999999999909
 30
0.0
 11
408.0
 21
9.599999999999909
 31
0.0
  0
LINE
  5
4BE98
330
4B7F3
100
AcDbEntity
  8
0
 62
     0
100
AcDbLine
 10
21.5
 20
9.550000000000182
 30
0.0
 11
408.0
 21
9.550000000000182
 31
0.0
  0
LINE
  5
4BE99
330
4B7F3
100
AcDbEntity
  8
0
 62
     0
100
AcDbLine
 10
21.5
 20
9.5
 30
0.0
 11
408.0
 21
9.5
 31
0.0
  0
LINE
  5
4BE9A
330
4B7F3
100
AcDbEntity
  8
0
 62
     0
100
AcDbLine
 10
21.5
 20
9.449999999999818
 30
0.0
 11
408.0
 21
9.449999999999818
 31
0.0
  0
LINE
  5
4BE9B
330
4B7F3
100
AcDbEntity
  8
0
 62
     0
100
AcDbLine
 10
21.5
 20
8.75
 30
0.0
 11
408.0
 21
8.75
 31
0.0
  0
LINE
  5
4BE9C
330
4B7F3
100
AcDbEntity
  8
0
 62
     0
100
AcDbLine
 10
21.5
 20
8.800000000000182
 30
0.0
 11
408.0
 21
8.800000000000182
 31
0.0
  0
LINE
  5
4BE9D
330
4B7F3
100
AcDbEntity
  8
0
 62
     0
100
AcDbLine
 10
21.5
 20
8.849999999999909
 30
0.0
 11
408.0
 21
8.849999999999909
 31
0.0
  0
LINE
  5
4BE9E
330
4B7F3
100
AcDbEntity
  8
0
 62
     0
100
AcDbLine
 10
21.5
 20
8.900000000000091
 30
0.0
 11
408.0
 21
8.900000000000091
 31
0.0
  0
LINE
  5
4BE9F
330
4B7F3
100
AcDbEntity
  8
0
 62
     0
100
AcDbLine
 10
21.5
 20
8.949999999999818
 30
0.0
 11
408.0
 21
8.949999999999818
 31
0.0
  0
LINE
  5
4BEA0
330
4B7F3
100
AcDbEntity
  8
0
 62
     0
100
AcDbLine
 10
21.5
 20
9.0
 30
0.0
 11
408.0
 21
9.0
 31
0.0
  0
LINE
  5
4BEA1
330
4B7F3
100
AcDbEntity
  8
0
 62
     0
100
AcDbLine
 10
21.5
 20
9.050000000000182
 30
0.0
 11
408.0
 21
9.050000000000182
 31
0.0
  0
LINE
  5
4BEA2
330
4B7F3
100
AcDbEntity
  8
0
 62
     0
100
AcDbLine
 10
21.5
 20
9.099999999999909
 30
0.0
 11
408.0
 21
9.099999999999909
 31
0.0
  0
LINE
  5
4BEA3
330
4B7F3
100
AcDbEntity
  8
0
 62
     0
100
AcDbLine
 10
21.5
 20
9.150000000000091
 30
0.0
 11
408.0
 21
9.150000000000091
 31
0.0
  0
LINE
  5
4BEA4
330
4B7F3
100
AcDbEntity
  8
0
 62
     0
100
AcDbLine
 10
21.5
 20
9.199999999999818
 30
0.0
 11
408.0
 21
9.199999999999818
 31
0.0
  0
LINE
  5
4BEA5
330
4B7F3
100
AcDbEntity
  8
0
 62
     0
100
AcDbLine
 10
21.5
 20
9.25
 30
0.0
 11
408.0
 21
9.25
 31
0.0
  0
LINE
  5
4BEA6
330
4B7F3
100
AcDbEntity
  8
0
 62
     0
100
AcDbLine
 10
21.5
 20
9.300000000000182
 30
0.0
 11
408.0
 21
9.300000000000182
 31
0.0
  0
LINE
  5
4BEA7
330
4B7F3
100
AcDbEntity
  8
0
 62
     0
100
AcDbLine
 10
21.5
 20
9.349999999999909
 30
0.0
 11
408.0
 21
9.349999999999909
 31
0.0
  0
LINE
  5
4BEA8
330
4B7F3
100
AcDbEntity
  8
0
 62
     0
100
AcDbLine
 10
21.5
 20
9.400000000000091
 30
0.0
 11
408.0
 21
9.400000000000091
 31
0.0
  0
LINE
  5
4BEA9
330
4B7F3
100
AcDbEntity
  8
0
 62
     0
100
AcDbLine
 10
21.5
 20
33.34999999999991
 30
0.0
 11
408.0
 21
33.34999999999991
 31
0.0
  0
LINE
  5
4BEAA
330
4B7F3
100
AcDbEntity
  8
0
 62
     0
100
AcDbLine
 10
21.5
 20
33.05000000000018
 30
0.0
 11
408.0
 21
33.05000000000018
 31
0.0
  0
LINE
  5
4BEAB
330
4B7F3
100
AcDbEntity
  8
0
 62
     0
100
AcDbLine
 10
21.5
 20
32.94999999999982
 30
0.0
 11
408.0
 21
32.94999999999982
 31
0.0
  0
LINE
  5
4BEAC
330
4B7F3
100
AcDbEntity
  8
0
 62
     0
100
AcDbLine
 10
21.5
 20
32.75
 30
0.0
 11
408.0
 21
32.75
 31
0.0
  0
LINE
  5
4BEAD
330
4B7F3
100
AcDbEntity
  8
0
 62
     0
100
AcDbLine
 10
21.5
 20
32.65000000000009
 30
0.0
 11
408.0
 21
32.65000000000009
 31
0.0
  0
LINE
  5
4BEAE
330
4B7F3
100
AcDbEntity
  8
0
 62
     0
100
AcDbLine
 10
21.5
 20
32.84999999999991
 30
0.0
 11
408.0
 21
32.84999999999991
 31
0.0
  0
LINE
  5
4BEAF
330
4B7F3
100
AcDbEntity
  8
0
 62
     0
100
AcDbLine
 10
21.5
 20
33.15000000000009
 30
0.0
 11
408.0
 21
33.15000000000009
 31
0.0
  0
LINE
  5
4BEB0
330
4B7F3
100
AcDbEntity
  8
0
 62
     0
100
AcDbLine
 10
21.5
 20
33.25
 30
0.0
 11
408.0
 21
33.25
 31
0.0
  0
LINE
  5
4BEB1
330
4B7F3
100
AcDbEntity
  8
0
 62
     0
100
AcDbLine
 10
21.5
 20
32.90000000000009
 30
0.0
 11
408.0
 21
32.90000000000009
 31
0.0
  0
LINE
  5
4BEB2
330
4B7F3
100
AcDbEntity
  8
0
 62
     0
100
AcDbLine
 10
21.5
 20
32.59999999999991
 30
0.0
 11
408.0
 21
32.59999999999991
 31
0.0
  0
LINE
  5
4BEB3
330
4B7F3
100
AcDbEntity
  8
0
 62
     0
100
AcDbLine
 10
21.5
 20
32.69999999999982
 30
0.0
 11
408.0
 21
32.69999999999982
 31
0.0
  0
LINE
  5
4BEB4
330
4B7F3
100
AcDbEntity
  8
0
 62
     0
100
AcDbLine
 10
21.5
 20
32.80000000000018
 30
0.0
 11
408.0
 21
32.80000000000018
 31
0.0
  0
LINE
  5
4BEB5
330
4B7F3
100
AcDbEntity
  8
0
 62
     0
100
AcDbLine
 10
21.5
 20
33.40000000000009
 30
0.0
 11
408.0
 21
33.40000000000009
 31
0.0
  0
LINE
  5
4BEB6
330
4B7F3
100
AcDbEntity
  8
0
 62
     0
100
AcDbLine
 10
21.5
 20
33.30000000000018
 30
0.0
 11
408.0
 21
33.30000000000018
 31
0.0
  0
LINE
  5
4BEB7
330
4B7F3
100
AcDbEntity
  8
0
 62
     0
100
AcDbLine
 10
21.5
 20
33.19999999999982
 30
0.0
 11
408.0
 21
33.19999999999982
 31
0.0
  0
LINE
  5
4BEB8
330
4B7F3
100
AcDbEntity
  8
0
 62
     0
100
AcDbLine
 10
21.5
 20
33.09999999999991
 30
0.0
 11
408.0
 21
33.09999999999991
 31
0.0
  0
LINE
  5
4BEB9
330
4B7F3
100
AcDbEntity
  8
0
 62
     0
100
AcDbLine
 10
21.5
 20
33.0
 30
0.0
 11
408.0
 21
33.0
 31
0.0
  0
LINE
  5
4BEBA
330
4B7F3
100
AcDbEntity
  8
DEFPOINTS
 62
     0
100
AcDbLine
 10
0.0
 20
0.0
 30
0.0
 11
420.0
 21
0.0
 31
0.0
  0
LINE
  5
4BEBB
330
4B7F3
100
AcDbEntity
  8
0
 62
     0
100
AcDbLine
 10
88.5
 20
15.02500000000009
 30
0.0
 11
115.5
 21
15.02500000000009
 31
0.0
  0
LINE
  5
4BEBC
330
4B7F3
100
AcDbEntity
  8
0
 62
     0
100
AcDbLine
 10
88.5
 20
21.02500000000009
 30
0.0
 11
115.5
 21
21.02500000000009
 31
0.0
  0
LINE
  5
4BEBD
330
4B7F3
100
AcDbEntity
  8
0
 62
     0
100
AcDbLine
 10
88.5
 20
27.02500000000009
 30
0.0
 11
115.5
 21
27.02500000000009
 31
0.0
  0
LINE
  5
4BEBE
330
4B7F3
100
AcDbEntity
  8
0
 62
     0
100
AcDbLine
 10
21.5
 20
15.02500000000009
 30
0.0
 11
86.5
 21
15.02500000000009
 31
0.0
  0
LINE
  5
4BEBF
330
4B7F3
100
AcDbEntity
  8
0
 62
     0
100
AcDbLine
 10
21.5
 20
21.02500000000009
 30
0.0
 11
86.5
 21
21.02500000000009
 31
0.0
  0
LINE
  5
4BEC0
330
4B7F3
100
AcDbEntity
  8
0
 62
     0
100
AcDbLine
 10
21.5
 20
27.02500000000009
 30
0.0
 11
86.5
 21
27.02500000000009
 31
0.0
  0
LINE
  5
4BEC1
330
4B7F3
100
AcDbEntity
  8
0
 62
     0
100
AcDbLine
 10
106.25
 20
27.82499999999982
 30
0.0
 11
106.5
 21
27.57499999999982
 31
0.0
  0
LINE
  5
4BEC2
330
4B7F3
100
AcDbEntity
  8
0
 62
     0
100
AcDbLine
 10
106.2579940000001
 20
27.88771600000018
 30
0.0
 11
106.5627159999999
 21
27.58299399999987
 31
0.0
  0
LINE
  5
4BEC3
330
4B7F3
100
AcDbEntity
  8
0
 62
     0
100
AcDbLine
 10
106.2774770000001
 20
27.93894499999988
 30
0.0
 11
106.6139450000001
 21
27.60247699999991
 31
0.0
  0
LINE
  5
4BEC4
330
4B7F3
100
AcDbEntity
  8
0
 62
     0
100
AcDbLine
 10
106.305306
 20
27.98182600000018
 30
0.0
 11
106.6568259999999
 21
27.63030600000002
 31
0.0
  0
LINE
  5
4BEC5
330
4B7F3
100
AcDbEntity
  8
0
 62
     0
100
AcDbLine
 10
106.3404089999999
 20
28.01743399999987
 30
0.0
 11
106.692434
 21
27.66540900000018
 31
0.0
  0
LINE
  5
4BEC6
330
4B7F3
100
AcDbEntity
  8
0
 62
     0
100
AcDbLine
 10
106.3827529999999
 20
28.04580100000021
 30
0.0
 11
106.7208009999999
 21
27.70775300000014
 31
0.0
  0
LINE
  5
4BEC7
330
4B7F3
100
AcDbEntity
  8
0
 62
     0
100
AcDbLine
 10
106.4333200000001
 20
28.06594399999994
 30
0.0
 11
106.7409440000001
 21
27.75831999999991
 31
0.0
  0
LINE
  5
4BEC8
330
4B7F3
100
AcDbEntity
  8
0
 62
     0
100
AcDbLine
 10
106.4950240000001
 20
28.07495000000017
 30
0.0
 11
106.7499499999999
 21
27.8200240000001
 31
0.0
  0
LINE
  5
4BEC9
330
4B7F3
100
AcDbEntity
  8
0
 62
     0
100
AcDbLine
 10
106.578246
 20
28.06244000000015
 30
0.0
 11
106.7374399999999
 21
27.90324599999985
 31
0.0
  0
LINE
  5
4BECA
330
4B7F3
100
AcDbEntity
  8
0
 62
     0
100
AcDbLine
 10
106.2652390000001
 20
27.73905000000013
 30
0.0
 11
106.4140499999999
 21
27.59023900000011
 31
0.0
  0
LINE
  5
4BECB
330
4B7F3
100
AcDbEntity
  8
0
 62
     0
100
AcDbLine
 10
106.25
 20
27.82499999999982
 30
0.0
 11
106.5
 21
28.07499999999982
 31
0.0
  0
LINE
  5
4BECC
330
4B7F3
100
AcDbEntity
  8
0
 62
     0
100
AcDbLine
 10
106.2579940000001
 20
27.76228399999991
 30
0.0
 11
106.5627159999999
 21
28.06700600000022
 31
0.0
  0
LINE
  5
4BECD
330
4B7F3
100
AcDbEntity
  8
0
 62
     0
100
AcDbLine
 10
106.2774770000001
 20
27.71105500000021
 30
0.0
 11
106.6139450000001
 21
28.04752300000018
 31
0.0
  0
LINE
  5
4BECE
330
4B7F3
100
AcDbEntity
  8
0
 62
     0
100
AcDbLine
 10
106.305306
 20
27.66817399999991
 30
0.0
 11
106.6568259999999
 21
28.01969400000007
 31
0.0
  0
LINE
  5
4BECF
330
4B7F3
100
AcDbEntity
  8
0
 62
     0
100
AcDbLine
 10
106.3404089999999
 20
27.63256600000022
 30
0.0
 11
106.692434
 21
27.98459099999991
 31
0.0
  0
LINE
  5
4BED0
330
4B7F3
100
AcDbEntity
  8
0
 62
     0
100
AcDbLine
 10
106.3827529999999
 20
27.60419899999988
 30
0.0
 11
106.7208009999999
 21
27.94224699999995
 31
0.0
  0
LINE
  5
4BED1
330
4B7F3
100
AcDbEntity
  8
0
 62
     0
100
AcDbLine
 10
106.4333200000001
 20
27.58405600000015
 30
0.0
 11
106.7409440000001
 21
27.89168000000018
 31
0.0
  0
LINE
  5
4BED2
330
4B7F3
100
AcDbEntity
  8
0
 62
     0
100
AcDbLine
 10
106.4950240000001
 20
27.57504999999992
 30
0.0
 11
106.7499499999999
 21
27.82997599999999
 31
0.0
  0
LINE
  5
4BED3
330
4B7F3
100
AcDbEntity
  8
0
 62
     0
100
AcDbLine
 10
106.578246
 20
27.58755999999994
 30
0.0
 11
106.7374399999999
 21
27.74675399999978
 31
0.0
  0
LINE
  5
4BED4
330
4B7F3
100
AcDbEntity
  8
0
 62
     0
100
AcDbLine
 10
106.2652390000001
 20
27.91094999999996
 30
0.0
 11
106.4140499999999
 21
28.05976099999998
 31
0.0
  0
LINE
  5
4BED5
330
4B7F3
100
AcDbEntity
  8
0
 62
     0
100
AcDbLine
 10
106.25
 20
21.82499999999982
 30
0.0
 11
106.5
 21
21.57499999999982
 31
0.0
  0
LINE
  5
4BED6
330
4B7F3
100
AcDbEntity
  8
0
 62
     0
100
AcDbLine
 10
106.2579940000001
 20
21.88771600000018
 30
0.0
 11
106.5627159999999
 21
21.58299399999987
 31
0.0
  0
LINE
  5
4BED7
330
4B7F3
100
AcDbEntity
  8
0
 62
     0
100
AcDbLine
 10
106.2774770000001
 20
21.93894499999988
 30
0.0
 11
106.6139450000001
 21
21.60247699999991
 31
0.0
  0
LINE
  5
4BED8
330
4B7F3
100
AcDbEntity
  8
0
 62
     0
100
AcDbLine
 10
106.305306
 20
21.98182600000018
 30
0.0
 11
106.6568259999999
 21
21.63030600000002
 31
0.0
  0
LINE
  5
4BED9
330
4B7F3
100
AcDbEntity
  8
0
 62
     0
100
AcDbLine
 10
106.3404089999999
 20
22.01743399999987
 30
0.0
 11
106.692434
 21
21.66540900000018
 31
0.0
  0
LINE
  5
4BEDA
330
4B7F3
100
AcDbEntity
  8
0
 62
     0
100
AcDbLine
 10
106.3827529999999
 20
22.04580100000021
 30
0.0
 11
106.7208009999999
 21
21.70775300000014
 31
0.0
  0
LINE
  5
4BEDB
330
4B7F3
100
AcDbEntity
  8
0
 62
     0
100
AcDbLine
 10
106.4333200000001
 20
22.06594399999994
 30
0.0
 11
106.7409440000001
 21
21.75831999999991
 31
0.0
  0
LINE
  5
4BEDC
330
4B7F3
100
AcDbEntity
  8
0
 62
     0
100
AcDbLine
 10
106.4950240000001
 20
22.07495000000017
 30
0.0
 11
106.7499499999999
 21
21.8200240000001
 31
0.0
  0
LINE
  5
4BEDD
330
4B7F3
100
AcDbEntity
  8
0
 62
     0
100
AcDbLine
 10
106.578246
 20
22.06244000000015
 30
0.0
 11
106.7374399999999
 21
21.90324599999985
 31
0.0
  0
LINE
  5
4BEDE
330
4B7F3
100
AcDbEntity
  8
0
 62
     0
100
AcDbLine
 10
106.2652390000001
 20
21.73905000000013
 30
0.0
 11
106.4140499999999
 21
21.59023900000011
 31
0.0
  0
LINE
  5
4BEDF
330
4B7F3
100
AcDbEntity
  8
0
 62
     0
100
AcDbLine
 10
106.25
 20
21.82499999999982
 30
0.0
 11
106.5
 21
22.07499999999982
 31
0.0
  0
LINE
  5
4BEE0
330
4B7F3
100
AcDbEntity
  8
0
 62
     0
100
AcDbLine
 10
106.2579940000001
 20
21.76228399999991
 30
0.0
 11
106.5627159999999
 21
22.06700600000022
 31
0.0
  0
LINE
  5
4BEE1
330
4B7F3
100
AcDbEntity
  8
0
 62
     0
100
AcDbLine
 10
106.2774770000001
 20
21.71105500000021
 30
0.0
 11
106.6139450000001
 21
22.04752300000018
 31
0.0
  0
LINE
  5
4BEE2
330
4B7F3
100
AcDbEntity
  8
0
 62
     0
100
AcDbLine
 10
106.305306
 20
21.66817399999991
 30
0.0
 11
106.6568259999999
 21
22.01969400000007
 31
0.0
  0
LINE
  5
4BEE3
330
4B7F3
100
AcDbEntity
  8
0
 62
     0
100
AcDbLine
 10
106.3404089999999
 20
21.63256600000022
 30
0.0
 11
106.692434
 21
21.98459099999991
 31
0.0
  0
LINE
  5
4BEE4
330
4B7F3
100
AcDbEntity
  8
0
 62
     0
100
AcDbLine
 10
106.3827529999999
 20
21.60419899999988
 30
0.0
 11
106.7208009999999
 21
21.94224699999995
 31
0.0
  0
LINE
  5
4BEE5
330
4B7F3
100
AcDbEntity
  8
0
 62
     0
100
AcDbLine
 10
106.4333200000001
 20
21.58405600000015
 30
0.0
 11
106.7409440000001
 21
21.89168000000018
 31
0.0
  0
LINE
  5
4BEE6
330
4B7F3
100
AcDbEntity
  8
0
 62
     0
100
AcDbLine
 10
106.4950240000001
 20
21.57504999999992
 30
0.0
 11
106.7499499999999
 21
21.82997599999999
 31
0.0
  0
LINE
  5
4BEE7
330
4B7F3
100
AcDbEntity
  8
0
 62
     0
100
AcDbLine
 10
106.578246
 20
21.58755999999994
 30
0.0
 11
106.7374399999999
 21
21.74675399999978
 31
0.0
  0
LINE
  5
4BEE8
330
4B7F3
100
AcDbEntity
  8
0
 62
     0
100
AcDbLine
 10
106.2652390000001
 20
21.91094999999996
 30
0.0
 11
106.4140499999999
 21
22.05976099999998
 31
0.0
  0
LINE
  5
4BEE9
330
4B7F3
100
AcDbEntity
  8
0
 62
     0
100
AcDbLine
 10
97.25
 20
27.82499999999982
 30
0.0
 11
97.5
 21
27.57499999999982
 31
0.0
  0
LINE
  5
4BEEA
330
4B7F3
100
AcDbEntity
  8
0
 62
     0
100
AcDbLine
 10
97.25799400000005
 20
27.88771600000018
 30
0.0
 11
97.56271599999991
 21
27.58299399999987
 31
0.0
  0
LINE
  5
4BEEB
330
4B7F3
100
AcDbEntity
  8
0
 62
     0
100
AcDbLine
 10
97.27747700000009
 20
27.93894499999988
 30
0.0
 11
97.61394500000006
 21
27.60247699999991
 31
0.0
  0
LINE
  5
4BEEC
330
4B7F3
100
AcDbEntity
  8
0
 62
     0
100
AcDbLine
 10
97.30530599999997
 20
27.98182600000018
 30
0.0
 11
97.65682599999991
 21
27.63030600000002
 31
0.0
  0
LINE
  5
4BEED
330
4B7F3
100
AcDbEntity
  8
0
 62
     0
100
AcDbLine
 10
97.34040899999991
 20
28.01743399999987
 30
0.0
 11
97.69243400000005
 21
27.66540900000018
 31
0.0
  0
LINE
  5
4BEEE
330
4B7F3
100
AcDbEntity
  8
0
 62
     0
100
AcDbLine
 10
97.38275299999987
 20
28.04580100000021
 30
0.0
 11
97.72080099999994
 21
27.70775300000014
 31
0.0
  0
LINE
  5
4BEEF
330
4B7F3
100
AcDbEntity
  8
0
 62
     0
100
AcDbLine
 10
97.4333200000001
 20
28.06594399999994
 30
0.0
 11
97.74094400000013
 21
27.75831999999991
 31
0.0
  0
LINE
  5
4BEF0
330
4B7F3
100
AcDbEntity
  8
0
 62
     0
100
AcDbLine
 10
97.49502400000006
 20
28.07495000000017
 30
0.0
 11
97.7499499999999
 21
27.8200240000001
 31
0.0
  0
LINE
  5
4BEF1
330
4B7F3
100
AcDbEntity
  8
0
 62
     0
100
AcDbLine
 10
97.57824600000004
 20
28.06244000000015
 30
0.0
 11
97.73743999999988
 21
27.90324599999985
 31
0.0
  0
LINE
  5
4BEF2
330
4B7F3
100
AcDbEntity
  8
0
 62
     0
100
AcDbLine
 10
97.26523899999984
 20
27.73905000000013
 30
0.0
 11
97.41404999999986
 21
27.59023900000011
 31
0.0
  0
LINE
  5
4BEF3
330
4B7F3
100
AcDbEntity
  8
0
 62
     0
100
AcDbLine
 10
97.25
 20
27.82499999999982
 30
0.0
 11
97.5
 21
28.07499999999982
 31
0.0
  0
LINE
  5
4BEF4
330
4B7F3
100
AcDbEntity
  8
0
 62
     0
100
AcDbLine
 10
97.25799400000005
 20
27.76228399999991
 30
0.0
 11
97.56271599999991
 21
28.06700600000022
 31
0.0
  0
LINE
  5
4BEF5
330
4B7F3
100
AcDbEntity
  8
0
 62
     0
100
AcDbLine
 10
97.27747700000009
 20
27.71105500000021
 30
0.0
 11
97.61394500000006
 21
28.04752300000018
 31
0.0
  0
LINE
  5
4BEF6
330
4B7F3
100
AcDbEntity
  8
0
 62
     0
100
AcDbLine
 10
97.30530599999997
 20
27.66817399999991
 30
0.0
 11
97.65682599999991
 21
28.01969400000007
 31
0.0
  0
LINE
  5
4BEF7
330
4B7F3
100
AcDbEntity
  8
0
 62
     0
100
AcDbLine
 10
97.34040899999991
 20
27.63256600000022
 30
0.0
 11
97.69243400000005
 21
27.98459099999991
 31
0.0
  0
LINE
  5
4BEF8
330
4B7F3
100
AcDbEntity
  8
0
 62
     0
100
AcDbLine
 10
97.38275299999987
 20
27.60419899999988
 30
0.0
 11
97.72080099999994
 21
27.94224699999995
 31
0.0
  0
LINE
  5
4BEF9
330
4B7F3
100
AcDbEntity
  8
0
 62
     0
100
AcDbLine
 10
97.4333200000001
 20
27.58405600000015
 30
0.0
 11
97.74094400000013
 21
27.89168000000018
 31
0.0
  0
LINE
  5
4BEFA
330
4B7F3
100
AcDbEntity
  8
0
 62
     0
100
AcDbLine
 10
97.49502400000006
 20
27.57504999999992
 30
0.0
 11
97.7499499999999
 21
27.82997599999999
 31
0.0
  0
LINE
  5
4BEFB
330
4B7F3
100
AcDbEntity
  8
0
 62
     0
100
AcDbLine
 10
97.57824600000004
 20
27.58755999999994
 30
0.0
 11
97.73743999999988
 21
27.74675399999978
 31
0.0
  0
LINE
  5
4BEFC
330
4B7F3
100
AcDbEntity
  8
0
 62
     0
100
AcDbLine
 10
97.26523899999984
 20
27.91094999999996
 30
0.0
 11
97.41404999999986
 21
28.05976099999998
 31
0.0
  0
LINE
  5
4BEFD
330
4B7F3
100
AcDbEntity
  8
0
 62
     0
100
AcDbLine
 10
97.25
 20
21.82499999999982
 30
0.0
 11
97.5
 21
21.57499999999982
 31
0.0
  0
LINE
  5
4BEFE
330
4B7F3
100
AcDbEntity
  8
0
 62
     0
100
AcDbLine
 10
97.25799400000005
 20
21.88771600000018
 30
0.0
 11
97.56271599999991
 21
21.58299399999987
 31
0.0
  0
LINE
  5
4BEFF
330
4B7F3
100
AcDbEntity
  8
0
 62
     0
100
AcDbLine
 10
97.27747700000009
 20
21.93894499999988
 30
0.0
 11
97.61394500000006
 21
21.60247699999991
 31
0.0
  0
LINE
  5
4BF00
330
4B7F3
100
AcDbEntity
  8
0
 62
     0
100
AcDbLine
 10
97.30530599999997
 20
21.98182600000018
 30
0.0
 11
97.65682599999991
 21
21.63030600000002
 31
0.0
  0
LINE
  5
4BF01
330
4B7F3
100
AcDbEntity
  8
0
 62
     0
100
AcDbLine
 10
97.34040899999991
 20
22.01743399999987
 30
0.0
 11
97.69243400000005
 21
21.66540900000018
 31
0.0
  0
LINE
  5
4BF02
330
4B7F3
100
AcDbEntity
  8
0
 62
     0
100
AcDbLine
 10
97.38275299999987
 20
22.04580100000021
 30
0.0
 11
97.72080099999994
 21
21.70775300000014
 31
0.0
  0
LINE
  5
4BF03
330
4B7F3
100
AcDbEntity
  8
0
 62
     0
100
AcDbLine
 10
97.4333200000001
 20
22.06594399999994
 30
0.0
 11
97.74094400000013
 21
21.75831999999991
 31
0.0
  0
LINE
  5
4BF04
330
4B7F3
100
AcDbEntity
  8
0
 62
     0
100
AcDbLine
 10
97.49502400000006
 20
22.07495000000017
 30
0.0
 11
97.7499499999999
 21
21.8200240000001
 31
0.0
  0
LINE
  5
4BF05
330
4B7F3
100
AcDbEntity
  8
0
 62
     0
100
AcDbLine
 10
97.57824600000004
 20
22.06244000000015
 30
0.0
 11
97.73743999999988
 21
21.90324599999985
 31
0.0
  0
LINE
  5
4BF06
330
4B7F3
100
AcDbEntity
  8
0
 62
     0
100
AcDbLine
 10
97.26523899999984
 20
21.73905000000013
 30
0.0
 11
97.41404999999986
 21
21.59023900000011
 31
0.0
  0
LINE
  5
4BF07
330
4B7F3
100
AcDbEntity
  8
0
 62
     0
100
AcDbLine
 10
97.25
 20
21.82499999999982
 30
0.0
 11
97.5
 21
22.07499999999982
 31
0.0
  0
LINE
  5
4BF08
330
4B7F3
100
AcDbEntity
  8
0
 62
     0
100
AcDbLine
 10
97.25799400000005
 20
21.76228399999991
 30
0.0
 11
97.56271599999991
 21
22.06700600000022
 31
0.0
  0
LINE
  5
4BF09
330
4B7F3
100
AcDbEntity
  8
0
 62
     0
100
AcDbLine
 10
97.27747700000009
 20
21.71105500000021
 30
0.0
 11
97.61394500000006
 21
22.04752300000018
 31
0.0
  0
LINE
  5
4BF0A
330
4B7F3
100
AcDbEntity
  8
0
 62
     0
100
AcDbLine
 10
97.30530599999997
 20
21.66817399999991
 30
0.0
 11
97.65682599999991
 21
22.01969400000007
 31
0.0
  0
LINE
  5
4BF0B
330
4B7F3
100
AcDbEntity
  8
0
 62
     0
100
AcDbLine
 10
97.34040899999991
 20
21.63256600000022
 30
0.0
 11
97.69243400000005
 21
21.98459099999991
 31
0.0
  0
LINE
  5
4BF0C
330
4B7F3
100
AcDbEntity
  8
0
 62
     0
100
AcDbLine
 10
97.38275299999987
 20
21.60419899999988
 30
0.0
 11
97.72080099999994
 21
21.94224699999995
 31
0.0
  0
LINE
  5
4BF0D
330
4B7F3
100
AcDbEntity
  8
0
 62
     0
100
AcDbLine
 10
97.4333200000001
 20
21.58405600000015
 30
0.0
 11
97.74094400000013
 21
21.89168000000018
 31
0.0
  0
LINE
  5
4BF0E
330
4B7F3
100
AcDbEntity
  8
0
 62
     0
100
AcDbLine
 10
97.49502400000006
 20
21.57504999999992
 30
0.0
 11
97.7499499999999
 21
21.82997599999999
 31
0.0
  0
LINE
  5
4BF0F
330
4B7F3
100
AcDbEntity
  8
0
 62
     0
100
AcDbLine
 10
97.57824600000004
 20
21.58755999999994
 30
0.0
 11
97.73743999999988
 21
21.74675399999978
 31
0.0
  0
LINE
  5
4BF10
330
4B7F3
100
AcDbEntity
  8
0
 62
     0
100
AcDbLine
 10
97.26523899999984
 20
21.91094999999996
 30
0.0
 11
97.41404999999986
 21
22.05976099999998
 31
0.0
  0
LINE
  5
4BF11
330
4B7F3
100
AcDbEntity
  8
0
 62
     0
100
AcDbLine
 10
106.25
 20
15.82499999999982
 30
0.0
 11
106.5
 21
15.57499999999982
 31
0.0
  0
LINE
  5
4BF12
330
4B7F3
100
AcDbEntity
  8
0
 62
     0
100
AcDbLine
 10
106.2579940000001
 20
15.88771600000018
 30
0.0
 11
106.5627159999999
 21
15.58299399999987
 31
0.0
  0
LINE
  5
4BF13
330
4B7F3
100
AcDbEntity
  8
0
 62
     0
100
AcDbLine
 10
106.2774770000001
 20
15.93894499999988
 30
0.0
 11
106.6139450000001
 21
15.60247699999991
 31
0.0
  0
LINE
  5
4BF14
330
4B7F3
100
AcDbEntity
  8
0
 62
     0
100
AcDbLine
 10
106.305306
 20
15.98182600000018
 30
0.0
 11
106.6568259999999
 21
15.63030600000002
 31
0.0
  0
LINE
  5
4BF15
330
4B7F3
100
AcDbEntity
  8
0
 62
     0
100
AcDbLine
 10
106.3404089999999
 20
16.01743399999987
 30
0.0
 11
106.692434
 21
15.66540900000018
 31
0.0
  0
LINE
  5
4BF16
330
4B7F3
100
AcDbEntity
  8
0
 62
     0
100
AcDbLine
 10
106.3827529999999
 20
16.04580100000021
 30
0.0
 11
106.7208009999999
 21
15.70775300000014
 31
0.0
  0
LINE
  5
4BF17
330
4B7F3
100
AcDbEntity
  8
0
 62
     0
100
AcDbLine
 10
106.4333200000001
 20
16.06594399999994
 30
0.0
 11
106.7409440000001
 21
15.75831999999991
 31
0.0
  0
LINE
  5
4BF18
330
4B7F3
100
AcDbEntity
  8
0
 62
     0
100
AcDbLine
 10
106.4950240000001
 20
16.07495000000017
 30
0.0
 11
106.7499499999999
 21
15.8200240000001
 31
0.0
  0
LINE
  5
4BF19
330
4B7F3
100
AcDbEntity
  8
0
 62
     0
100
AcDbLine
 10
106.578246
 20
16.06244000000015
 30
0.0
 11
106.7374399999999
 21
15.90324599999985
 31
0.0
  0
LINE
  5
4BF1A
330
4B7F3
100
AcDbEntity
  8
0
 62
     0
100
AcDbLine
 10
106.2652390000001
 20
15.73905000000013
 30
0.0
 11
106.4140499999999
 21
15.59023900000011
 31
0.0
  0
LINE
  5
4BF1B
330
4B7F3
100
AcDbEntity
  8
0
 62
     0
100
AcDbLine
 10
106.25
 20
15.82499999999982
 30
0.0
 11
106.5
 21
16.07499999999982
 31
0.0
  0
LINE
  5
4BF1C
330
4B7F3
100
AcDbEntity
  8
0
 62
     0
100
AcDbLine
 10
106.2579940000001
 20
15.76228399999991
 30
0.0
 11
106.5627159999999
 21
16.06700600000022
 31
0.0
  0
LINE
  5
4BF1D
330
4B7F3
100
AcDbEntity
  8
0
 62
     0
100
AcDbLine
 10
106.2774770000001
 20
15.71105500000021
 30
0.0
 11
106.6139450000001
 21
16.04752300000018
 31
0.0
  0
LINE
  5
4BF1E
330
4B7F3
100
AcDbEntity
  8
0
 62
     0
100
AcDbLine
 10
106.305306
 20
15.66817399999991
 30
0.0
 11
106.6568259999999
 21
16.01969400000007
 31
0.0
  0
LINE
  5
4BF1F
330
4B7F3
100
AcDbEntity
  8
0
 62
     0
100
AcDbLine
 10
106.3404089999999
 20
15.63256600000022
 30
0.0
 11
106.692434
 21
15.98459099999991
 31
0.0
  0
LINE
  5
4BF20
330
4B7F3
100
AcDbEntity
  8
0
 62
     0
100
AcDbLine
 10
106.3827529999999
 20
15.60419899999988
 30
0.0
 11
106.7208009999999
 21
15.94224699999995
 31
0.0
  0
LINE
  5
4BF21
330
4B7F3
100
AcDbEntity
  8
0
 62
     0
100
AcDbLine
 10
106.4333200000001
 20
15.58405600000015
 30
0.0
 11
106.7409440000001
 21
15.89168000000018
 31
0.0
  0
LINE
  5
4BF22
330
4B7F3
100
AcDbEntity
  8
0
 62
     0
100
AcDbLine
 10
106.4950240000001
 20
15.57504999999992
 30
0.0
 11
106.7499499999999
 21
15.82997599999999
 31
0.0
  0
LINE
  5
4BF23
330
4B7F3
100
AcDbEntity
  8
0
 62
     0
100
AcDbLine
 10
106.578246
 20
15.58755999999994
 30
0.0
 11
106.7374399999999
 21
15.74675399999978
 31
0.0
  0
LINE
  5
4BF24
330
4B7F3
100
AcDbEntity
  8
0
 62
     0
100
AcDbLine
 10
106.2652390000001
 20
15.91094999999996
 30
0.0
 11
106.4140499999999
 21
16.05976099999998
 31
0.0
  0
LINE
  5
4BF25
330
4B7F3
100
AcDbEntity
  8
0
 62
     0
100
AcDbLine
 10
97.25
 20
15.82499999999982
 30
0.0
 11
97.5
 21
15.57499999999982
 31
0.0
  0
LINE
  5
4BF26
330
4B7F3
100
AcDbEntity
  8
0
 62
     0
100
AcDbLine
 10
97.25799400000005
 20
15.88771600000018
 30
0.0
 11
97.56271599999991
 21
15.58299399999987
 31
0.0
  0
LINE
  5
4BF27
330
4B7F3
100
AcDbEntity
  8
0
 62
     0
100
AcDbLine
 10
97.27747700000009
 20
15.93894499999988
 30
0.0
 11
97.61394500000006
 21
15.60247699999991
 31
0.0
  0
LINE
  5
4BF28
330
4B7F3
100
AcDbEntity
  8
0
 62
     0
100
AcDbLine
 10
97.30530599999997
 20
15.98182600000018
 30
0.0
 11
97.65682599999991
 21
15.63030600000002
 31
0.0
  0
LINE
  5
4BF29
330
4B7F3
100
AcDbEntity
  8
0
 62
     0
100
AcDbLine
 10
97.34040899999991
 20
16.01743399999987
 30
0.0
 11
97.69243400000005
 21
15.66540900000018
 31
0.0
  0
LINE
  5
4BF2A
330
4B7F3
100
AcDbEntity
  8
0
 62
     0
100
AcDbLine
 10
97.38275299999987
 20
16.04580100000021
 30
0.0
 11
97.72080099999994
 21
15.70775300000014
 31
0.0
  0
LINE
  5
4BF2B
330
4B7F3
100
AcDbEntity
  8
0
 62
     0
100
AcDbLine
 10
97.4333200000001
 20
16.06594399999994
 30
0.0
 11
97.74094400000013
 21
15.75831999999991
 31
0.0
  0
LINE
  5
4BF2C
330
4B7F3
100
AcDbEntity
  8
0
 62
     0
100
AcDbLine
 10
97.49502400000006
 20
16.07495000000017
 30
0.0
 11
97.7499499999999
 21
15.8200240000001
 31
0.0
  0
LINE
  5
4BF2D
330
4B7F3
100
AcDbEntity
  8
0
 62
     0
100
AcDbLine
 10
97.57824600000004
 20
16.06244000000015
 30
0.0
 11
97.73743999999988
 21
15.90324599999985
 31
0.0
  0
LINE
  5
4BF2E
330
4B7F3
100
AcDbEntity
  8
0
 62
     0
100
AcDbLine
 10
97.26523899999984
 20
15.73905000000013
 30
0.0
 11
97.41404999999986
 21
15.59023900000011
 31
0.0
  0
LINE
  5
4BF2F
330
4B7F3
100
AcDbEntity
  8
0
 62
     0
100
AcDbLine
 10
97.25
 20
15.82499999999982
 30
0.0
 11
97.5
 21
16.07499999999982
 31
0.0
  0
LINE
  5
4BF30
330
4B7F3
100
AcDbEntity
  8
0
 62
     0
100
AcDbLine
 10
97.25799400000005
 20
15.76228399999991
 30
0.0
 11
97.56271599999991
 21
16.06700600000022
 31
0.0
  0
LINE
  5
4BF31
330
4B7F3
100
AcDbEntity
  8
0
 62
     0
100
AcDbLine
 10
97.27747700000009
 20
15.71105500000021
 30
0.0
 11
97.61394500000006
 21
16.04752300000018
 31
0.0
  0
LINE
  5
4BF32
330
4B7F3
100
AcDbEntity
  8
0
 62
     0
100
AcDbLine
 10
97.30530599999997
 20
15.66817399999991
 30
0.0
 11
97.65682599999991
 21
16.01969400000007
 31
0.0
  0
LINE
  5
4BF33
330
4B7F3
100
AcDbEntity
  8
0
 62
     0
100
AcDbLine
 10
97.34040899999991
 20
15.63256600000022
 30
0.0
 11
97.69243400000005
 21
15.98459099999991
 31
0.0
  0
LINE
  5
4BF34
330
4B7F3
100
AcDbEntity
  8
0
 62
     0
100
AcDbLine
 10
97.38275299999987
 20
15.60419899999988
 30
0.0
 11
97.72080099999994
 21
15.94224699999995
 31
0.0
  0
LINE
  5
4BF35
330
4B7F3
100
AcDbEntity
  8
0
 62
     0
100
AcDbLine
 10
97.4333200000001
 20
15.58405600000015
 30
0.0
 11
97.74094400000013
 21
15.89168000000018
 31
0.0
  0
LINE
  5
4BF36
330
4B7F3
100
AcDbEntity
  8
0
 62
     0
100
AcDbLine
 10
97.49502400000006
 20
15.57504999999992
 30
0.0
 11
97.7499499999999
 21
15.82997599999999
 31
0.0
  0
LINE
  5
4BF37
330
4B7F3
100
AcDbEntity
  8
0
 62
     0
100
AcDbLine
 10
97.57824600000004
 20
15.58755999999994
 30
0.0
 11
97.73743999999988
 21
15.74675399999978
 31
0.0
  0
LINE
  5
4BF38
330
4B7F3
100
AcDbEntity
  8
0
 62
     0
100
AcDbLine
 10
97.26523899999984
 20
15.91094999999996
 30
0.0
 11
97.41404999999986
 21
16.05976099999998
 31
0.0
  0
LINE
  5
4BF39
330
4B7F3
100
AcDbEntity
  8
0
 62
     0
100
AcDbLine
 10
106.25
 20
10.40000000000009
 30
0.0
 11
106.5
 21
10.15000000000009
 31
0.0
  0
LINE
  5
4BF3A
330
4B7F3
100
AcDbEntity
  8
0
 62
     0
100
AcDbLine
 10
106.2579940000001
 20
10.462716
 30
0.0
 11
106.5627159999999
 21
10.15799400000014
 31
0.0
  0
LINE
  5
4BF3B
330
4B7F3
100
AcDbEntity
  8
0
 62
     0
100
AcDbLine
 10
106.2774770000001
 20
10.51394500000015
 30
0.0
 11
106.6139450000001
 21
10.17747700000018
 31
0.0
  0
LINE
  5
4BF3C
330
4B7F3
100
AcDbEntity
  8
0
 62
     0
100
AcDbLine
 10
106.305306
 20
10.556826
 30
0.0
 11
106.6568259999999
 21
10.20530599999984
 31
0.0
  0
LINE
  5
4BF3D
330
4B7F3
100
AcDbEntity
  8
0
 62
     0
100
AcDbLine
 10
106.3404089999999
 20
10.59243400000014
 30
0.0
 11
106.692434
 21
10.240409
 31
0.0
  0
LINE
  5
4BF3E
330
4B7F3
100
AcDbEntity
  8
0
 62
     0
100
AcDbLine
 10
106.3827529999999
 20
10.62080100000003
 30
0.0
 11
106.7208009999999
 21
10.28275299999996
 31
0.0
  0
LINE
  5
4BF3F
330
4B7F3
100
AcDbEntity
  8
0
 62
     0
100
AcDbLine
 10
106.4333200000001
 20
10.64094399999976
 30
0.0
 11
106.7409440000001
 21
10.33332000000019
 31
0.0
  0
LINE
  5
4BF40
330
4B7F3
100
AcDbEntity
  8
0
 62
     0
100
AcDbLine
 10
106.4950240000001
 20
10.64994999999999
 30
0.0
 11
106.7499499999999
 21
10.39502399999992
 31
0.0
  0
LINE
  5
4BF41
330
4B7F3
100
AcDbEntity
  8
0
 62
     0
100
AcDbLine
 10
106.578246
 20
10.63743999999997
 30
0.0
 11
106.7374399999999
 21
10.47824600000013
 31
0.0
  0
LINE
  5
4BF42
330
4B7F3
100
AcDbEntity
  8
0
 62
     0
100
AcDbLine
 10
106.2652390000001
 20
10.31404999999995
 30
0.0
 11
106.4140499999999
 21
10.16523899999993
 31
0.0
  0
LINE
  5
4BF43
330
4B7F3
100
AcDbEntity
  8
0
 62
     0
100
AcDbLine
 10
106.25
 20
10.40000000000009
 30
0.0
 11
106.5
 21
10.65000000000009
 31
0.0
  0
LINE
  5
4BF44
330
4B7F3
100
AcDbEntity
  8
0
 62
     0
100
AcDbLine
 10
106.2579940000001
 20
10.33728400000018
 30
0.0
 11
106.5627159999999
 21
10.64200600000004
 31
0.0
  0
LINE
  5
4BF45
330
4B7F3
100
AcDbEntity
  8
0
 62
     0
100
AcDbLine
 10
106.2774770000001
 20
10.28605500000003
 30
0.0
 11
106.6139450000001
 21
10.622523
 31
0.0
  0
LINE
  5
4BF46
330
4B7F3
100
AcDbEntity
  8
0
 62
     0
100
AcDbLine
 10
106.305306
 20
10.24317400000018
 30
0.0
 11
106.6568259999999
 21
10.59469399999989
 31
0.0
  0
LINE
  5
4BF47
330
4B7F3
100
AcDbEntity
  8
0
 62
     0
100
AcDbLine
 10
106.3404089999999
 20
10.20756600000004
 30
0.0
 11
106.692434
 21
10.55959100000018
 31
0.0
  0
LINE
  5
4BF48
330
4B7F3
100
AcDbEntity
  8
0
 62
     0
100
AcDbLine
 10
106.3827529999999
 20
10.17919900000015
 30
0.0
 11
106.7208009999999
 21
10.51724699999977
 31
0.0
  0
LINE
  5
4BF49
330
4B7F3
100
AcDbEntity
  8
0
 62
     0
100
AcDbLine
 10
106.4333200000001
 20
10.15905599999996
 30
0.0
 11
106.7409440000001
 21
10.46668
 31
0.0
  0
LINE
  5
4BF4A
330
4B7F3
100
AcDbEntity
  8
0
 62
     0
100
AcDbLine
 10
106.4950240000001
 20
10.15005000000019
 30
0.0
 11
106.7499499999999
 21
10.40497599999981
 31
0.0
  0
LINE
  5
4BF4B
330
4B7F3
100
AcDbEntity
  8
0
 62
     0
100
AcDbLine
 10
106.578246
 20
10.16256000000021
 30
0.0
 11
106.7374399999999
 21
10.32175400000006
 31
0.0
  0
LINE
  5
4BF4C
330
4B7F3
100
AcDbEntity
  8
0
 62
     0
100
AcDbLine
 10
106.2652390000001
 20
10.48595000000023
 30
0.0
 11
106.4140499999999
 21
10.6347609999998
 31
0.0
  0
LINE
  5
4BF4D
330
4B7F3
100
AcDbEntity
  8
0
 62
     0
100
AcDbLine
 10
97.25
 20
10.40000000000009
 30
0.0
 11
97.5
 21
10.15000000000009
 31
0.0
  0
LINE
  5
4BF4E
330
4B7F3
100
AcDbEntity
  8
0
 62
     0
100
AcDbLine
 10
97.25799400000005
 20
10.462716
 30
0.0
 11
97.56271599999991
 21
10.15799400000014
 31
0.0
  0
LINE
  5
4BF4F
330
4B7F3
100
AcDbEntity
  8
0
 62
     0
100
AcDbLine
 10
97.27747700000009
 20
10.51394500000015
 30
0.0
 11
97.61394500000006
 21
10.17747700000018
 31
0.0
  0
LINE
  5
4BF50
330
4B7F3
100
AcDbEntity
  8
0
 62
     0
100
AcDbLine
 10
97.30530599999997
 20
10.556826
 30
0.0
 11
97.65682599999991
 21
10.20530599999984
 31
0.0
  0
LINE
  5
4BF51
330
4B7F3
100
AcDbEntity
  8
0
 62
     0
100
AcDbLine
 10
97.34040899999991
 20
10.59243400000014
 30
0.0
 11
97.69243400000005
 21
10.240409
 31
0.0
  0
LINE
  5
4BF52
330
4B7F3
100
AcDbEntity
  8
0
 62
     0
100
AcDbLine
 10
97.38275299999987
 20
10.62080100000003
 30
0.0
 11
97.72080099999994
 21
10.28275299999996
 31
0.0
  0
LINE
  5
4BF53
330
4B7F3
100
AcDbEntity
  8
0
 62
     0
100
AcDbLine
 10
97.4333200000001
 20
10.64094399999976
 30
0.0
 11
97.74094400000013
 21
10.33332000000019
 31
0.0
  0
LINE
  5
4BF54
330
4B7F3
100
AcDbEntity
  8
0
 62
     0
100
AcDbLine
 10
97.49502400000006
 20
10.64994999999999
 30
0.0
 11
97.7499499999999
 21
10.39502399999992
 31
0.0
  0
LINE
  5
4BF55
330
4B7F3
100
AcDbEntity
  8
0
 62
     0
100
AcDbLine
 10
97.57824600000004
 20
10.63743999999997
 30
0.0
 11
97.73743999999988
 21
10.47824600000013
 31
0.0
  0
LINE
  5
4BF56
330
4B7F3
100
AcDbEntity
  8
0
 62
     0
100
AcDbLine
 10
97.26523899999984
 20
10.31404999999995
 30
0.0
 11
97.41404999999986
 21
10.16523899999993
 31
0.0
  0
LINE
  5
4BF57
330
4B7F3
100
AcDbEntity
  8
0
 62
     0
100
AcDbLine
 10
97.25
 20
10.40000000000009
 30
0.0
 11
97.5
 21
10.65000000000009
 31
0.0
  0
LINE
  5
4BF58
330
4B7F3
100
AcDbEntity
  8
0
 62
     0
100
AcDbLine
 10
97.25799400000005
 20
10.33728400000018
 30
0.0
 11
97.56271599999991
 21
10.64200600000004
 31
0.0
  0
LINE
  5
4BF59
330
4B7F3
100
AcDbEntity
  8
0
 62
     0
100
AcDbLine
 10
97.27747700000009
 20
10.28605500000003
 30
0.0
 11
97.61394500000006
 21
10.622523
 31
0.0
  0
LINE
  5
4BF5A
330
4B7F3
100
AcDbEntity
  8
0
 62
     0
100
AcDbLine
 10
97.30530599999997
 20
10.24317400000018
 30
0.0
 11
97.65682599999991
 21
10.59469399999989
 31
0.0
  0
LINE
  5
4BF5B
330
4B7F3
100
AcDbEntity
  8
0
 62
     0
100
AcDbLine
 10
97.34040899999991
 20
10.20756600000004
 30
0.0
 11
97.69243400000005
 21
10.55959100000018
 31
0.0
  0
LINE
  5
4BF5C
330
4B7F3
100
AcDbEntity
  8
0
 62
     0
100
AcDbLine
 10
97.38275299999987
 20
10.17919900000015
 30
0.0
 11
97.72080099999994
 21
10.51724699999977
 31
0.0
  0
LINE
  5
4BF5D
330
4B7F3
100
AcDbEntity
  8
0
 62
     0
100
AcDbLine
 10
97.4333200000001
 20
10.15905599999996
 30
0.0
 11
97.74094400000013
 21
10.46668
 31
0.0
  0
LINE
  5
4BF5E
330
4B7F3
100
AcDbEntity
  8
0
 62
     0
100
AcDbLine
 10
97.49502400000006
 20
10.15005000000019
 30
0.0
 11
97.7499499999999
 21
10.40497599999981
 31
0.0
  0
LINE
  5
4BF5F
330
4B7F3
100
AcDbEntity
  8
0
 62
     0
100
AcDbLine
 10
97.57824600000004
 20
10.16256000000021
 30
0.0
 11
97.73743999999988
 21
10.32175400000006
 31
0.0
  0
LINE
  5
4BF60
330
4B7F3
100
AcDbEntity
  8
0
 62
     0
100
AcDbLine
 10
97.26523899999984
 20
10.48595000000023
 30
0.0
 11
97.41404999999986
 21
10.6347609999998
 31
0.0
  0
LINE
  5
4BF61
330
4B7F3
100
AcDbEntity
  8
0
 62
     0
100
AcDbLine
 10
174.4749999999999
 20
33.0
 30
0.0
 11
174.4749999999999
 21
9.0
 31
0.0
  0
LINE
  5
4BF62
330
4B7F3
100
AcDbEntity
  8
0
 62
     0
100
AcDbLine
 10
174.5250000000001
 20
33.0
 30
0.0
 11
174.5250000000001
 21
9.0
 31
0.0
  0
LINE
  5
4BF63
330
4B7F3
100
AcDbEntity
  8
0
 62
     0
100
AcDbLine
 10
214.1500001919297
 20
34.59999999999991
 30
0.0
 11
214.7500001919296
 21
34.0
 31
0.0
  0
LINE
  5
4BF64
330
4B7F3
100
AcDbEntity
  8
0
 62
     0
100
AcDbLine
 10
214.1537481919295
 20
34.66696200000024
 30
0.0
 11
214.8169621919295
 21
34.00374800000009
 31
0.0
  0
LINE
  5
4BF65
330
4B7F3
100
AcDbEntity
  8
0
 62
     0
100
AcDbLine
 10
214.1637421919295
 20
34.72767900000008
 30
0.0
 11
214.8776791919295
 21
34.01374200000009
 31
0.0
  0
LINE
  5
4BF66
330
4B7F3
100
AcDbEntity
  8
0
 62
     0
100
AcDbLine
 10
214.1787211919296
 20
34.78341099999989
 30
0.0
 11
214.9334111919296
 21
34.02872100000013
 31
0.0
  0
LINE
  5
4BF67
330
4B7F3
100
AcDbEntity
  8
0
 62
     0
100
AcDbLine
 10
214.1979081919297
 20
34.83493499999986
 30
0.0
 11
214.9849351919295
 21
34.04790800000001
 31
0.0
  0
LINE
  5
4BF68
330
4B7F3
100
AcDbEntity
  8
0
 62
     0
100
AcDbLine
 10
214.2208011919295
 20
34.88275199999998
 30
0.0
 11
215.0327521919297
 21
34.07080099999985
 31
0.0
  0
LINE
  5
4BF69
330
4B7F3
100
AcDbEntity
  8
0
 62
     0
100
AcDbLine
 10
214.2470671919296
 20
34.92719699999998
 30
0.0
 11
215.0771971919297
 21
34.09706700000015
 31
0.0
  0
LINE
  5
4BF6A
330
4B7F3
100
AcDbEntity
  8
0
 62
     0
100
AcDbLine
 10
214.2764861919296
 20
34.96848899999986
 30
0.0
 11
215.1184891919295
 21
34.12648600000011
 31
0.0
  0
LINE
  5
4BF6B
330
4B7F3
100
AcDbEntity
  8
0
 62
     0
100
AcDbLine
 10
214.3089261919297
 20
35.00676000000021
 30
0.0
 11
215.1567601919294
 21
34.15892600000006
 31
0.0
  0
LINE
  5
4BF6C
330
4B7F3
100
AcDbEntity
  8
0
 62
     0
100
AcDbLine
 10
214.3443241919297
 20
35.04207200000019
 30
0.0
 11
215.1920721919296
 21
34.19432400000005
 31
0.0
  0
LINE
  5
4BF6D
330
4B7F3
100
AcDbEntity
  8
0
 62
     0
100
AcDbLine
 10
214.3826831919296
 20
35.07442399999991
 30
0.0
 11
215.2244241919296
 21
34.23268300000018
 31
0.0
  0
LINE
  5
4BF6E
330
4B7F3
100
AcDbEntity
  8
0
 62
     0
100
AcDbLine
 10
214.1547661919297
 20
34.52452300000004
 30
0.0
 11
214.6745231919297
 21
34.00476600000002
 31
0.0
  0
LINE
  5
4BF6F
330
4B7F3
100
AcDbEntity
  8
0
 62
     0
100
AcDbLine
 10
214.1729561919295
 20
34.43562299999985
 30
0.0
 11
214.5856231919295
 21
34.02295599999979
 31
0.0
  0
LINE
  5
4BF70
330
4B7F3
100
AcDbEntity
  8
0
 62
     0
100
AcDbLine
 10
214.2210101919296
 20
34.31685800000014
 30
0.0
 11
214.4668581919296
 21
34.07101000000011
 31
0.0
  0
LINE
  5
4BF71
330
4B7F3
100
AcDbEntity
  8
0
 62
     0
100
AcDbLine
 10
214.1500001919297
 20
34.59999999999991
 30
0.0
 11
214.7500001919296
 21
35.19999999999982
 31
0.0
  0
LINE
  5
4BF72
330
4B7F3
100
AcDbEntity
  8
0
 62
     0
100
AcDbLine
 10
214.1537481919295
 20
34.53303800000003
 30
0.0
 11
214.8169621919295
 21
35.19625200000019
 31
0.0
  0
LINE
  5
4BF73
330
4B7F3
100
AcDbEntity
  8
0
 62
     0
100
AcDbLine
 10
214.1637421919295
 20
34.47232100000019
 30
0.0
 11
214.8776791919295
 21
35.18625800000018
 31
0.0
  0
LINE
  5
4BF74
330
4B7F3
100
AcDbEntity
  8
0
 62
     0
100
AcDbLine
 10
214.1787211919296
 20
34.41658899999993
 30
0.0
 11
214.9334111919296
 21
35.17127900000014
 31
0.0
  0
LINE
  5
4BF75
330
4B7F3
100
AcDbEntity
  8
0
 62
     0
100
AcDbLine
 10
214.1979081919297
 20
34.36506499999996
 30
0.0
 11
214.9849351919295
 21
35.15209199999981
 31
0.0
  0
LINE
  5
4BF76
330
4B7F3
100
AcDbEntity
  8
0
 62
     0
100
AcDbLine
 10
214.2208011919295
 20
34.31724799999984
 30
0.0
 11
215.0327521919297
 21
35.12919899999997
 31
0.0
  0
LINE
  5
4BF77
330
4B7F3
100
AcDbEntity
  8
0
 62
     0
100
AcDbLine
 10
214.2470671919296
 20
34.27280299999984
 30
0.0
 11
215.0771971919297
 21
35.10293300000012
 31
0.0
  0
LINE
  5
4BF78
330
4B7F3
100
AcDbEntity
  8
0
 62
     0
100
AcDbLine
 10
214.2764861919296
 20
34.23151099999995
 30
0.0
 11
215.1184891919295
 21
35.07351400000016
 31
0.0
  0
LINE
  5
4BF79
330
4B7F3
100
AcDbEntity
  8
0
 62
     0
100
AcDbLine
 10
214.3089261919297
 20
34.19324000000006
 30
0.0
 11
215.1567601919294
 21
35.04107400000021
 31
0.0
  0
LINE
  5
4BF7A
330
4B7F3
100
AcDbEntity
  8
0
 62
     0
100
AcDbLine
 10
214.3443241919297
 20
34.15792800000008
 30
0.0
 11
215.1920721919296
 21
35.00567599999977
 31
0.0
  0
LINE
  5
4BF7B
330
4B7F3
100
AcDbEntity
  8
0
 62
     0
100
AcDbLine
 10
214.3826831919296
 20
34.12557599999991
 30
0.0
 11
215.2244241919296
 21
34.96731700000009
 31
0.0
  0
LINE
  5
4BF7C
330
4B7F3
100
AcDbEntity
  8
0
 62
     0
100
AcDbLine
 10
214.1547661919297
 20
34.67547699999977
 30
0.0
 11
214.6745231919297
 21
35.1952339999998
 31
0.0
  0
LINE
  5
4BF7D
330
4B7F3
100
AcDbEntity
  8
0
 62
     0
100
AcDbLine
 10
214.1729561919295
 20
34.76437699999997
 30
0.0
 11
214.5856231919295
 21
35.17704400000002
 31
0.0
  0
LINE
  5
4BF7E
330
4B7F3
100
AcDbEntity
  8
0
 62
     0
100
AcDbLine
 10
214.2210101919296
 20
34.88314200000013
 30
0.0
 11
214.4668581919296
 21
35.12899000000016
 31
0.0
  0
LINE
  5
4BF7F
330
4B7F3
100
AcDbEntity
  8
0
 62
     0
100
AcDbLine
 10
214.4240651919297
 20
35.10375199999999
 30
0.0
 11
215.2537521919297
 21
34.27406500000006
 31
0.0
  0
LINE
  5
4BF80
330
4B7F3
100
AcDbEntity
  8
0
 62
     0
100
AcDbLine
 10
214.4686061919295
 20
35.12992200000008
 30
0.0
 11
215.2799221919298
 21
34.31860599999982
 31
0.0
  0
LINE
  5
4BF81
330
4B7F3
100
AcDbEntity
  8
0
 62
     0
100
AcDbLine
 10
214.5165271919296
 20
35.15271200000007
 30
0.0
 11
215.3027121919297
 21
34.36652700000013
 31
0.0
  0
LINE
  5
4BF82
330
4B7F3
100
AcDbEntity
  8
0
 62
     0
100
AcDbLine
 10
214.5681661919296
 20
35.17178400000012
 30
0.0
 11
215.3217841919296
 21
34.41816599999993
 31
0.0
  0
LINE
  5
4BF83
330
4B7F3
100
AcDbEntity
  8
0
 62
     0
100
AcDbLine
 10
214.6240321919298
 20
35.18662799999993
 30
0.0
 11
215.3366281919296
 21
34.47403200000008
 31
0.0
  0
LINE
  5
4BF84
330
4B7F3
100
AcDbEntity
  8
0
 62
     0
100
AcDbLine
 10
214.6849121919298
 20
35.19645899999978
 30
0.0
 11
215.3464591919295
 21
34.53491200000008
 31
0.0
  0
LINE
  5
4BF85
330
4B7F3
100
AcDbEntity
  8
0
 62
     0
100
AcDbLine
 10
214.7520851919297
 20
35.19999599999983
 30
0.0
 11
215.3499961919295
 21
34.60208499999999
 31
0.0
  0
LINE
  5
4BF86
330
4B7F3
100
AcDbEntity
  8
0
 62
     0
100
AcDbLine
 10
214.8278661919297
 20
35.19492600000012
 30
0.0
 11
215.3449261919296
 21
34.67786599999999
 31
0.0
  0
LINE
  5
4BF87
330
4B7F3
100
AcDbEntity
  8
0
 62
     0
100
AcDbLine
 10
214.9172991919295
 20
35.17620399999987
 30
0.0
 11
215.3262041919295
 21
34.76729900000009
 31
0.0
  0
LINE
  5
4BF88
330
4B7F3
100
AcDbEntity
  8
0
 62
     0
100
AcDbLine
 10
215.0376741919297
 20
35.12653899999987
 30
0.0
 11
215.2765391919295
 21
34.88767400000006
 31
0.0
  0
LINE
  5
4BF89
330
4B7F3
100
AcDbEntity
  8
0
 62
     0
100
AcDbLine
 10
214.4240651919297
 20
34.09624799999983
 30
0.0
 11
215.2537521919297
 21
34.92593500000021
 31
0.0
  0
LINE
  5
4BF8A
330
4B7F3
100
AcDbEntity
  8
0
 62
     0
100
AcDbLine
 10
214.4686061919295
 20
34.07007800000019
 30
0.0
 11
215.2799221919298
 21
34.881394
 31
0.0
  0
LINE
  5
4BF8B
330
4B7F3
100
AcDbEntity
  8
0
 62
     0
100
AcDbLine
 10
214.5165271919296
 20
34.04728800000021
 30
0.0
 11
215.3027121919297
 21
34.83347300000014
 31
0.0
  0
LINE
  5
4BF8C
330
4B7F3
100
AcDbEntity
  8
0
 62
     0
100
AcDbLine
 10
214.5681661919296
 20
34.02821600000016
 30
0.0
 11
215.3217841919296
 21
34.78183399999989
 31
0.0
  0
LINE
  5
4BF8D
330
4B7F3
100
AcDbEntity
  8
0
 62
     0
100
AcDbLine
 10
214.6240321919298
 20
34.01337199999989
 30
0.0
 11
215.3366281919296
 21
34.72596800000019
 31
0.0
  0
LINE
  5
4BF8E
330
4B7F3
100
AcDbEntity
  8
0
 62
     0
100
AcDbLine
 10
214.6849121919298
 20
34.00354100000004
 30
0.0
 11
215.3464591919295
 21
34.6650880000002
 31
0.0
  0
LINE
  5
4BF8F
330
4B7F3
100
AcDbEntity
  8
0
 62
     0
100
AcDbLine
 10
214.7520851919297
 20
34.00000399999999
 30
0.0
 11
215.3499961919295
 21
34.59791499999983
 31
0.0
  0
LINE
  5
4BF90
330
4B7F3
100
AcDbEntity
  8
0
 62
     0
100
AcDbLine
 10
214.8278661919297
 20
34.00507400000015
 30
0.0
 11
215.3449261919296
 21
34.52213399999982
 31
0.0
  0
LINE
  5
4BF91
330
4B7F3
100
AcDbEntity
  8
0
 62
     0
100
AcDbLine
 10
214.9172991919295
 20
34.02379599999995
 30
0.0
 11
215.3262041919295
 21
34.43270100000018
 31
0.0
  0
LINE
  5
4BF92
330
4B7F3
100
AcDbEntity
  8
0
 62
     0
100
AcDbLine
 10
215.0376741919297
 20
34.07346099999995
 30
0.0
 11
215.2765391919295
 21
34.31232600000021
 31
0.0
  0
LINE
  5
4BF93
330
4B7F3
100
AcDbEntity
  8
0
 62
     0
100
AcDbLine
 10
323.5
 20
16.97499999999991
 30
0.0
 11
393.5
 21
16.97499999999991
 31
0.0
  0
LINE
  5
4BF94
330
4B7F3
100
AcDbEntity
  8
0
 62
     0
100
AcDbLine
 10
323.5
 20
17.02500000000009
 30
0.0
 11
393.5
 21
17.02500000000009
 31
0.0
  0
LINE
  5
4BF95
330
4B7F3
100
AcDbEntity
  8
0
 62
     0
100
AcDbLine
 10
323.5
 20
24.97499999999991
 30
0.0
 11
393.5
 21
24.97499999999991
 31
0.0
  0
LINE
  5
4BF96
330
4B7F3
100
AcDbEntity
  8
0
 62
     0
100
AcDbLine
 10
323.5
 20
25.02500000000009
 30
0.0
 11
393.5
 21
25.02500000000009
 31
0.0
  0
LINE
  5
4BF97
330
4B7F3
100
AcDbEntity
  8
0
 62
     0
100
AcDbLine
 10
246.5
 20
16.97499999999991
 30
0.0
 11
321.5
 21
16.97499999999991
 31
0.0
  0
LINE
  5
4BF98
330
4B7F3
100
AcDbEntity
  8
0
 62
     0
100
AcDbLine
 10
246.5
 20
24.97499999999991
 30
0.0
 11
321.5
 21
24.97499999999991
 31
0.0
  0
LINE
  5
4BF99
330
4B7F3
100
AcDbEntity
  8
0
 62
     0
100
AcDbLine
 10
246.5
 20
17.02500000000009
 30
0.0
 11
321.5
 21
17.02500000000009
 31
0.0
  0
LINE
  5
4BF9A
330
4B7F3
100
AcDbEntity
  8
0
 62
     0
100
AcDbLine
 10
246.5
 20
25.02500000000009
 30
0.0
 11
321.5
 21
25.02500000000009
 31
0.0
  0
TEXT
  5
4BF9B
330
4B7F3
100
AcDbEntity
  8
0
 62
     0
100
AcDbText
 10
244.8585210000001
 20
30.1
 30
0.0
 40
2.0
  1
PROJECT
  7
BIGFONT
100
AcDbText
  0
LINE
  5
4BF9C
330
4B7F3
100
AcDbEntity
  8
0
 62
     0
100
AcDbLine
 10
244.4749999999999
 20
33.0
 30
0.0
 11
244.4749999999999
 21
9.0
 31
0.0
  0
LINE
  5
4BF9D
330
4B7F3
100
AcDbEntity
  8
0
 62
     0
100
AcDbLine
 10
244.5250000000001
 20
33.0
 30
0.0
 11
244.5250000000001
 21
9.0
 31
0.0
  0
TEXT
  5
4BF9E
330
4B7F3
100
AcDbEntity
  8
0
 62
     0
100
AcDbText
 10
323.943481
 20
30.1
 30
0.0
 40
2.0
  1
DATE
  7
BIGFONT
100
AcDbText
  0
LINE
  5
4BF9F
330
4B7F3
100
AcDbEntity
  8
0
 62
     0
100
AcDbLine
 10
344.4749999999999
 20
25.0
 30
0.0
 11
344.4749999999999
 21
17.0
 31
0.0
  0
LINE
  5
4BFA0
330
4B7F3
100
AcDbEntity
  8
0
 62
     0
100
AcDbLine
 10
344.5250000000001
 20
25.0
 30
0.0
 11
344.5250000000001
 21
17.0
 31
0.0
  0
TEXT
  5
4BFA1
330
4B7F3
100
AcDbEntity
  8
0
 62
     0
100
AcDbText
 10
323.943481
 20
22.57499999999991
 30
0.0
 40
2.0
  1
DRAWN
  7
BIGFONT
100
AcDbText
  0
TEXT
  5
4BFA2
330
4B7F3
100
AcDbEntity
  8
0
 62
     0
100
AcDbText
 10
323.943481
 20
14.57499999999991
 30
0.0
 40
2.0
  1
DWG. NO.
  7
BIGFONT
100
AcDbText
  0
TEXT
  5
4BFA3
330
4B7F3
100
AcDbEntity
  8
0
 62
     0
100
AcDbText
 10
344.4281310000001
 20
22.61124400000017
 30
0.0
 40
2.0
  1
CHECKED
  7
BIGFONT
100
AcDbText
  0
LINE
  5
4BFA4
330
4B7F3
100
AcDbEntity
  8
0
 62
     0
100
AcDbLine
 10
323.4749999999999
 20
33.0
 30
0.0
 11
323.4749999999999
 21
9.0
 31
0.0
  0
LINE
  5
4BFA5
330
4B7F3
100
AcDbEntity
  8
0
 62
     0
100
AcDbLine
 10
323.5250000000001
 20
33.0
 30
0.0
 11
323.5250000000001
 21
9.0
 31
0.0
  0
TEXT
  5
4BFA6
330
4B7F3
100
AcDbEntity
  8
0
 62
     0
100
AcDbText
 10
365.671509
 20
30.1
 30
0.0
 40
2.0
  1
SCALE
  7
BIGFONT
100
AcDbText
  0
TEXT
  5
4BFA7
330
4B7F3
100
AcDbEntity
  8
0
 62
     0
100
AcDbText
 10
393.743011
 20
30.1
 30
0.0
 40
2.0
  1
FILE NO.
  7
BIGFONT
100
AcDbText
  0
TEXT
  5
4BFA8
330
4B7F3
100
AcDbEntity
  8
0
 62
     0
100
AcDbText
 10
365.671509
 20
22.57499999999991
 30
0.0
 40
2.0
  1
APPROVED
  7
BIGFONT
100
AcDbText
  0
LINE
  5
4BFA9
330
4B7F3
100
AcDbEntity
  8
0
 62
     0
100
AcDbLine
 10
365.4749999999999
 20
17.0
 30
0.0
 11
365.4749999999999
 21
33.0
 31
0.0
  0
LINE
  5
4BFAA
330
4B7F3
100
AcDbEntity
  8
0
 62
     0
100
AcDbLine
 10
365.5250000000001
 20
17.0
 30
0.0
 11
365.5250000000001
 21
33.0
 31
0.0
  0
LINE
  5
4BFAB
330
4B7F3
100
AcDbEntity
  8
0
 62
     0
100
AcDbLine
 10
393.4749999999999
 20
33.0
 30
0.0
 11
393.4749999999999
 21
9.0
 31
0.0
  0
LINE
  5
4BFAC
330
4B7F3
100
AcDbEntity
  8
0
 62
     0
100
AcDbLine
 10
393.5250000000001
 20
33.0
 30
0.0
 11
393.5250000000001
 21
9.0
 31
0.0
  0
LINE
  5
4BFAD
330
4B7F3
100
AcDbEntity
  8
0
 62
     0
100
AcDbLine
 10
21.5
 20
286.5999999999999
 30
0.0
 11
408.0
 21
286.5999999999999
 31
0.0
  0
LINE
  5
4BFAE
330
4B7F3
100
AcDbEntity
  8
0
 62
     0
100
AcDbLine
 10
21.5
 20
286.5500000000002
 30
0.0
 11
408.0
 21
286.5500000000002
 31
0.0
  0
LINE
  5
4BFAF
330
4B7F3
100
AcDbEntity
  8
0
 62
     0
100
AcDbLine
 10
21.5
 20
286.5
 30
0.0
 11
408.0
 21
286.5
 31
0.0
  0
LINE
  5
4BFB0
330
4B7F3
100
AcDbEntity
  8
0
 62
     0
100
AcDbLine
 10
21.5
 20
286.4499999999998
 30
0.0
 11
408.0
 21
286.4499999999998
 31
0.0
  0
LINE
  5
4BFB1
330
4B7F3
100
AcDbEntity
  8
0
 62
     0
100
AcDbLine
 10
21.5
 20
286.0
 30
0.0
 11
408.0
 21
286.0
 31
0.0
  0
LINE
  5
4BFB2
330
4B7F3
100
AcDbEntity
  8
0
 62
     0
100
AcDbLine
 10
21.5
 20
286.0500000000002
 30
0.0
 11
408.0
 21
286.0500000000002
 31
0.0
  0
LINE
  5
4BFB3
330
4B7F3
100
AcDbEntity
  8
0
 62
     0
100
AcDbLine
 10
21.5
 20
286.0999999999999
 30
0.0
 11
408.0
 21
286.0999999999999
 31
0.0
  0
LINE
  5
4BFB4
330
4B7F3
100
AcDbEntity
  8
0
 62
     0
100
AcDbLine
 10
21.5
 20
286.1999999999998
 30
0.0
 11
408.0
 21
286.1999999999998
 31
0.0
  0
LINE
  5
4BFB5
330
4B7F3
100
AcDbEntity
  8
0
 62
     0
100
AcDbLine
 10
21.5
 20
286.3000000000002
 30
0.0
 11
408.0
 21
286.3000000000002
 31
0.0
  0
LINE
  5
4BFB6
330
4B7F3
100
AcDbEntity
  8
0
 62
     0
100
AcDbLine
 10
21.5
 20
286.4000000000001
 30
0.0
 11
408.0
 21
286.4000000000001
 31
0.0
  0
LINE
  5
4BFB7
330
4B7F3
100
AcDbEntity
  8
0
 62
     0
100
AcDbLine
 10
21.5
 20
285.5999999999999
 30
0.0
 11
408.0
 21
285.5999999999999
 31
0.0
  0
LINE
  5
4BFB8
330
4B7F3
100
AcDbEntity
  8
0
 62
     0
100
AcDbLine
 10
21.5
 20
285.6999999999998
 30
0.0
 11
408.0
 21
285.6999999999998
 31
0.0
  0
LINE
  5
4BFB9
330
4B7F3
100
AcDbEntity
  8
0
 62
     0
100
AcDbLine
 10
21.5
 20
285.75
 30
0.0
 11
408.0
 21
285.75
 31
0.0
  0
LINE
  5
4BFBA
330
4B7F3
100
AcDbEntity
  8
0
 62
     0
100
AcDbLine
 10
21.5
 20
285.8000000000002
 30
0.0
 11
408.0
 21
285.8000000000002
 31
0.0
  0
LINE
  5
4BFBB
330
4B7F3
100
AcDbEntity
  8
0
 62
     0
100
AcDbLine
 10
21.5
 20
285.8499999999999
 30
0.0
 11
408.0
 21
285.8499999999999
 31
0.0
  0
LINE
  5
4BFBC
330
4B7F3
100
AcDbEntity
  8
0
 62
     0
100
AcDbLine
 10
21.5
 20
285.9000000000001
 30
0.0
 11
408.0
 21
285.9000000000001
 31
0.0
  0
LINE
  5
4BFBD
330
4B7F3
100
AcDbEntity
  8
0
 62
     0
100
AcDbLine
 10
21.5
 20
285.9499999999998
 30
0.0
 11
408.0
 21
285.9499999999998
 31
0.0
  0
LINE
  5
4BFBE
330
4B7F3
100
AcDbEntity
  8
0
 62
     0
100
AcDbLine
 10
408.0
 20
286.3499999999999
 30
0.0
 11
21.5
 21
286.3499999999999
 31
0.0
  0
LINE
  5
4BFBF
330
4B7F3
100
AcDbEntity
  8
0
 62
     0
100
AcDbLine
 10
408.0
 20
286.25
 30
0.0
 11
21.5
 21
286.25
 31
0.0
  0
LINE
  5
4BFC0
330
4B7F3
100
AcDbEntity
  8
0
 62
     0
100
AcDbLine
 10
408.0
 20
286.1500000000001
 30
0.0
 11
21.5
 21
286.1500000000001
 31
0.0
  0
LINE
  5
4BFC1
330
4B7F3
100
AcDbEntity
  8
0
 62
     0
100
AcDbLine
 10
408.0
 20
285.6500000000001
 30
0.0
 11
21.5
 21
285.6500000000001
 31
0.0
  0
LINE
  5
4BFC2
330
4B7F3
100
AcDbEntity
  8
DEFPOINTS
 62
     0
100
AcDbLine
 10
0.0
 20
297.0
 30
0.0
 11
420.0
 21
297.0
 31
0.0
  0
LINE
  5
4BFC3
330
4B7F3
100
AcDbEntity
  8
0
 62
     0
100
AcDbLine
 10
21.97403199999985
 20
160.136628
 30
0.0
 11
22.68662799999993
 21
159.4240320000002
 31
0.0
  0
LINE
  5
4BFC4
330
4B7F3
100
AcDbEntity
  8
0
 62
     0
100
AcDbLine
 10
22.03491199999985
 20
160.1464589999999
 30
0.0
 11
22.69645899999978
 21
159.4849120000002
 31
0.0
  0
LINE
  5
4BFC5
330
4B7F3
100
AcDbEntity
  8
0
 62
     0
100
AcDbLine
 10
22.10208499999999
 20
160.1499959999999
 30
0.0
 11
22.69999599999983
 21
159.5520850000001
 31
0.0
  0
LINE
  5
4BFC6
330
4B7F3
100
AcDbEntity
  8
0
 62
     0
100
AcDbLine
 10
22.17786599999999
 20
160.1449260000002
 30
0.0
 11
22.6949259999999
 21
159.6278660000001
 31
0.0
  0
LINE
  5
4BFC7
330
4B7F3
100
AcDbEntity
  8
0
 62
     0
100
AcDbLine
 10
22.26729899999987
 20
160.1262039999999
 30
0.0
 11
22.67620399999987
 21
159.7172990000002
 31
0.0
  0
LINE
  5
4BFC8
330
4B7F3
100
AcDbEntity
  8
0
 62
     0
100
AcDbLine
 10
22.38767400000006
 20
160.0765389999999
 30
0.0
 11
22.62653899999987
 21
159.8376740000001
 31
0.0
  0
LINE
  5
4BFC9
330
4B7F3
100
AcDbEntity
  8
0
 62
     0
100
AcDbLine
 10
21.97403199999985
 20
158.963372
 30
0.0
 11
22.68662799999993
 21
159.6759679999998
 31
0.0
  0
LINE
  5
4BFCA
330
4B7F3
100
AcDbEntity
  8
0
 62
     0
100
AcDbLine
 10
22.03491199999985
 20
158.9535410000001
 30
0.0
 11
22.69645899999978
 21
159.6150879999998
 31
0.0
  0
LINE
  5
4BFCB
330
4B7F3
100
AcDbEntity
  8
0
 62
     0
100
AcDbLine
 10
22.10208499999999
 20
158.9500040000001
 30
0.0
 11
22.69999599999983
 21
159.5479149999999
 31
0.0
  0
LINE
  5
4BFCC
330
4B7F3
100
AcDbEntity
  8
0
 62
     0
100
AcDbLine
 10
22.17786599999999
 20
158.9550739999998
 30
0.0
 11
22.6949259999999
 21
159.4721339999999
 31
0.0
  0
LINE
  5
4BFCD
330
4B7F3
100
AcDbEntity
  8
0
 62
     0
100
AcDbLine
 10
22.26729899999987
 20
158.973796
 30
0.0
 11
22.67620399999987
 21
159.3827009999998
 31
0.0
  0
LINE
  5
4BFCE
330
4B7F3
100
AcDbEntity
  8
0
 62
     0
100
AcDbLine
 10
22.38767400000006
 20
159.023461
 30
0.0
 11
22.62653899999987
 21
159.2623259999998
 31
0.0
  0
LINE
  5
4BFCF
330
4B7F3
100
AcDbEntity
  8
0
 62
     0
100
AcDbLine
 10
21.57100999999989
 20
159.2668579999998
 30
0.0
 11
21.81685799999991
 21
159.0210100000002
 31
0.0
  0
LINE
  5
4BFD0
330
4B7F3
100
AcDbEntity
  8
0
 62
     0
100
AcDbLine
 10
21.57100999999989
 20
159.8331420000002
 30
0.0
 11
21.81685799999991
 21
160.0789899999998
 31
0.0
  0
LINE
  5
4BFD1
330
4B7F3
100
AcDbEntity
  8
0
 62
     0
100
AcDbLine
 10
21.5
 20
159.55
 30
0.0
 11
22.09999999999991
 21
158.9500000000001
 31
0.0
  0
LINE
  5
4BFD2
330
4B7F3
100
AcDbEntity
  8
0
 62
     0
100
AcDbLine
 10
21.50374799999986
 20
159.6169619999999
 30
0.0
 11
22.16696199999978
 21
158.9537480000002
 31
0.0
  0
LINE
  5
4BFD3
330
4B7F3
100
AcDbEntity
  8
0
 62
     0
100
AcDbLine
 10
21.51374199999987
 20
159.6776790000002
 30
0.0
 11
22.22767899999985
 21
158.9637420000002
 31
0.0
  0
LINE
  5
4BFD4
330
4B7F3
100
AcDbEntity
  8
0
 62
     0
100
AcDbLine
 10
21.5287209999999
 20
159.733411
 30
0.0
 11
22.28341099999989
 21
158.9787210000002
 31
0.0
  0
LINE
  5
4BFD5
330
4B7F3
100
AcDbEntity
  8
0
 62
     0
100
AcDbLine
 10
21.54790800000001
 20
159.7849349999999
 30
0.0
 11
22.33493499999986
 21
158.9979080000001
 31
0.0
  0
LINE
  5
4BFD6
330
4B7F3
100
AcDbEntity
  8
0
 62
     0
100
AcDbLine
 10
21.57080099999985
 20
159.8327520000001
 30
0.0
 11
22.38275199999998
 21
159.0208009999999
 31
0.0
  0
LINE
  5
4BFD7
330
4B7F3
100
AcDbEntity
  8
0
 62
     0
100
AcDbLine
 10
21.59706699999992
 20
159.8771970000001
 30
0.0
 11
22.42719699999998
 21
159.0470669999998
 31
0.0
  0
LINE
  5
4BFD8
330
4B7F3
100
AcDbEntity
  8
0
 62
     0
100
AcDbLine
 10
21.62648599999989
 20
159.9184889999999
 30
0.0
 11
22.46848899999986
 21
159.0764860000002
 31
0.0
  0
LINE
  5
4BFD9
330
4B7F3
100
AcDbEntity
  8
0
 62
     0
100
AcDbLine
 10
21.65892600000006
 20
159.9567599999998
 30
0.0
 11
22.50675999999999
 21
159.1089260000001
 31
0.0
  0
LINE
  5
4BFDA
330
4B7F3
100
AcDbEntity
  8
0
 62
     0
100
AcDbLine
 10
21.69432400000005
 20
159.9920719999998
 30
0.0
 11
22.54207199999996
 21
159.1443240000001
 31
0.0
  0
LINE
  5
4BFDB
330
4B7F3
100
AcDbEntity
  8
0
 62
     0
100
AcDbLine
 10
21.73268299999995
 20
160.024424
 30
0.0
 11
22.57442399999991
 21
159.1826829999998
 31
0.0
  0
LINE
  5
4BFDC
330
4B7F3
100
AcDbEntity
  8
0
 62
     0
100
AcDbLine
 10
21.77406499999984
 20
160.0537520000001
 30
0.0
 11
22.60375199999999
 21
159.2240650000001
 31
0.0
  0
LINE
  5
4BFDD
330
4B7F3
100
AcDbEntity
  8
0
 62
     0
100
AcDbLine
 10
21.81860599999982
 20
160.0799220000002
 30
0.0
 11
22.62992199999985
 21
159.2686059999999
 31
0.0
  0
LINE
  5
4BFDE
330
4B7F3
100
AcDbEntity
  8
0
 62
     0
100
AcDbLine
 10
21.86652699999991
 20
160.1027120000001
 30
0.0
 11
22.65271200000007
 21
159.3165270000002
 31
0.0
  0
LINE
  5
4BFDF
330
4B7F3
100
AcDbEntity
  8
0
 62
     0
100
AcDbLine
 10
21.91816599999993
 20
160.1217840000002
 30
0.0
 11
22.67178399999989
 21
159.368166
 31
0.0
  0
LINE
  5
4BFE0
330
4B7F3
100
AcDbEntity
  8
0
 62
     0
100
AcDbLine
 10
21.50476600000002
 20
159.4745230000001
 30
0.0
 11
22.02452300000004
 21
158.9547660000001
 31
0.0
  0
LINE
  5
4BFE1
330
4B7F3
100
AcDbEntity
  8
0
 62
     0
100
AcDbLine
 10
21.52295599999979
 20
159.3856229999999
 30
0.0
 11
21.93562299999985
 21
158.9729559999999
 31
0.0
  0
LINE
  5
4BFE2
330
4B7F3
100
AcDbEntity
  8
0
 62
     0
100
AcDbLine
 10
21.5
 20
159.55
 30
0.0
 11
22.09999999999991
 21
160.1499999999999
 31
0.0
  0
LINE
  5
4BFE3
330
4B7F3
100
AcDbEntity
  8
0
 62
     0
100
AcDbLine
 10
21.50374799999986
 20
159.4830380000001
 30
0.0
 11
22.16696199999978
 21
160.1462519999998
 31
0.0
  0
LINE
  5
4BFE4
330
4B7F3
100
AcDbEntity
  8
0
 62
     0
100
AcDbLine
 10
21.51374199999987
 20
159.4223209999998
 30
0.0
 11
22.22767899999985
 21
160.1362579999998
 31
0.0
  0
LINE
  5
4BFE5
330
4B7F3
100
AcDbEntity
  8
0
 62
     0
100
AcDbLine
 10
21.5287209999999
 20
159.366589
 30
0.0
 11
22.28341099999989
 21
160.1212789999998
 31
0.0
  0
LINE
  5
4BFE6
330
4B7F3
100
AcDbEntity
  8
0
 62
     0
100
AcDbLine
 10
21.54790800000001
 20
159.315065
 30
0.0
 11
22.33493499999986
 21
160.1020919999999
 31
0.0
  0
LINE
  5
4BFE7
330
4B7F3
100
AcDbEntity
  8
0
 62
     0
100
AcDbLine
 10
21.57080099999985
 20
159.2672479999999
 30
0.0
 11
22.38275199999998
 21
160.079199
 31
0.0
  0
LINE
  5
4BFE8
330
4B7F3
100
AcDbEntity
  8
0
 62
     0
100
AcDbLine
 10
21.59706699999992
 20
159.2228029999999
 30
0.0
 11
22.42719699999998
 21
160.0529330000002
 31
0.0
  0
LINE
  5
4BFE9
330
4B7F3
100
AcDbEntity
  8
0
 62
     0
100
AcDbLine
 10
21.62648599999989
 20
159.181511
 30
0.0
 11
22.46848899999986
 21
160.0235139999998
 31
0.0
  0
LINE
  5
4BFEA
330
4B7F3
100
AcDbEntity
  8
0
 62
     0
100
AcDbLine
 10
21.65892600000006
 20
159.1432400000001
 30
0.0
 11
22.50675999999999
 21
159.9910739999998
 31
0.0
  0
LINE
  5
4BFEB
330
4B7F3
100
AcDbEntity
  8
0
 62
     0
100
AcDbLine
 10
21.69432400000005
 20
159.1079280000002
 30
0.0
 11
22.54207199999996
 21
159.9556759999998
 31
0.0
  0
LINE
  5
4BFEC
330
4B7F3
100
AcDbEntity
  8
0
 62
     0
100
AcDbLine
 10
21.73268299999995
 20
159.075576
 30
0.0
 11
22.57442399999991
 21
159.9173170000002
 31
0.0
  0
LINE
  5
4BFED
330
4B7F3
100
AcDbEntity
  8
0
 62
     0
100
AcDbLine
 10
21.77406499999984
 20
159.0462479999999
 30
0.0
 11
22.60375199999999
 21
159.8759349999998
 31
0.0
  0
LINE
  5
4BFEE
330
4B7F3
100
AcDbEntity
  8
0
 62
     0
100
AcDbLine
 10
21.81860599999982
 20
159.0200779999998
 30
0.0
 11
22.62992199999985
 21
159.8313940000001
 31
0.0
  0
LINE
  5
4BFEF
330
4B7F3
100
AcDbEntity
  8
0
 62
     0
100
AcDbLine
 10
21.86652699999991
 20
158.9972879999998
 30
0.0
 11
22.65271200000007
 21
159.7834729999998
 31
0.0
  0
LINE
  5
4BFF0
330
4B7F3
100
AcDbEntity
  8
0
 62
     0
100
AcDbLine
 10
21.91816599999993
 20
158.9782159999998
 30
0.0
 11
22.67178399999989
 21
159.731834
 31
0.0
  0
LINE
  5
4BFF1
330
4B7F3
100
AcDbEntity
  8
0
 62
     0
100
AcDbLine
 10
21.50476600000002
 20
159.6254769999998
 30
0.0
 11
22.02452300000004
 21
160.1452339999999
 31
0.0
  0
LINE
  5
4BFF2
330
4B7F3
100
AcDbEntity
  8
0
 62
     0
100
AcDbLine
 10
21.52295599999979
 20
159.714377
 30
0.0
 11
21.93562299999985
 21
160.1270440000001
 31
0.0
  0
LINE
  5
4BFF3
330
4B7F3
100
AcDbEntity
  8
0
 62
     0
100
AcDbLine
 10
21.76123700000007
 20
279.27484
 30
0.0
 11
22.27516000000005
 21
279.788763
 31
0.0
  0
LINE
  5
4BFF4
330
4B7F3
100
AcDbEntity
  8
0
 62
     0
100
AcDbLine
 10
21.81602199999988
 20
279.2589149999999
 30
0.0
 11
22.29108499999997
 21
279.7339780000002
 31
0.0
  0
LINE
  5
4BFF5
330
4B7F3
100
AcDbEntity
  8
0
 62
     0
100
AcDbLine
 10
21.87840099999985
 20
279.2505839999999
 30
0.0
 11
22.29941599999997
 21
279.6715989999998
 31
0.0
  0
LINE
  5
4BFF6
330
4B7F3
100
AcDbEntity
  8
0
 62
     0
100
AcDbLine
 10
21.95191100000002
 20
279.2533830000002
 30
0.0
 11
22.29661699999988
 21
279.5980890000001
 31
0.0
  0
LINE
  5
4BFF7
330
4B7F3
100
AcDbEntity
  8
0
 62
     0
100
AcDbLine
 10
22.04737999999988
 20
279.2781409999998
 30
0.0
 11
22.27185899999986
 21
279.5026200000002
 31
0.0
  0
LINE
  5
4BFF8
330
4B7F3
100
AcDbEntity
  8
0
 62
     0
100
AcDbLine
 10
21.76123700000007
 20
280.0251600000001
 30
0.0
 11
22.27516000000005
 21
279.5112370000002
 31
0.0
  0
LINE
  5
4BFF9
330
4B7F3
100
AcDbEntity
  8
0
 62
     0
100
AcDbLine
 10
21.81602199999988
 20
280.0410849999998
 30
0.0
 11
22.29108499999997
 21
279.566022
 31
0.0
  0
LINE
  5
4BFFA
330
4B7F3
100
AcDbEntity
  8
0
 62
     0
100
AcDbLine
 10
21.87840099999985
 20
280.0494159999998
 30
0.0
 11
22.29941599999997
 21
279.6284009999999
 31
0.0
  0
LINE
  5
4BFFB
330
4B7F3
100
AcDbEntity
  8
0
 62
     0
100
AcDbLine
 10
21.95191100000002
 20
280.046617
 30
0.0
 11
22.29661699999988
 21
279.7019110000001
 31
0.0
  0
LINE
  5
4BFFC
330
4B7F3
100
AcDbEntity
  8
0
 62
     0
100
AcDbLine
 10
22.04737999999988
 20
280.0218589999999
 30
0.0
 11
22.27185899999986
 21
279.79738
 31
0.0
  0
LINE
  5
4BFFD
330
4B7F3
100
AcDbEntity
  8
0
 62
     0
100
AcDbLine
 10
21.54733999999998
 20
279.838761
 30
0.0
 11
21.71123900000011
 21
280.0026600000001
 31
0.0
  0
LINE
  5
4BFFE
330
4B7F3
100
AcDbEntity
  8
0
 62
     0
100
AcDbLine
 10
21.54733999999998
 20
279.4612390000002
 30
0.0
 11
21.71123900000011
 21
279.2973400000001
 31
0.0
  0
LINE
  5
4BFFF
330
4B7F3
100
AcDbEntity
  8
0
 62
     0
100
AcDbLine
 10
21.49999999999991
 20
279.6500000000001
 30
0.0
 11
21.9
 21
280.0500000000002
 31
0.0
  0
LINE
  5
4C000
330
4B7F3
100
AcDbEntity
  8
0
 62
     0
100
AcDbLine
 10
21.50777600000006
 20
279.728486
 30
0.0
 11
21.82151400000011
 21
280.0422239999998
 31
0.0
  0
LINE
  5
4C001
330
4B7F3
100
AcDbEntity
  8
0
 62
     0
100
AcDbLine
 10
21.50537199999999
 20
279.5846620000002
 30
0.0
 11
21.96533799999988
 21
280.0446280000001
 31
0.0
  0
LINE
  5
4C002
330
4B7F3
100
AcDbEntity
  8
0
 62
     0
100
AcDbLine
 10
21.51914699999988
 20
279.5277259999998
 30
0.0
 11
22.02227400000006
 21
280.0308530000002
 31
0.0
  0
LINE
  5
4C003
330
4B7F3
100
AcDbEntity
  8
0
 62
     0
100
AcDbLine
 10
21.53927699999999
 20
279.4771449999998
 30
0.0
 11
22.07285500000003
 21
280.0107229999999
 31
0.0
  0
LINE
  5
4C004
330
4B7F3
100
AcDbEntity
  8
0
 62
     0
100
AcDbLine
 10
21.5647109999999
 20
279.4318680000001
 30
0.0
 11
22.11813199999997
 21
279.9852890000002
 31
0.0
  0
LINE
  5
4C005
330
4B7F3
100
AcDbEntity
  8
0
 62
     0
100
AcDbLine
 10
21.59488899999987
 20
279.3913360000001
 30
0.0
 11
22.15866399999995
 21
279.9551110000002
 31
0.0
  0
LINE
  5
4C006
330
4B7F3
100
AcDbEntity
  8
0
 62
     0
100
AcDbLine
 10
21.62955000000002
 20
279.355286
 30
0.0
 11
22.19471400000011
 21
279.9204500000001
 31
0.0
  0
LINE
  5
4C007
330
4B7F3
100
AcDbEntity
  8
0
 62
     0
100
AcDbLine
 10
21.66865999999995
 20
279.3236849999998
 30
0.0
 11
22.22631500000002
 21
279.8813399999999
 31
0.0
  0
LINE
  5
4C008
330
4B7F3
100
AcDbEntity
  8
0
 62
     0
100
AcDbLine
 10
21.71240400000001
 20
279.2967189999999
 30
0.0
 11
22.25328100000015
 21
279.8375959999998
 31
0.0
  0
LINE
  5
4C009
330
4B7F3
100
AcDbEntity
  8
0
 62
     0
100
AcDbLine
 10
21.49999999999991
 20
279.6500000000001
 30
0.0
 11
21.9
 21
279.25
 31
0.0
  0
LINE
  5
4C00A
330
4B7F3
100
AcDbEntity
  8
0
 62
     0
100
AcDbLine
 10
21.50537199999999
 20
279.715338
 30
0.0
 11
21.96533799999988
 21
279.2553720000001
 31
0.0
  0
LINE
  5
4C00B
330
4B7F3
100
AcDbEntity
  8
0
 62
     0
100
AcDbLine
 10
21.51914699999988
 20
279.7722739999999
 30
0.0
 11
22.02227400000006
 21
279.269147
 31
0.0
  0
LINE
  5
4C00C
330
4B7F3
100
AcDbEntity
  8
0
 62
     0
100
AcDbLine
 10
21.53927699999999
 20
279.8228549999999
 30
0.0
 11
22.07285500000003
 21
279.2892769999999
 31
0.0
  0
LINE
  5
4C00D
330
4B7F3
100
AcDbEntity
  8
0
 62
     0
100
AcDbLine
 10
21.5647109999999
 20
279.8681320000001
 30
0.0
 11
22.11813199999997
 21
279.314711
 31
0.0
  0
LINE
  5
4C00E
330
4B7F3
100
AcDbEntity
  8
0
 62
     0
100
AcDbLine
 10
21.59488899999987
 20
279.908664
 30
0.0
 11
22.15866399999995
 21
279.344889
 31
0.0
  0
LINE
  5
4C00F
330
4B7F3
100
AcDbEntity
  8
0
 62
     0
100
AcDbLine
 10
21.62955000000002
 20
279.9447140000002
 30
0.0
 11
22.19471400000011
 21
279.3795500000001
 31
0.0
  0
LINE
  5
4C010
330
4B7F3
100
AcDbEntity
  8
0
 62
     0
100
AcDbLine
 10
21.66865999999995
 20
279.9763149999999
 30
0.0
 11
22.22631500000002
 21
279.4186599999998
 31
0.0
  0
LINE
  5
4C011
330
4B7F3
100
AcDbEntity
  8
0
 62
     0
100
AcDbLine
 10
21.71240400000001
 20
280.0032810000002
 30
0.0
 11
22.25328100000015
 21
279.4624039999999
 31
0.0
  0
LINE
  5
4C012
330
4B7F3
100
AcDbEntity
  8
0
 62
     0
100
AcDbLine
 10
21.50777600000006
 20
279.5715140000002
 30
0.0
 11
21.82151400000011
 21
279.2577759999999
 31
0.0
  0
LINE
  5
4C013
330
4B7F3
100
AcDbEntity
  8
0
 62
     0
100
AcDbLine
 10
21.76123700000007
 20
273.27484
 30
0.0
 11
22.27516000000005
 21
273.788763
 31
0.0
  0
LINE
  5
4C014
330
4B7F3
100
AcDbEntity
  8
0
 62
     0
100
AcDbLine
 10
21.81602199999988
 20
273.2589149999999
 30
0.0
 11
22.29108499999997
 21
273.7339780000002
 31
0.0
  0
LINE
  5
4C015
330
4B7F3
100
AcDbEntity
  8
0
 62
     0
100
AcDbLine
 10
21.87840099999985
 20
273.2505839999999
 30
0.0
 11
22.29941599999997
 21
273.6715989999998
 31
0.0
  0
LINE
  5
4C016
330
4B7F3
100
AcDbEntity
  8
0
 62
     0
100
AcDbLine
 10
21.95191100000002
 20
273.2533830000002
 30
0.0
 11
22.29661699999988
 21
273.5980890000001
 31
0.0
  0
LINE
  5
4C017
330
4B7F3
100
AcDbEntity
  8
0
 62
     0
100
AcDbLine
 10
22.04737999999988
 20
273.2781409999998
 30
0.0
 11
22.27185899999986
 21
273.5026200000002
 31
0.0
  0
LINE
  5
4C018
330
4B7F3
100
AcDbEntity
  8
0
 62
     0
100
AcDbLine
 10
21.76123700000007
 20
274.0251600000001
 30
0.0
 11
22.27516000000005
 21
273.5112370000002
 31
0.0
  0
LINE
  5
4C019
330
4B7F3
100
AcDbEntity
  8
0
 62
     0
100
AcDbLine
 10
21.81602199999988
 20
274.0410849999998
 30
0.0
 11
22.29108499999997
 21
273.566022
 31
0.0
  0
LINE
  5
4C01A
330
4B7F3
100
AcDbEntity
  8
0
 62
     0
100
AcDbLine
 10
21.87840099999985
 20
274.0494159999998
 30
0.0
 11
22.29941599999997
 21
273.6284009999999
 31
0.0
  0
LINE
  5
4C01B
330
4B7F3
100
AcDbEntity
  8
0
 62
     0
100
AcDbLine
 10
21.95191100000002
 20
274.046617
 30
0.0
 11
22.29661699999988
 21
273.7019110000001
 31
0.0
  0
LINE
  5
4C01C
330
4B7F3
100
AcDbEntity
  8
0
 62
     0
100
AcDbLine
 10
22.04737999999988
 20
274.0218589999999
 30
0.0
 11
22.27185899999986
 21
273.79738
 31
0.0
  0
LINE
  5
4C01D
330
4B7F3
100
AcDbEntity
  8
0
 62
     0
100
AcDbLine
 10
21.76123700000007
 20
267.27484
 30
0.0
 11
22.27516000000005
 21
267.788763
 31
0.0
  0
LINE
  5
4C01E
330
4B7F3
100
AcDbEntity
  8
0
 62
     0
100
AcDbLine
 10
21.81602199999988
 20
267.2589149999999
 30
0.0
 11
22.29108499999997
 21
267.7339780000002
 31
0.0
  0
LINE
  5
4C01F
330
4B7F3
100
AcDbEntity
  8
0
 62
     0
100
AcDbLine
 10
21.87840099999985
 20
267.2505839999999
 30
0.0
 11
22.29941599999997
 21
267.6715989999998
 31
0.0
  0
LINE
  5
4C020
330
4B7F3
100
AcDbEntity
  8
0
 62
     0
100
AcDbLine
 10
21.95191100000002
 20
267.2533830000002
 30
0.0
 11
22.29661699999988
 21
267.5980890000001
 31
0.0
  0
LINE
  5
4C021
330
4B7F3
100
AcDbEntity
  8
0
 62
     0
100
AcDbLine
 10
22.04737999999988
 20
267.2781409999998
 30
0.0
 11
22.27185899999986
 21
267.5026200000002
 31
0.0
  0
LINE
  5
4C022
330
4B7F3
100
AcDbEntity
  8
0
 62
     0
100
AcDbLine
 10
21.76123700000007
 20
268.0251600000001
 30
0.0
 11
22.27516000000005
 21
267.5112370000002
 31
0.0
  0
LINE
  5
4C023
330
4B7F3
100
AcDbEntity
  8
0
 62
     0
100
AcDbLine
 10
21.81602199999988
 20
268.0410849999998
 30
0.0
 11
22.29108499999997
 21
267.566022
 31
0.0
  0
LINE
  5
4C024
330
4B7F3
100
AcDbEntity
  8
0
 62
     0
100
AcDbLine
 10
21.87840099999985
 20
268.0494159999998
 30
0.0
 11
22.29941599999997
 21
267.6284009999999
 31
0.0
  0
LINE
  5
4C025
330
4B7F3
100
AcDbEntity
  8
0
 62
     0
100
AcDbLine
 10
21.95191100000002
 20
268.046617
 30
0.0
 11
22.29661699999988
 21
267.7019110000001
 31
0.0
  0
LINE
  5
4C026
330
4B7F3
100
AcDbEntity
  8
0
 62
     0
100
AcDbLine
 10
22.04737999999988
 20
268.0218589999999
 30
0.0
 11
22.27185899999986
 21
267.79738
 31
0.0
  0
LINE
  5
4C027
330
4B7F3
100
AcDbEntity
  8
0
 62
     0
100
AcDbLine
 10
21.54733999999998
 20
273.838761
 30
0.0
 11
21.71123900000011
 21
274.0026600000001
 31
0.0
  0
LINE
  5
4C028
330
4B7F3
100
AcDbEntity
  8
0
 62
     0
100
AcDbLine
 10
21.54733999999998
 20
273.4612390000002
 30
0.0
 11
21.71123900000011
 21
273.2973400000001
 31
0.0
  0
LINE
  5
4C029
330
4B7F3
100
AcDbEntity
  8
0
 62
     0
100
AcDbLine
 10
21.54733999999998
 20
267.838761
 30
0.0
 11
21.71123900000011
 21
268.0026600000001
 31
0.0
  0
LINE
  5
4C02A
330
4B7F3
100
AcDbEntity
  8
0
 62
     0
100
AcDbLine
 10
21.54733999999998
 20
267.4612390000002
 30
0.0
 11
21.71123900000011
 21
267.2973400000001
 31
0.0
  0
LINE
  5
4C02B
330
4B7F3
100
AcDbEntity
  8
0
 62
     0
100
AcDbLine
 10
21.49999999999991
 20
273.6500000000001
 30
0.0
 11
21.9
 21
274.0500000000002
 31
0.0
  0
LINE
  5
4C02C
330
4B7F3
100
AcDbEntity
  8
0
 62
     0
100
AcDbLine
 10
21.50777600000006
 20
273.728486
 30
0.0
 11
21.82151400000011
 21
274.0422239999998
 31
0.0
  0
LINE
  5
4C02D
330
4B7F3
100
AcDbEntity
  8
0
 62
     0
100
AcDbLine
 10
21.50537199999999
 20
273.5846620000002
 30
0.0
 11
21.96533799999988
 21
274.0446280000001
 31
0.0
  0
LINE
  5
4C02E
330
4B7F3
100
AcDbEntity
  8
0
 62
     0
100
AcDbLine
 10
21.51914699999988
 20
273.5277259999998
 30
0.0
 11
22.02227400000006
 21
274.0308530000002
 31
0.0
  0
LINE
  5
4C02F
330
4B7F3
100
AcDbEntity
  8
0
 62
     0
100
AcDbLine
 10
21.53927699999999
 20
273.4771449999998
 30
0.0
 11
22.07285500000003
 21
274.0107229999999
 31
0.0
  0
LINE
  5
4C030
330
4B7F3
100
AcDbEntity
  8
0
 62
     0
100
AcDbLine
 10
21.5647109999999
 20
273.4318680000001
 30
0.0
 11
22.11813199999997
 21
273.9852890000002
 31
0.0
  0
LINE
  5
4C031
330
4B7F3
100
AcDbEntity
  8
0
 62
     0
100
AcDbLine
 10
21.59488899999987
 20
273.3913360000001
 30
0.0
 11
22.15866399999995
 21
273.9551110000002
 31
0.0
  0
LINE
  5
4C032
330
4B7F3
100
AcDbEntity
  8
0
 62
     0
100
AcDbLine
 10
21.62955000000002
 20
273.355286
 30
0.0
 11
22.19471400000011
 21
273.9204500000001
 31
0.0
  0
LINE
  5
4C033
330
4B7F3
100
AcDbEntity
  8
0
 62
     0
100
AcDbLine
 10
21.66865999999995
 20
273.3236849999998
 30
0.0
 11
22.22631500000002
 21
273.8813399999999
 31
0.0
  0
LINE
  5
4C034
330
4B7F3
100
AcDbEntity
  8
0
 62
     0
100
AcDbLine
 10
21.71240400000001
 20
273.2967189999999
 30
0.0
 11
22.25328100000015
 21
273.8375959999998
 31
0.0
  0
LINE
  5
4C035
330
4B7F3
100
AcDbEntity
  8
0
 62
     0
100
AcDbLine
 10
21.49999999999991
 20
273.6500000000001
 30
0.0
 11
21.9
 21
273.25
 31
0.0
  0
LINE
  5
4C036
330
4B7F3
100
AcDbEntity
  8
0
 62
     0
100
AcDbLine
 10
21.50537199999999
 20
273.715338
 30
0.0
 11
21.96533799999988
 21
273.2553720000001
 31
0.0
  0
LINE
  5
4C037
330
4B7F3
100
AcDbEntity
  8
0
 62
     0
100
AcDbLine
 10
21.51914699999988
 20
273.7722739999999
 30
0.0
 11
22.02227400000006
 21
273.269147
 31
0.0
  0
LINE
  5
4C038
330
4B7F3
100
AcDbEntity
  8
0
 62
     0
100
AcDbLine
 10
21.53927699999999
 20
273.8228549999999
 30
0.0
 11
22.07285500000003
 21
273.2892769999999
 31
0.0
  0
LINE
  5
4C039
330
4B7F3
100
AcDbEntity
  8
0
 62
     0
100
AcDbLine
 10
21.5647109999999
 20
273.8681320000001
 30
0.0
 11
22.11813199999997
 21
273.314711
 31
0.0
  0
LINE
  5
4C03A
330
4B7F3
100
AcDbEntity
  8
0
 62
     0
100
AcDbLine
 10
21.59488899999987
 20
273.908664
 30
0.0
 11
22.15866399999995
 21
273.344889
 31
0.0
  0
LINE
  5
4C03B
330
4B7F3
100
AcDbEntity
  8
0
 62
     0
100
AcDbLine
 10
21.62955000000002
 20
273.9447140000002
 30
0.0
 11
22.19471400000011
 21
273.3795500000001
 31
0.0
  0
LINE
  5
4C03C
330
4B7F3
100
AcDbEntity
  8
0
 62
     0
100
AcDbLine
 10
21.66865999999995
 20
273.9763149999999
 30
0.0
 11
22.22631500000002
 21
273.4186599999998
 31
0.0
  0
LINE
  5
4C03D
330
4B7F3
100
AcDbEntity
  8
0
 62
     0
100
AcDbLine
 10
21.71240400000001
 20
274.0032809999998
 30
0.0
 11
22.25328100000015
 21
273.4624039999999
 31
0.0
  0
LINE
  5
4C03E
330
4B7F3
100
AcDbEntity
  8
0
 62
     0
100
AcDbLine
 10
21.50777600000006
 20
273.5715140000002
 30
0.0
 11
21.82151400000011
 21
273.2577759999999
 31
0.0
  0
LINE
  5
4C03F
330
4B7F3
100
AcDbEntity
  8
0
 62
     0
100
AcDbLine
 10
21.49999999999991
 20
267.6500000000001
 30
0.0
 11
21.9
 21
268.0500000000002
 31
0.0
  0
LINE
  5
4C040
330
4B7F3
100
AcDbEntity
  8
0
 62
     0
100
AcDbLine
 10
21.50777600000006
 20
267.728486
 30
0.0
 11
21.82151400000011
 21
268.0422239999998
 31
0.0
  0
LINE
  5
4C041
330
4B7F3
100
AcDbEntity
  8
0
 62
     0
100
AcDbLine
 10
21.50537199999999
 20
267.5846620000002
 30
0.0
 11
21.96533799999988
 21
268.0446280000001
 31
0.0
  0
LINE
  5
4C042
330
4B7F3
100
AcDbEntity
  8
0
 62
     0
100
AcDbLine
 10
21.51914699999988
 20
267.5277259999998
 30
0.0
 11
22.02227400000006
 21
268.0308530000002
 31
0.0
  0
LINE
  5
4C043
330
4B7F3
100
AcDbEntity
  8
0
 62
     0
100
AcDbLine
 10
21.53927699999999
 20
267.4771449999998
 30
0.0
 11
22.07285500000003
 21
268.0107229999999
 31
0.0
  0
LINE
  5
4C044
330
4B7F3
100
AcDbEntity
  8
0
 62
     0
100
AcDbLine
 10
21.5647109999999
 20
267.4318680000001
 30
0.0
 11
22.11813199999997
 21
267.9852890000002
 31
0.0
  0
LINE
  5
4C045
330
4B7F3
100
AcDbEntity
  8
0
 62
     0
100
AcDbLine
 10
21.59488899999987
 20
267.3913360000001
 30
0.0
 11
22.15866399999995
 21
267.9551110000002
 31
0.0
  0
LINE
  5
4C046
330
4B7F3
100
AcDbEntity
  8
0
 62
     0
100
AcDbLine
 10
21.62955000000002
 20
267.355286
 30
0.0
 11
22.19471400000011
 21
267.9204500000001
 31
0.0
  0
LINE
  5
4C047
330
4B7F3
100
AcDbEntity
  8
0
 62
     0
100
AcDbLine
 10
21.66865999999995
 20
267.3236849999998
 30
0.0
 11
22.22631500000002
 21
267.8813399999999
 31
0.0
  0
LINE
  5
4C048
330
4B7F3
100
AcDbEntity
  8
0
 62
     0
100
AcDbLine
 10
21.71240400000001
 20
267.2967189999999
 30
0.0
 11
22.25328100000015
 21
267.8375959999998
 31
0.0
  0
LINE
  5
4C049
330
4B7F3
100
AcDbEntity
  8
0
 62
     0
100
AcDbLine
 10
21.49999999999991
 20
267.6500000000001
 30
0.0
 11
21.9
 21
267.25
 31
0.0
  0
LINE
  5
4C04A
330
4B7F3
100
AcDbEntity
  8
0
 62
     0
100
AcDbLine
 10
21.50537199999999
 20
267.715338
 30
0.0
 11
21.96533799999988
 21
267.2553720000001
 31
0.0
  0
LINE
  5
4C04B
330
4B7F3
100
AcDbEntity
  8
0
 62
     0
100
AcDbLine
 10
21.51914699999988
 20
267.7722739999999
 30
0.0
 11
22.02227400000006
 21
267.269147
 31
0.0
  0
LINE
  5
4C04C
330
4B7F3
100
AcDbEntity
  8
0
 62
     0
100
AcDbLine
 10
21.53927699999999
 20
267.8228549999999
 30
0.0
 11
22.07285500000003
 21
267.2892769999999
 31
0.0
  0
LINE
  5
4C04D
330
4B7F3
100
AcDbEntity
  8
0
 62
     0
100
AcDbLine
 10
21.5647109999999
 20
267.8681320000001
 30
0.0
 11
22.11813199999997
 21
267.314711
 31
0.0
  0
LINE
  5
4C04E
330
4B7F3
100
AcDbEntity
  8
0
 62
     0
100
AcDbLine
 10
21.59488899999987
 20
267.908664
 30
0.0
 11
22.15866399999995
 21
267.344889
 31
0.0
  0
LINE
  5
4C04F
330
4B7F3
100
AcDbEntity
  8
0
 62
     0
100
AcDbLine
 10
21.62955000000002
 20
267.9447140000002
 30
0.0
 11
22.19471400000011
 21
267.3795500000001
 31
0.0
  0
LINE
  5
4C050
330
4B7F3
100
AcDbEntity
  8
0
 62
     0
100
AcDbLine
 10
21.66865999999995
 20
267.9763149999999
 30
0.0
 11
22.22631500000002
 21
267.4186599999998
 31
0.0
  0
LINE
  5
4C051
330
4B7F3
100
AcDbEntity
  8
0
 62
     0
100
AcDbLine
 10
21.71240400000001
 20
268.0032809999998
 30
0.0
 11
22.25328100000015
 21
267.4624039999999
 31
0.0
  0
LINE
  5
4C052
330
4B7F3
100
AcDbEntity
  8
0
 62
     0
100
AcDbLine
 10
21.50777600000006
 20
267.5715140000002
 30
0.0
 11
21.82151400000011
 21
267.2577759999999
 31
0.0
  0
LINE
  5
4C053
330
4B7F3
100
AcDbEntity
  8
0
 62
     0
100
AcDbLine
 10
21.76123700000007
 20
261.27484
 30
0.0
 11
22.27516000000005
 21
261.788763
 31
0.0
  0
LINE
  5
4C054
330
4B7F3
100
AcDbEntity
  8
0
 62
     0
100
AcDbLine
 10
21.81602199999988
 20
261.2589149999999
 30
0.0
 11
22.29108499999997
 21
261.7339780000002
 31
0.0
  0
LINE
  5
4C055
330
4B7F3
100
AcDbEntity
  8
0
 62
     0
100
AcDbLine
 10
21.87840099999985
 20
261.2505839999999
 30
0.0
 11
22.29941599999997
 21
261.6715989999998
 31
0.0
  0
LINE
  5
4C056
330
4B7F3
100
AcDbEntity
  8
0
 62
     0
100
AcDbLine
 10
21.95191100000002
 20
261.2533830000002
 30
0.0
 11
22.29661699999988
 21
261.5980890000001
 31
0.0
  0
LINE
  5
4C057
330
4B7F3
100
AcDbEntity
  8
0
 62
     0
100
AcDbLine
 10
22.04737999999988
 20
261.2781409999998
 30
0.0
 11
22.27185899999986
 21
261.5026200000002
 31
0.0
  0
LINE
  5
4C058
330
4B7F3
100
AcDbEntity
  8
0
 62
     0
100
AcDbLine
 10
21.76123700000007
 20
262.0251600000001
 30
0.0
 11
22.27516000000005
 21
261.5112370000002
 31
0.0
  0
LINE
  5
4C059
330
4B7F3
100
AcDbEntity
  8
0
 62
     0
100
AcDbLine
 10
21.81602199999988
 20
262.0410849999998
 30
0.0
 11
22.29108499999997
 21
261.566022
 31
0.0
  0
LINE
  5
4C05A
330
4B7F3
100
AcDbEntity
  8
0
 62
     0
100
AcDbLine
 10
21.87840099999985
 20
262.0494159999998
 30
0.0
 11
22.29941599999997
 21
261.6284009999999
 31
0.0
  0
LINE
  5
4C05B
330
4B7F3
100
AcDbEntity
  8
0
 62
     0
100
AcDbLine
 10
21.95191100000002
 20
262.046617
 30
0.0
 11
22.29661699999988
 21
261.7019110000001
 31
0.0
  0
LINE
  5
4C05C
330
4B7F3
100
AcDbEntity
  8
0
 62
     0
100
AcDbLine
 10
22.04737999999988
 20
262.0218589999999
 30
0.0
 11
22.27185899999986
 21
261.79738
 31
0.0
  0
LINE
  5
4C05D
330
4B7F3
100
AcDbEntity
  8
0
 62
     0
100
AcDbLine
 10
21.76123700000007
 20
255.27484
 30
0.0
 11
22.27516000000005
 21
255.788763
 31
0.0
  0
LINE
  5
4C05E
330
4B7F3
100
AcDbEntity
  8
0
 62
     0
100
AcDbLine
 10
21.81602199999988
 20
255.2589149999999
 30
0.0
 11
22.29108499999997
 21
255.7339780000002
 31
0.0
  0
LINE
  5
4C05F
330
4B7F3
100
AcDbEntity
  8
0
 62
     0
100
AcDbLine
 10
21.87840099999985
 20
255.2505839999999
 30
0.0
 11
22.29941599999997
 21
255.6715989999998
 31
0.0
  0
LINE
  5
4C060
330
4B7F3
100
AcDbEntity
  8
0
 62
     0
100
AcDbLine
 10
21.95191100000002
 20
255.2533830000002
 30
0.0
 11
22.29661699999988
 21
255.5980890000001
 31
0.0
  0
LINE
  5
4C061
330
4B7F3
100
AcDbEntity
  8
0
 62
     0
100
AcDbLine
 10
22.04737999999988
 20
255.2781409999998
 30
0.0
 11
22.27185899999986
 21
255.5026200000002
 31
0.0
  0
LINE
  5
4C062
330
4B7F3
100
AcDbEntity
  8
0
 62
     0
100
AcDbLine
 10
21.76123700000007
 20
256.0251600000001
 30
0.0
 11
22.27516000000005
 21
255.5112370000002
 31
0.0
  0
LINE
  5
4C063
330
4B7F3
100
AcDbEntity
  8
0
 62
     0
100
AcDbLine
 10
21.81602199999988
 20
256.0410849999998
 30
0.0
 11
22.29108499999997
 21
255.566022
 31
0.0
  0
LINE
  5
4C064
330
4B7F3
100
AcDbEntity
  8
0
 62
     0
100
AcDbLine
 10
21.87840099999985
 20
256.0494159999998
 30
0.0
 11
22.29941599999997
 21
255.6284009999999
 31
0.0
  0
LINE
  5
4C065
330
4B7F3
100
AcDbEntity
  8
0
 62
     0
100
AcDbLine
 10
21.95191100000002
 20
256.046617
 30
0.0
 11
22.29661699999988
 21
255.7019110000001
 31
0.0
  0
LINE
  5
4C066
330
4B7F3
100
AcDbEntity
  8
0
 62
     0
100
AcDbLine
 10
22.04737999999988
 20
256.0218589999999
 30
0.0
 11
22.27185899999986
 21
255.79738
 31
0.0
  0
LINE
  5
4C067
330
4B7F3
100
AcDbEntity
  8
0
 62
     0
100
AcDbLine
 10
21.54733999999998
 20
261.838761
 30
0.0
 11
21.71123900000011
 21
262.0026600000001
 31
0.0
  0
LINE
  5
4C068
330
4B7F3
100
AcDbEntity
  8
0
 62
     0
100
AcDbLine
 10
21.54733999999998
 20
261.4612390000002
 30
0.0
 11
21.71123900000011
 21
261.2973400000001
 31
0.0
  0
LINE
  5
4C069
330
4B7F3
100
AcDbEntity
  8
0
 62
     0
100
AcDbLine
 10
21.54733999999998
 20
255.838761
 30
0.0
 11
21.71123900000011
 21
256.0026600000001
 31
0.0
  0
LINE
  5
4C06A
330
4B7F3
100
AcDbEntity
  8
0
 62
     0
100
AcDbLine
 10
21.54733999999998
 20
255.4612390000002
 30
0.0
 11
21.71123900000011
 21
255.2973400000001
 31
0.0
  0
LINE
  5
4C06B
330
4B7F3
100
AcDbEntity
  8
0
 62
     0
100
AcDbLine
 10
21.49999999999991
 20
261.6500000000001
 30
0.0
 11
21.9
 21
262.0500000000002
 31
0.0
  0
LINE
  5
4C06C
330
4B7F3
100
AcDbEntity
  8
0
 62
     0
100
AcDbLine
 10
21.50777600000006
 20
261.728486
 30
0.0
 11
21.82151400000011
 21
262.0422239999998
 31
0.0
  0
LINE
  5
4C06D
330
4B7F3
100
AcDbEntity
  8
0
 62
     0
100
AcDbLine
 10
21.50537199999999
 20
261.5846620000002
 30
0.0
 11
21.96533799999988
 21
262.0446280000001
 31
0.0
  0
LINE
  5
4C06E
330
4B7F3
100
AcDbEntity
  8
0
 62
     0
100
AcDbLine
 10
21.51914699999988
 20
261.5277259999998
 30
0.0
 11
22.02227400000006
 21
262.0308530000002
 31
0.0
  0
LINE
  5
4C06F
330
4B7F3
100
AcDbEntity
  8
0
 62
     0
100
AcDbLine
 10
21.53927699999999
 20
261.4771449999998
 30
0.0
 11
22.07285500000003
 21
262.0107229999999
 31
0.0
  0
LINE
  5
4C070
330
4B7F3
100
AcDbEntity
  8
0
 62
     0
100
AcDbLine
 10
21.5647109999999
 20
261.4318680000001
 30
0.0
 11
22.11813199999997
 21
261.9852890000002
 31
0.0
  0
LINE
  5
4C071
330
4B7F3
100
AcDbEntity
  8
0
 62
     0
100
AcDbLine
 10
21.59488899999987
 20
261.3913360000001
 30
0.0
 11
22.15866399999995
 21
261.9551110000002
 31
0.0
  0
LINE
  5
4C072
330
4B7F3
100
AcDbEntity
  8
0
 62
     0
100
AcDbLine
 10
21.62955000000002
 20
261.355286
 30
0.0
 11
22.19471400000011
 21
261.9204500000001
 31
0.0
  0
LINE
  5
4C073
330
4B7F3
100
AcDbEntity
  8
0
 62
     0
100
AcDbLine
 10
21.66865999999995
 20
261.3236849999998
 30
0.0
 11
22.22631500000002
 21
261.8813399999999
 31
0.0
  0
LINE
  5
4C074
330
4B7F3
100
AcDbEntity
  8
0
 62
     0
100
AcDbLine
 10
21.71240400000001
 20
261.2967189999999
 30
0.0
 11
22.25328100000015
 21
261.8375959999998
 31
0.0
  0
LINE
  5
4C075
330
4B7F3
100
AcDbEntity
  8
0
 62
     0
100
AcDbLine
 10
21.49999999999991
 20
261.6500000000001
 30
0.0
 11
21.9
 21
261.25
 31
0.0
  0
LINE
  5
4C076
330
4B7F3
100
AcDbEntity
  8
0
 62
     0
100
AcDbLine
 10
21.50537199999999
 20
261.715338
 30
0.0
 11
21.96533799999988
 21
261.2553720000001
 31
0.0
  0
LINE
  5
4C077
330
4B7F3
100
AcDbEntity
  8
0
 62
     0
100
AcDbLine
 10
21.51914699999988
 20
261.7722739999999
 30
0.0
 11
22.02227400000006
 21
261.269147
 31
0.0
  0
LINE
  5
4C078
330
4B7F3
100
AcDbEntity
  8
0
 62
     0
100
AcDbLine
 10
21.53927699999999
 20
261.8228549999999
 30
0.0
 11
22.07285500000003
 21
261.2892769999999
 31
0.0
  0
LINE
  5
4C079
330
4B7F3
100
AcDbEntity
  8
0
 62
     0
100
AcDbLine
 10
21.5647109999999
 20
261.8681320000001
 30
0.0
 11
22.11813199999997
 21
261.314711
 31
0.0
  0
LINE
  5
4C07A
330
4B7F3
100
AcDbEntity
  8
0
 62
     0
100
AcDbLine
 10
21.59488899999987
 20
261.908664
 30
0.0
 11
22.15866399999995
 21
261.344889
 31
0.0
  0
LINE
  5
4C07B
330
4B7F3
100
AcDbEntity
  8
0
 62
     0
100
AcDbLine
 10
21.62955000000002
 20
261.9447140000002
 30
0.0
 11
22.19471400000011
 21
261.3795500000001
 31
0.0
  0
LINE
  5
4C07C
330
4B7F3
100
AcDbEntity
  8
0
 62
     0
100
AcDbLine
 10
21.66865999999995
 20
261.9763149999999
 30
0.0
 11
22.22631500000002
 21
261.4186599999998
 31
0.0
  0
LINE
  5
4C07D
330
4B7F3
100
AcDbEntity
  8
0
 62
     0
100
AcDbLine
 10
21.71240400000001
 20
262.0032809999998
 30
0.0
 11
22.25328100000015
 21
261.4624039999999
 31
0.0
  0
LINE
  5
4C07E
330
4B7F3
100
AcDbEntity
  8
0
 62
     0
100
AcDbLine
 10
21.50777600000006
 20
261.5715140000002
 30
0.0
 11
21.82151400000011
 21
261.2577759999999
 31
0.0
  0
LINE
  5
4C07F
330
4B7F3
100
AcDbEntity
  8
0
 62
     0
100
AcDbLine
 10
21.49999999999991
 20
255.6500000000001
 30
0.0
 11
21.9
 21
256.0500000000002
 31
0.0
  0
LINE
  5
4C080
330
4B7F3
100
AcDbEntity
  8
0
 62
     0
100
AcDbLine
 10
21.50777600000006
 20
255.728486
 30
0.0
 11
21.82151400000011
 21
256.0422239999998
 31
0.0
  0
LINE
  5
4C081
330
4B7F3
100
AcDbEntity
  8
0
 62
     0
100
AcDbLine
 10
21.50537199999999
 20
255.5846620000002
 30
0.0
 11
21.96533799999988
 21
256.0446280000001
 31
0.0
  0
LINE
  5
4C082
330
4B7F3
100
AcDbEntity
  8
0
 62
     0
100
AcDbLine
 10
21.51914699999988
 20
255.5277259999998
 30
0.0
 11
22.02227400000006
 21
256.0308530000002
 31
0.0
  0
LINE
  5
4C083
330
4B7F3
100
AcDbEntity
  8
0
 62
     0
100
AcDbLine
 10
21.53927699999999
 20
255.4771449999998
 30
0.0
 11
22.07285500000003
 21
256.0107229999999
 31
0.0
  0
LINE
  5
4C084
330
4B7F3
100
AcDbEntity
  8
0
 62
     0
100
AcDbLine
 10
21.5647109999999
 20
255.4318680000001
 30
0.0
 11
22.11813199999997
 21
255.9852890000002
 31
0.0
  0
LINE
  5
4C085
330
4B7F3
100
AcDbEntity
  8
0
 62
     0
100
AcDbLine
 10
21.59488899999987
 20
255.3913360000001
 30
0.0
 11
22.15866399999995
 21
255.9551110000002
 31
0.0
  0
LINE
  5
4C086
330
4B7F3
100
AcDbEntity
  8
0
 62
     0
100
AcDbLine
 10
21.62955000000002
 20
255.355286
 30
0.0
 11
22.19471400000011
 21
255.9204500000001
 31
0.0
  0
LINE
  5
4C087
330
4B7F3
100
AcDbEntity
  8
0
 62
     0
100
AcDbLine
 10
21.66865999999995
 20
255.3236849999998
 30
0.0
 11
22.22631500000002
 21
255.8813399999999
 31
0.0
  0
LINE
  5
4C088
330
4B7F3
100
AcDbEntity
  8
0
 62
     0
100
AcDbLine
 10
21.71240400000001
 20
255.2967189999999
 30
0.0
 11
22.25328100000015
 21
255.8375959999998
 31
0.0
  0
LINE
  5
4C089
330
4B7F3
100
AcDbEntity
  8
0
 62
     0
100
AcDbLine
 10
21.49999999999991
 20
255.6500000000001
 30
0.0
 11
21.9
 21
255.25
 31
0.0
  0
LINE
  5
4C08A
330
4B7F3
100
AcDbEntity
  8
0
 62
     0
100
AcDbLine
 10
21.50537199999999
 20
255.715338
 30
0.0
 11
21.96533799999988
 21
255.2553720000001
 31
0.0
  0
LINE
  5
4C08B
330
4B7F3
100
AcDbEntity
  8
0
 62
     0
100
AcDbLine
 10
21.51914699999988
 20
255.7722739999999
 30
0.0
 11
22.02227400000006
 21
255.269147
 31
0.0
  0
LINE
  5
4C08C
330
4B7F3
100
AcDbEntity
  8
0
 62
     0
100
AcDbLine
 10
21.53927699999999
 20
255.8228549999999
 30
0.0
 11
22.07285500000003
 21
255.2892769999999
 31
0.0
  0
LINE
  5
4C08D
330
4B7F3
100
AcDbEntity
  8
0
 62
     0
100
AcDbLine
 10
21.5647109999999
 20
255.8681320000001
 30
0.0
 11
22.11813199999997
 21
255.314711
 31
0.0
  0
LINE
  5
4C08E
330
4B7F3
100
AcDbEntity
  8
0
 62
     0
100
AcDbLine
 10
21.59488899999987
 20
255.908664
 30
0.0
 11
22.15866399999995
 21
255.344889
 31
0.0
  0
LINE
  5
4C08F
330
4B7F3
100
AcDbEntity
  8
0
 62
     0
100
AcDbLine
 10
21.62955000000002
 20
255.9447140000002
 30
0.0
 11
22.19471400000011
 21
255.3795500000001
 31
0.0
  0
LINE
  5
4C090
330
4B7F3
100
AcDbEntity
  8
0
 62
     0
100
AcDbLine
 10
21.66865999999995
 20
255.9763149999999
 30
0.0
 11
22.22631500000002
 21
255.4186599999998
 31
0.0
  0
LINE
  5
4C091
330
4B7F3
100
AcDbEntity
  8
0
 62
     0
100
AcDbLine
 10
21.71240400000001
 20
256.0032809999998
 30
0.0
 11
22.25328100000015
 21
255.4624039999999
 31
0.0
  0
LINE
  5
4C092
330
4B7F3
100
AcDbEntity
  8
0
 62
     0
100
AcDbLine
 10
21.50777600000006
 20
255.5715140000002
 30
0.0
 11
21.82151400000011
 21
255.2577759999999
 31
0.0
  0
LINE
  5
4C093
330
4B7F3
100
AcDbEntity
  8
0
 62
     0
100
AcDbLine
 10
21.76123700000007
 20
249.27484
 30
0.0
 11
22.27516000000005
 21
249.788763
 31
0.0
  0
LINE
  5
4C094
330
4B7F3
100
AcDbEntity
  8
0
 62
     0
100
AcDbLine
 10
21.81602199999988
 20
249.2589149999999
 30
0.0
 11
22.29108499999997
 21
249.7339780000002
 31
0.0
  0
LINE
  5
4C095
330
4B7F3
100
AcDbEntity
  8
0
 62
     0
100
AcDbLine
 10
21.87840099999985
 20
249.2505839999999
 30
0.0
 11
22.29941599999997
 21
249.6715989999998
 31
0.0
  0
LINE
  5
4C096
330
4B7F3
100
AcDbEntity
  8
0
 62
     0
100
AcDbLine
 10
21.95191100000002
 20
249.2533830000002
 30
0.0
 11
22.29661699999988
 21
249.5980890000001
 31
0.0
  0
LINE
  5
4C097
330
4B7F3
100
AcDbEntity
  8
0
 62
     0
100
AcDbLine
 10
22.04737999999988
 20
249.2781409999998
 30
0.0
 11
22.27185899999986
 21
249.5026200000002
 31
0.0
  0
LINE
  5
4C098
330
4B7F3
100
AcDbEntity
  8
0
 62
     0
100
AcDbLine
 10
21.76123700000007
 20
250.0251600000001
 30
0.0
 11
22.27516000000005
 21
249.5112370000002
 31
0.0
  0
LINE
  5
4C099
330
4B7F3
100
AcDbEntity
  8
0
 62
     0
100
AcDbLine
 10
21.81602199999988
 20
250.0410849999998
 30
0.0
 11
22.29108499999997
 21
249.566022
 31
0.0
  0
LINE
  5
4C09A
330
4B7F3
100
AcDbEntity
  8
0
 62
     0
100
AcDbLine
 10
21.87840099999985
 20
250.0494159999998
 30
0.0
 11
22.29941599999997
 21
249.6284009999999
 31
0.0
  0
LINE
  5
4C09B
330
4B7F3
100
AcDbEntity
  8
0
 62
     0
100
AcDbLine
 10
21.95191100000002
 20
250.046617
 30
0.0
 11
22.29661699999988
 21
249.7019110000001
 31
0.0
  0
LINE
  5
4C09C
330
4B7F3
100
AcDbEntity
  8
0
 62
     0
100
AcDbLine
 10
22.04737999999988
 20
250.0218589999999
 30
0.0
 11
22.27185899999986
 21
249.79738
 31
0.0
  0
LINE
  5
4C09D
330
4B7F3
100
AcDbEntity
  8
0
 62
     0
100
AcDbLine
 10
21.76123700000007
 20
243.27484
 30
0.0
 11
22.27516000000005
 21
243.788763
 31
0.0
  0
LINE
  5
4C09E
330
4B7F3
100
AcDbEntity
  8
0
 62
     0
100
AcDbLine
 10
21.81602199999988
 20
243.2589149999999
 30
0.0
 11
22.29108499999997
 21
243.7339780000002
 31
0.0
  0
LINE
  5
4C09F
330
4B7F3
100
AcDbEntity
  8
0
 62
     0
100
AcDbLine
 10
21.87840099999985
 20
243.2505839999999
 30
0.0
 11
22.29941599999997
 21
243.6715989999998
 31
0.0
  0
LINE
  5
4C0A0
330
4B7F3
100
AcDbEntity
  8
0
 62
     0
100
AcDbLine
 10
21.95191100000002
 20
243.2533830000002
 30
0.0
 11
22.29661699999988
 21
243.5980890000001
 31
0.0
  0
LINE
  5
4C0A1
330
4B7F3
100
AcDbEntity
  8
0
 62
     0
100
AcDbLine
 10
22.04737999999988
 20
243.2781409999998
 30
0.0
 11
22.27185899999986
 21
243.5026200000002
 31
0.0
  0
LINE
  5
4C0A2
330
4B7F3
100
AcDbEntity
  8
0
 62
     0
100
AcDbLine
 10
21.76123700000007
 20
244.0251600000001
 30
0.0
 11
22.27516000000005
 21
243.5112370000002
 31
0.0
  0
LINE
  5
4C0A3
330
4B7F3
100
AcDbEntity
  8
0
 62
     0
100
AcDbLine
 10
21.81602199999988
 20
244.0410849999998
 30
0.0
 11
22.29108499999997
 21
243.566022
 31
0.0
  0
LINE
  5
4C0A4
330
4B7F3
100
AcDbEntity
  8
0
 62
     0
100
AcDbLine
 10
21.87840099999985
 20
244.0494159999998
 30
0.0
 11
22.29941599999997
 21
243.6284009999999
 31
0.0
  0
LINE
  5
4C0A5
330
4B7F3
100
AcDbEntity
  8
0
 62
     0
100
AcDbLine
 10
21.95191100000002
 20
244.046617
 30
0.0
 11
22.29661699999988
 21
243.7019110000001
 31
0.0
  0
LINE
  5
4C0A6
330
4B7F3
100
AcDbEntity
  8
0
 62
     0
100
AcDbLine
 10
22.04737999999988
 20
244.0218589999999
 30
0.0
 11
22.27185899999986
 21
243.79738
 31
0.0
  0
LINE
  5
4C0A7
330
4B7F3
100
AcDbEntity
  8
0
 62
     0
100
AcDbLine
 10
21.54733999999998
 20
249.838761
 30
0.0
 11
21.71123900000011
 21
250.0026600000001
 31
0.0
  0
LINE
  5
4C0A8
330
4B7F3
100
AcDbEntity
  8
0
 62
     0
100
AcDbLine
 10
21.54733999999998
 20
249.4612390000002
 30
0.0
 11
21.71123900000011
 21
249.2973400000001
 31
0.0
  0
LINE
  5
4C0A9
330
4B7F3
100
AcDbEntity
  8
0
 62
     0
100
AcDbLine
 10
21.54733999999998
 20
243.838761
 30
0.0
 11
21.71123900000011
 21
244.0026600000001
 31
0.0
  0
LINE
  5
4C0AA
330
4B7F3
100
AcDbEntity
  8
0
 62
     0
100
AcDbLine
 10
21.54733999999998
 20
243.4612390000002
 30
0.0
 11
21.71123900000011
 21
243.2973400000001
 31
0.0
  0
LINE
  5
4C0AB
330
4B7F3
100
AcDbEntity
  8
0
 62
     0
100
AcDbLine
 10
21.49999999999991
 20
249.6500000000001
 30
0.0
 11
21.9
 21
250.0500000000002
 31
0.0
  0
LINE
  5
4C0AC
330
4B7F3
100
AcDbEntity
  8
0
 62
     0
100
AcDbLine
 10
21.50777600000006
 20
249.728486
 30
0.0
 11
21.82151400000011
 21
250.0422239999998
 31
0.0
  0
LINE
  5
4C0AD
330
4B7F3
100
AcDbEntity
  8
0
 62
     0
100
AcDbLine
 10
21.50537199999999
 20
249.5846620000002
 30
0.0
 11
21.96533799999988
 21
250.0446280000001
 31
0.0
  0
LINE
  5
4C0AE
330
4B7F3
100
AcDbEntity
  8
0
 62
     0
100
AcDbLine
 10
21.51914699999988
 20
249.5277259999998
 30
0.0
 11
22.02227400000006
 21
250.0308530000002
 31
0.0
  0
LINE
  5
4C0AF
330
4B7F3
100
AcDbEntity
  8
0
 62
     0
100
AcDbLine
 10
21.53927699999999
 20
249.4771449999998
 30
0.0
 11
22.07285500000003
 21
250.0107229999999
 31
0.0
  0
LINE
  5
4C0B0
330
4B7F3
100
AcDbEntity
  8
0
 62
     0
100
AcDbLine
 10
21.5647109999999
 20
249.4318680000001
 30
0.0
 11
22.11813199999997
 21
249.9852890000002
 31
0.0
  0
LINE
  5
4C0B1
330
4B7F3
100
AcDbEntity
  8
0
 62
     0
100
AcDbLine
 10
21.59488899999987
 20
249.3913360000001
 30
0.0
 11
22.15866399999995
 21
249.9551110000002
 31
0.0
  0
LINE
  5
4C0B2
330
4B7F3
100
AcDbEntity
  8
0
 62
     0
100
AcDbLine
 10
21.62955000000002
 20
249.355286
 30
0.0
 11
22.19471400000011
 21
249.9204500000001
 31
0.0
  0
LINE
  5
4C0B3
330
4B7F3
100
AcDbEntity
  8
0
 62
     0
100
AcDbLine
 10
21.66865999999995
 20
249.3236849999998
 30
0.0
 11
22.22631500000002
 21
249.8813399999999
 31
0.0
  0
LINE
  5
4C0B4
330
4B7F3
100
AcDbEntity
  8
0
 62
     0
100
AcDbLine
 10
21.71240400000001
 20
249.2967189999999
 30
0.0
 11
22.25328100000015
 21
249.8375959999998
 31
0.0
  0
LINE
  5
4C0B5
330
4B7F3
100
AcDbEntity
  8
0
 62
     0
100
AcDbLine
 10
21.49999999999991
 20
249.6500000000001
 30
0.0
 11
21.9
 21
249.25
 31
0.0
  0
LINE
  5
4C0B6
330
4B7F3
100
AcDbEntity
  8
0
 62
     0
100
AcDbLine
 10
21.50537199999999
 20
249.715338
 30
0.0
 11
21.96533799999988
 21
249.2553720000001
 31
0.0
  0
LINE
  5
4C0B7
330
4B7F3
100
AcDbEntity
  8
0
 62
     0
100
AcDbLine
 10
21.51914699999988
 20
249.7722739999999
 30
0.0
 11
22.02227400000006
 21
249.269147
 31
0.0
  0
LINE
  5
4C0B8
330
4B7F3
100
AcDbEntity
  8
0
 62
     0
100
AcDbLine
 10
21.53927699999999
 20
249.8228549999999
 30
0.0
 11
22.07285500000003
 21
249.2892769999999
 31
0.0
  0
LINE
  5
4C0B9
330
4B7F3
100
AcDbEntity
  8
0
 62
     0
100
AcDbLine
 10
21.5647109999999
 20
249.8681320000001
 30
0.0
 11
22.11813199999997
 21
249.314711
 31
0.0
  0
LINE
  5
4C0BA
330
4B7F3
100
AcDbEntity
  8
0
 62
     0
100
AcDbLine
 10
21.59488899999987
 20
249.908664
 30
0.0
 11
22.15866399999995
 21
249.344889
 31
0.0
  0
LINE
  5
4C0BB
330
4B7F3
100
AcDbEntity
  8
0
 62
     0
100
AcDbLine
 10
21.62955000000002
 20
249.9447140000002
 30
0.0
 11
22.19471400000011
 21
249.3795500000001
 31
0.0
  0
LINE
  5
4C0BC
330
4B7F3
100
AcDbEntity
  8
0
 62
     0
100
AcDbLine
 10
21.66865999999995
 20
249.9763149999999
 30
0.0
 11
22.22631500000002
 21
249.4186599999998
 31
0.0
  0
LINE
  5
4C0BD
330
4B7F3
100
AcDbEntity
  8
0
 62
     0
100
AcDbLine
 10
21.71240400000001
 20
250.0032809999998
 30
0.0
 11
22.25328100000015
 21
249.4624039999999
 31
0.0
  0
LINE
  5
4C0BE
330
4B7F3
100
AcDbEntity
  8
0
 62
     0
100
AcDbLine
 10
21.50777600000006
 20
249.5715140000002
 30
0.0
 11
21.82151400000011
 21
249.2577759999999
 31
0.0
  0
LINE
  5
4C0BF
330
4B7F3
100
AcDbEntity
  8
0
 62
     0
100
AcDbLine
 10
21.49999999999991
 20
243.6500000000001
 30
0.0
 11
21.9
 21
244.0500000000002
 31
0.0
  0
LINE
  5
4C0C0
330
4B7F3
100
AcDbEntity
  8
0
 62
     0
100
AcDbLine
 10
21.50777600000006
 20
243.728486
 30
0.0
 11
21.82151400000011
 21
244.0422239999998
 31
0.0
  0
LINE
  5
4C0C1
330
4B7F3
100
AcDbEntity
  8
0
 62
     0
100
AcDbLine
 10
21.50537199999999
 20
243.5846620000002
 30
0.0
 11
21.96533799999988
 21
244.0446280000001
 31
0.0
  0
LINE
  5
4C0C2
330
4B7F3
100
AcDbEntity
  8
0
 62
     0
100
AcDbLine
 10
21.51914699999988
 20
243.5277259999998
 30
0.0
 11
22.02227400000006
 21
244.0308530000002
 31
0.0
  0
LINE
  5
4C0C3
330
4B7F3
100
AcDbEntity
  8
0
 62
     0
100
AcDbLine
 10
21.53927699999999
 20
243.4771449999998
 30
0.0
 11
22.07285500000003
 21
244.0107229999999
 31
0.0
  0
LINE
  5
4C0C4
330
4B7F3
100
AcDbEntity
  8
0
 62
     0
100
AcDbLine
 10
21.5647109999999
 20
243.4318680000001
 30
0.0
 11
22.11813199999997
 21
243.9852890000002
 31
0.0
  0
LINE
  5
4C0C5
330
4B7F3
100
AcDbEntity
  8
0
 62
     0
100
AcDbLine
 10
21.59488899999987
 20
243.3913360000001
 30
0.0
 11
22.15866399999995
 21
243.9551110000002
 31
0.0
  0
LINE
  5
4C0C6
330
4B7F3
100
AcDbEntity
  8
0
 62
     0
100
AcDbLine
 10
21.62955000000002
 20
243.355286
 30
0.0
 11
22.19471400000011
 21
243.9204500000001
 31
0.0
  0
LINE
  5
4C0C7
330
4B7F3
100
AcDbEntity
  8
0
 62
     0
100
AcDbLine
 10
21.66865999999995
 20
243.3236849999998
 30
0.0
 11
22.22631500000002
 21
243.8813399999999
 31
0.0
  0
LINE
  5
4C0C8
330
4B7F3
100
AcDbEntity
  8
0
 62
     0
100
AcDbLine
 10
21.71240400000001
 20
243.2967189999999
 30
0.0
 11
22.25328100000015
 21
243.8375959999998
 31
0.0
  0
LINE
  5
4C0C9
330
4B7F3
100
AcDbEntity
  8
0
 62
     0
100
AcDbLine
 10
21.49999999999991
 20
243.6500000000001
 30
0.0
 11
21.9
 21
243.25
 31
0.0
  0
LINE
  5
4C0CA
330
4B7F3
100
AcDbEntity
  8
0
 62
     0
100
AcDbLine
 10
21.50537199999999
 20
243.715338
 30
0.0
 11
21.96533799999988
 21
243.2553720000001
 31
0.0
  0
LINE
  5
4C0CB
330
4B7F3
100
AcDbEntity
  8
0
 62
     0
100
AcDbLine
 10
21.51914699999988
 20
243.7722739999999
 30
0.0
 11
22.02227400000006
 21
243.269147
 31
0.0
  0
LINE
  5
4C0CC
330
4B7F3
100
AcDbEntity
  8
0
 62
     0
100
AcDbLine
 10
21.53927699999999
 20
243.8228549999999
 30
0.0
 11
22.07285500000003
 21
243.2892769999999
 31
0.0
  0
LINE
  5
4C0CD
330
4B7F3
100
AcDbEntity
  8
0
 62
     0
100
AcDbLine
 10
21.5647109999999
 20
243.8681320000001
 30
0.0
 11
22.11813199999997
 21
243.314711
 31
0.0
  0
LINE
  5
4C0CE
330
4B7F3
100
AcDbEntity
  8
0
 62
     0
100
AcDbLine
 10
21.59488899999987
 20
243.908664
 30
0.0
 11
22.15866399999995
 21
243.344889
 31
0.0
  0
LINE
  5
4C0CF
330
4B7F3
100
AcDbEntity
  8
0
 62
     0
100
AcDbLine
 10
21.62955000000002
 20
243.9447140000002
 30
0.0
 11
22.19471400000011
 21
243.3795500000001
 31
0.0
  0
LINE
  5
4C0D0
330
4B7F3
100
AcDbEntity
  8
0
 62
     0
100
AcDbLine
 10
21.66865999999995
 20
243.9763149999999
 30
0.0
 11
22.22631500000002
 21
243.4186599999998
 31
0.0
  0
LINE
  5
4C0D1
330
4B7F3
100
AcDbEntity
  8
0
 62
     0
100
AcDbLine
 10
21.71240400000001
 20
244.0032809999998
 30
0.0
 11
22.25328100000015
 21
243.4624039999999
 31
0.0
  0
LINE
  5
4C0D2
330
4B7F3
100
AcDbEntity
  8
0
 62
     0
100
AcDbLine
 10
21.50777600000006
 20
243.5715140000002
 30
0.0
 11
21.82151400000011
 21
243.2577759999999
 31
0.0
  0
LINE
  5
4C0D3
330
4B7F3
100
AcDbEntity
  8
0
 62
     0
100
AcDbLine
 10
21.76123700000007
 20
237.27484
 30
0.0
 11
22.27516000000005
 21
237.788763
 31
0.0
  0
LINE
  5
4C0D4
330
4B7F3
100
AcDbEntity
  8
0
 62
     0
100
AcDbLine
 10
21.81602199999988
 20
237.2589149999999
 30
0.0
 11
22.29108499999997
 21
237.7339780000002
 31
0.0
  0
LINE
  5
4C0D5
330
4B7F3
100
AcDbEntity
  8
0
 62
     0
100
AcDbLine
 10
21.87840099999985
 20
237.2505839999999
 30
0.0
 11
22.29941599999997
 21
237.6715989999998
 31
0.0
  0
LINE
  5
4C0D6
330
4B7F3
100
AcDbEntity
  8
0
 62
     0
100
AcDbLine
 10
21.95191100000002
 20
237.2533830000002
 30
0.0
 11
22.29661699999988
 21
237.5980890000001
 31
0.0
  0
LINE
  5
4C0D7
330
4B7F3
100
AcDbEntity
  8
0
 62
     0
100
AcDbLine
 10
22.04737999999988
 20
237.2781409999998
 30
0.0
 11
22.27185899999986
 21
237.5026200000002
 31
0.0
  0
LINE
  5
4C0D8
330
4B7F3
100
AcDbEntity
  8
0
 62
     0
100
AcDbLine
 10
21.76123700000007
 20
238.0251600000001
 30
0.0
 11
22.27516000000005
 21
237.5112370000002
 31
0.0
  0
LINE
  5
4C0D9
330
4B7F3
100
AcDbEntity
  8
0
 62
     0
100
AcDbLine
 10
21.81602199999988
 20
238.0410849999998
 30
0.0
 11
22.29108499999997
 21
237.566022
 31
0.0
  0
LINE
  5
4C0DA
330
4B7F3
100
AcDbEntity
  8
0
 62
     0
100
AcDbLine
 10
21.87840099999985
 20
238.0494159999998
 30
0.0
 11
22.29941599999997
 21
237.6284009999999
 31
0.0
  0
LINE
  5
4C0DB
330
4B7F3
100
AcDbEntity
  8
0
 62
     0
100
AcDbLine
 10
21.95191100000002
 20
238.046617
 30
0.0
 11
22.29661699999988
 21
237.7019110000001
 31
0.0
  0
LINE
  5
4C0DC
330
4B7F3
100
AcDbEntity
  8
0
 62
     0
100
AcDbLine
 10
22.04737999999988
 20
238.0218589999999
 30
0.0
 11
22.27185899999986
 21
237.79738
 31
0.0
  0
LINE
  5
4C0DD
330
4B7F3
100
AcDbEntity
  8
0
 62
     0
100
AcDbLine
 10
21.76123700000007
 20
231.27484
 30
0.0
 11
22.27516000000005
 21
231.788763
 31
0.0
  0
LINE
  5
4C0DE
330
4B7F3
100
AcDbEntity
  8
0
 62
     0
100
AcDbLine
 10
21.81602199999988
 20
231.2589149999999
 30
0.0
 11
22.29108499999997
 21
231.7339780000002
 31
0.0
  0
LINE
  5
4C0DF
330
4B7F3
100
AcDbEntity
  8
0
 62
     0
100
AcDbLine
 10
21.87840099999985
 20
231.2505839999999
 30
0.0
 11
22.29941599999997
 21
231.6715989999998
 31
0.0
  0
LINE
  5
4C0E0
330
4B7F3
100
AcDbEntity
  8
0
 62
     0
100
AcDbLine
 10
21.95191100000002
 20
231.2533830000002
 30
0.0
 11
22.29661699999988
 21
231.5980890000001
 31
0.0
  0
LINE
  5
4C0E1
330
4B7F3
100
AcDbEntity
  8
0
 62
     0
100
AcDbLine
 10
22.04737999999988
 20
231.2781409999998
 30
0.0
 11
22.27185899999986
 21
231.5026200000002
 31
0.0
  0
LINE
  5
4C0E2
330
4B7F3
100
AcDbEntity
  8
0
 62
     0
100
AcDbLine
 10
21.76123700000007
 20
232.0251600000001
 30
0.0
 11
22.27516000000005
 21
231.5112370000002
 31
0.0
  0
LINE
  5
4C0E3
330
4B7F3
100
AcDbEntity
  8
0
 62
     0
100
AcDbLine
 10
21.81602199999988
 20
232.0410849999998
 30
0.0
 11
22.29108499999997
 21
231.566022
 31
0.0
  0
LINE
  5
4C0E4
330
4B7F3
100
AcDbEntity
  8
0
 62
     0
100
AcDbLine
 10
21.87840099999985
 20
232.0494159999998
 30
0.0
 11
22.29941599999997
 21
231.6284009999999
 31
0.0
  0
LINE
  5
4C0E5
330
4B7F3
100
AcDbEntity
  8
0
 62
     0
100
AcDbLine
 10
21.95191100000002
 20
232.046617
 30
0.0
 11
22.29661699999988
 21
231.7019110000001
 31
0.0
  0
LINE
  5
4C0E6
330
4B7F3
100
AcDbEntity
  8
0
 62
     0
100
AcDbLine
 10
22.04737999999988
 20
232.0218589999999
 30
0.0
 11
22.27185899999986
 21
231.79738
 31
0.0
  0
LINE
  5
4C0E7
330
4B7F3
100
AcDbEntity
  8
0
 62
     0
100
AcDbLine
 10
21.54733999999998
 20
237.838761
 30
0.0
 11
21.71123900000011
 21
238.0026600000001
 31
0.0
  0
LINE
  5
4C0E8
330
4B7F3
100
AcDbEntity
  8
0
 62
     0
100
AcDbLine
 10
21.54733999999998
 20
237.4612390000002
 30
0.0
 11
21.71123900000011
 21
237.2973400000001
 31
0.0
  0
LINE
  5
4C0E9
330
4B7F3
100
AcDbEntity
  8
0
 62
     0
100
AcDbLine
 10
21.54733999999998
 20
231.838761
 30
0.0
 11
21.71123900000011
 21
232.0026600000001
 31
0.0
  0
LINE
  5
4C0EA
330
4B7F3
100
AcDbEntity
  8
0
 62
     0
100
AcDbLine
 10
21.54733999999998
 20
231.4612390000002
 30
0.0
 11
21.71123900000011
 21
231.2973400000001
 31
0.0
  0
LINE
  5
4C0EB
330
4B7F3
100
AcDbEntity
  8
0
 62
     0
100
AcDbLine
 10
21.49999999999991
 20
237.6500000000001
 30
0.0
 11
21.9
 21
238.0500000000002
 31
0.0
  0
LINE
  5
4C0EC
330
4B7F3
100
AcDbEntity
  8
0
 62
     0
100
AcDbLine
 10
21.50777600000006
 20
237.728486
 30
0.0
 11
21.82151400000011
 21
238.0422239999998
 31
0.0
  0
LINE
  5
4C0ED
330
4B7F3
100
AcDbEntity
  8
0
 62
     0
100
AcDbLine
 10
21.50537199999999
 20
237.5846620000002
 30
0.0
 11
21.96533799999988
 21
238.0446280000001
 31
0.0
  0
LINE
  5
4C0EE
330
4B7F3
100
AcDbEntity
  8
0
 62
     0
100
AcDbLine
 10
21.51914699999988
 20
237.5277259999998
 30
0.0
 11
22.02227400000006
 21
238.0308530000002
 31
0.0
  0
LINE
  5
4C0EF
330
4B7F3
100
AcDbEntity
  8
0
 62
     0
100
AcDbLine
 10
21.53927699999999
 20
237.4771449999998
 30
0.0
 11
22.07285500000003
 21
238.0107229999999
 31
0.0
  0
LINE
  5
4C0F0
330
4B7F3
100
AcDbEntity
  8
0
 62
     0
100
AcDbLine
 10
21.5647109999999
 20
237.4318680000001
 30
0.0
 11
22.11813199999997
 21
237.9852890000002
 31
0.0
  0
LINE
  5
4C0F1
330
4B7F3
100
AcDbEntity
  8
0
 62
     0
100
AcDbLine
 10
21.59488899999987
 20
237.3913360000001
 30
0.0
 11
22.15866399999995
 21
237.9551110000002
 31
0.0
  0
LINE
  5
4C0F2
330
4B7F3
100
AcDbEntity
  8
0
 62
     0
100
AcDbLine
 10
21.62955000000002
 20
237.355286
 30
0.0
 11
22.19471400000011
 21
237.9204500000001
 31
0.0
  0
LINE
  5
4C0F3
330
4B7F3
100
AcDbEntity
  8
0
 62
     0
100
AcDbLine
 10
21.66865999999995
 20
237.3236849999998
 30
0.0
 11
22.22631500000002
 21
237.8813399999999
 31
0.0
  0
LINE
  5
4C0F4
330
4B7F3
100
AcDbEntity
  8
0
 62
     0
100
AcDbLine
 10
21.71240400000001
 20
237.2967189999999
 30
0.0
 11
22.25328100000015
 21
237.8375959999998
 31
0.0
  0
LINE
  5
4C0F5
330
4B7F3
100
AcDbEntity
  8
0
 62
     0
100
AcDbLine
 10
21.49999999999991
 20
237.6500000000001
 30
0.0
 11
21.9
 21
237.25
 31
0.0
  0
LINE
  5
4C0F6
330
4B7F3
100
AcDbEntity
  8
0
 62
     0
100
AcDbLine
 10
21.50537199999999
 20
237.715338
 30
0.0
 11
21.96533799999988
 21
237.2553720000001
 31
0.0
  0
LINE
  5
4C0F7
330
4B7F3
100
AcDbEntity
  8
0
 62
     0
100
AcDbLine
 10
21.51914699999988
 20
237.7722739999999
 30
0.0
 11
22.02227400000006
 21
237.269147
 31
0.0
  0
LINE
  5
4C0F8
330
4B7F3
100
AcDbEntity
  8
0
 62
     0
100
AcDbLine
 10
21.53927699999999
 20
237.8228549999999
 30
0.0
 11
22.07285500000003
 21
237.2892769999999
 31
0.0
  0
LINE
  5
4C0F9
330
4B7F3
100
AcDbEntity
  8
0
 62
     0
100
AcDbLine
 10
21.5647109999999
 20
237.8681320000001
 30
0.0
 11
22.11813199999997
 21
237.314711
 31
0.0
  0
LINE
  5
4C0FA
330
4B7F3
100
AcDbEntity
  8
0
 62
     0
100
AcDbLine
 10
21.59488899999987
 20
237.908664
 30
0.0
 11
22.15866399999995
 21
237.344889
 31
0.0
  0
LINE
  5
4C0FB
330
4B7F3
100
AcDbEntity
  8
0
 62
     0
100
AcDbLine
 10
21.62955000000002
 20
237.9447140000002
 30
0.0
 11
22.19471400000011
 21
237.3795500000001
 31
0.0
  0
LINE
  5
4C0FC
330
4B7F3
100
AcDbEntity
  8
0
 62
     0
100
AcDbLine
 10
21.66865999999995
 20
237.9763149999999
 30
0.0
 11
22.22631500000002
 21
237.4186599999998
 31
0.0
  0
LINE
  5
4C0FD
330
4B7F3
100
AcDbEntity
  8
0
 62
     0
100
AcDbLine
 10
21.71240400000001
 20
238.0032809999998
 30
0.0
 11
22.25328100000015
 21
237.4624039999999
 31
0.0
  0
LINE
  5
4C0FE
330
4B7F3
100
AcDbEntity
  8
0
 62
     0
100
AcDbLine
 10
21.50777600000006
 20
237.5715140000002
 30
0.0
 11
21.82151400000011
 21
237.2577759999999
 31
0.0
  0
LINE
  5
4C0FF
330
4B7F3
100
AcDbEntity
  8
0
 62
     0
100
AcDbLine
 10
21.49999999999991
 20
231.6500000000001
 30
0.0
 11
21.9
 21
232.0500000000002
 31
0.0
  0
LINE
  5
4C100
330
4B7F3
100
AcDbEntity
  8
0
 62
     0
100
AcDbLine
 10
21.50777600000006
 20
231.728486
 30
0.0
 11
21.82151400000011
 21
232.0422239999998
 31
0.0
  0
LINE
  5
4C101
330
4B7F3
100
AcDbEntity
  8
0
 62
     0
100
AcDbLine
 10
21.50537199999999
 20
231.5846620000002
 30
0.0
 11
21.96533799999988
 21
232.0446280000001
 31
0.0
  0
LINE
  5
4C102
330
4B7F3
100
AcDbEntity
  8
0
 62
     0
100
AcDbLine
 10
21.51914699999988
 20
231.5277259999998
 30
0.0
 11
22.02227400000006
 21
232.0308530000002
 31
0.0
  0
LINE
  5
4C103
330
4B7F3
100
AcDbEntity
  8
0
 62
     0
100
AcDbLine
 10
21.53927699999999
 20
231.4771449999998
 30
0.0
 11
22.07285500000003
 21
232.0107229999999
 31
0.0
  0
LINE
  5
4C104
330
4B7F3
100
AcDbEntity
  8
0
 62
     0
100
AcDbLine
 10
21.5647109999999
 20
231.4318680000001
 30
0.0
 11
22.11813199999997
 21
231.9852890000002
 31
0.0
  0
LINE
  5
4C105
330
4B7F3
100
AcDbEntity
  8
0
 62
     0
100
AcDbLine
 10
21.59488899999987
 20
231.3913360000001
 30
0.0
 11
22.15866399999995
 21
231.9551110000002
 31
0.0
  0
LINE
  5
4C106
330
4B7F3
100
AcDbEntity
  8
0
 62
     0
100
AcDbLine
 10
21.62955000000002
 20
231.355286
 30
0.0
 11
22.19471400000011
 21
231.9204500000001
 31
0.0
  0
LINE
  5
4C107
330
4B7F3
100
AcDbEntity
  8
0
 62
     0
100
AcDbLine
 10
21.66865999999995
 20
231.3236849999998
 30
0.0
 11
22.22631500000002
 21
231.8813399999999
 31
0.0
  0
LINE
  5
4C108
330
4B7F3
100
AcDbEntity
  8
0
 62
     0
100
AcDbLine
 10
21.71240400000001
 20
231.2967189999999
 30
0.0
 11
22.25328100000015
 21
231.8375959999998
 31
0.0
  0
LINE
  5
4C109
330
4B7F3
100
AcDbEntity
  8
0
 62
     0
100
AcDbLine
 10
21.49999999999991
 20
231.6500000000001
 30
0.0
 11
21.9
 21
231.25
 31
0.0
  0
LINE
  5
4C10A
330
4B7F3
100
AcDbEntity
  8
0
 62
     0
100
AcDbLine
 10
21.50537199999999
 20
231.715338
 30
0.0
 11
21.96533799999988
 21
231.2553720000001
 31
0.0
  0
LINE
  5
4C10B
330
4B7F3
100
AcDbEntity
  8
0
 62
     0
100
AcDbLine
 10
21.51914699999988
 20
231.7722739999999
 30
0.0
 11
22.02227400000006
 21
231.269147
 31
0.0
  0
LINE
  5
4C10C
330
4B7F3
100
AcDbEntity
  8
0
 62
     0
100
AcDbLine
 10
21.53927699999999
 20
231.8228549999999
 30
0.0
 11
22.07285500000003
 21
231.2892769999999
 31
0.0
  0
LINE
  5
4C10D
330
4B7F3
100
AcDbEntity
  8
0
 62
     0
100
AcDbLine
 10
21.5647109999999
 20
231.8681320000001
 30
0.0
 11
22.11813199999997
 21
231.314711
 31
0.0
  0
LINE
  5
4C10E
330
4B7F3
100
AcDbEntity
  8
0
 62
     0
100
AcDbLine
 10
21.59488899999987
 20
231.908664
 30
0.0
 11
22.15866399999995
 21
231.344889
 31
0.0
  0
LINE
  5
4C10F
330
4B7F3
100
AcDbEntity
  8
0
 62
     0
100
AcDbLine
 10
21.62955000000002
 20
231.9447140000002
 30
0.0
 11
22.19471400000011
 21
231.3795500000001
 31
0.0
  0
LINE
  5
4C110
330
4B7F3
100
AcDbEntity
  8
0
 62
     0
100
AcDbLine
 10
21.66865999999995
 20
231.9763149999999
 30
0.0
 11
22.22631500000002
 21
231.4186599999998
 31
0.0
  0
LINE
  5
4C111
330
4B7F3
100
AcDbEntity
  8
0
 62
     0
100
AcDbLine
 10
21.71240400000001
 20
232.0032809999998
 30
0.0
 11
22.25328100000015
 21
231.4624039999999
 31
0.0
  0
LINE
  5
4C112
330
4B7F3
100
AcDbEntity
  8
0
 62
     0
100
AcDbLine
 10
21.50777600000006
 20
231.5715140000002
 30
0.0
 11
21.82151400000011
 21
231.2577759999999
 31
0.0
  0
LINE
  5
4C113
330
4B7F3
100
AcDbEntity
  8
0
 62
     0
100
AcDbLine
 10
21.81602199999988
 20
226.0410849999998
 30
0.0
 11
22.29108499999997
 21
225.566022
 31
0.0
  0
LINE
  5
4C114
330
4B7F3
100
AcDbEntity
  8
0
 62
     0
100
AcDbLine
 10
21.87840099999985
 20
226.0494159999998
 30
0.0
 11
22.29941599999997
 21
225.6284009999999
 31
0.0
  0
LINE
  5
4C115
330
4B7F3
100
AcDbEntity
  8
0
 62
     0
100
AcDbLine
 10
21.95191100000002
 20
226.046617
 30
0.0
 11
22.29661699999988
 21
225.7019110000001
 31
0.0
  0
LINE
  5
4C116
330
4B7F3
100
AcDbEntity
  8
0
 62
     0
100
AcDbLine
 10
22.04737999999988
 20
226.0218589999999
 30
0.0
 11
22.27185899999986
 21
225.79738
 31
0.0
  0
LINE
  5
4C117
330
4B7F3
100
AcDbEntity
  8
0
 62
     0
100
AcDbLine
 10
21.54733999999998
 20
225.838761
 30
0.0
 11
21.71123900000011
 21
226.0026600000001
 31
0.0
  0
LINE
  5
4C118
330
4B7F3
100
AcDbEntity
  8
0
 62
     0
100
AcDbLine
 10
21.49999999999991
 20
225.6500000000001
 30
0.0
 11
21.9
 21
226.0500000000002
 31
0.0
  0
LINE
  5
4C119
330
4B7F3
100
AcDbEntity
  8
0
 62
     0
100
AcDbLine
 10
21.50777600000006
 20
225.728486
 30
0.0
 11
21.82151400000011
 21
226.0422239999998
 31
0.0
  0
LINE
  5
4C11A
330
4B7F3
100
AcDbEntity
  8
0
 62
     0
100
AcDbLine
 10
21.50537199999999
 20
225.5846620000002
 30
0.0
 11
21.96533799999988
 21
226.0446280000001
 31
0.0
  0
LINE
  5
4C11B
330
4B7F3
100
AcDbEntity
  8
0
 62
     0
100
AcDbLine
 10
21.51914699999988
 20
225.5277259999998
 30
0.0
 11
22.02227400000006
 21
226.0308530000002
 31
0.0
  0
LINE
  5
4C11C
330
4B7F3
100
AcDbEntity
  8
0
 62
     0
100
AcDbLine
 10
22.04737999999988
 20
225.2781409999998
 30
0.0
 11
22.27185899999986
 21
225.5026200000002
 31
0.0
  0
LINE
  5
4C11D
330
4B7F3
100
AcDbEntity
  8
0
 62
     0
100
AcDbLine
 10
21.54733999999998
 20
225.4612390000002
 30
0.0
 11
21.71123900000011
 21
225.2973400000001
 31
0.0
  0
LINE
  5
4C11E
330
4B7F3
100
AcDbEntity
  8
0
 62
     0
100
AcDbLine
 10
21.76123700000007
 20
225.27484
 30
0.0
 11
22.27516000000005
 21
225.788763
 31
0.0
  0
LINE
  5
4C11F
330
4B7F3
100
AcDbEntity
  8
0
 62
     0
100
AcDbLine
 10
21.81602199999988
 20
225.2589149999999
 30
0.0
 11
22.29108499999997
 21
225.7339780000002
 31
0.0
  0
LINE
  5
4C120
330
4B7F3
100
AcDbEntity
  8
0
 62
     0
100
AcDbLine
 10
21.87840099999985
 20
225.2505839999999
 30
0.0
 11
22.29941599999997
 21
225.6715989999998
 31
0.0
  0
LINE
  5
4C121
330
4B7F3
100
AcDbEntity
  8
0
 62
     0
100
AcDbLine
 10
21.95191100000002
 20
225.2533830000002
 30
0.0
 11
22.29661699999988
 21
225.5980890000001
 31
0.0
  0
LINE
  5
4C122
330
4B7F3
100
AcDbEntity
  8
0
 62
     0
100
AcDbLine
 10
21.76123700000007
 20
226.0251600000001
 30
0.0
 11
22.27516000000005
 21
225.5112370000002
 31
0.0
  0
LINE
  5
4C123
330
4B7F3
100
AcDbEntity
  8
0
 62
     0
100
AcDbLine
 10
21.53927699999999
 20
225.4771449999998
 30
0.0
 11
22.07285500000003
 21
226.0107229999999
 31
0.0
  0
LINE
  5
4C124
330
4B7F3
100
AcDbEntity
  8
0
 62
     0
100
AcDbLine
 10
21.5647109999999
 20
225.4318680000001
 30
0.0
 11
22.11813199999997
 21
225.9852890000002
 31
0.0
  0
LINE
  5
4C125
330
4B7F3
100
AcDbEntity
  8
0
 62
     0
100
AcDbLine
 10
21.59488899999987
 20
225.3913360000001
 30
0.0
 11
22.15866399999995
 21
225.9551110000002
 31
0.0
  0
LINE
  5
4C126
330
4B7F3
100
AcDbEntity
  8
0
 62
     0
100
AcDbLine
 10
21.62955000000002
 20
225.355286
 30
0.0
 11
22.19471400000011
 21
225.9204500000001
 31
0.0
  0
LINE
  5
4C127
330
4B7F3
100
AcDbEntity
  8
0
 62
     0
100
AcDbLine
 10
21.66865999999995
 20
225.3236849999998
 30
0.0
 11
22.22631500000002
 21
225.8813399999999
 31
0.0
  0
LINE
  5
4C128
330
4B7F3
100
AcDbEntity
  8
0
 62
     0
100
AcDbLine
 10
21.71240400000001
 20
225.2967189999999
 30
0.0
 11
22.25328100000015
 21
225.8375959999998
 31
0.0
  0
LINE
  5
4C129
330
4B7F3
100
AcDbEntity
  8
0
 62
     0
100
AcDbLine
 10
21.49999999999991
 20
225.6500000000001
 30
0.0
 11
21.9
 21
225.25
 31
0.0
  0
LINE
  5
4C12A
330
4B7F3
100
AcDbEntity
  8
0
 62
     0
100
AcDbLine
 10
21.50537199999999
 20
225.715338
 30
0.0
 11
21.96533799999988
 21
225.2553720000001
 31
0.0
  0
LINE
  5
4C12B
330
4B7F3
100
AcDbEntity
  8
0
 62
     0
100
AcDbLine
 10
21.51914699999988
 20
225.7722739999999
 30
0.0
 11
22.02227400000006
 21
225.269147
 31
0.0
  0
LINE
  5
4C12C
330
4B7F3
100
AcDbEntity
  8
0
 62
     0
100
AcDbLine
 10
21.53927699999999
 20
225.8228549999999
 30
0.0
 11
22.07285500000003
 21
225.2892769999999
 31
0.0
  0
LINE
  5
4C12D
330
4B7F3
100
AcDbEntity
  8
0
 62
     0
100
AcDbLine
 10
21.5647109999999
 20
225.8681320000001
 30
0.0
 11
22.11813199999997
 21
225.314711
 31
0.0
  0
LINE
  5
4C12E
330
4B7F3
100
AcDbEntity
  8
0
 62
     0
100
AcDbLine
 10
21.59488899999987
 20
225.908664
 30
0.0
 11
22.15866399999995
 21
225.344889
 31
0.0
  0
LINE
  5
4C12F
330
4B7F3
100
AcDbEntity
  8
0
 62
     0
100
AcDbLine
 10
21.62955000000002
 20
225.9447140000002
 30
0.0
 11
22.19471400000011
 21
225.3795500000001
 31
0.0
  0
LINE
  5
4C130
330
4B7F3
100
AcDbEntity
  8
0
 62
     0
100
AcDbLine
 10
21.66865999999995
 20
225.9763149999999
 30
0.0
 11
22.22631500000002
 21
225.4186599999998
 31
0.0
  0
LINE
  5
4C131
330
4B7F3
100
AcDbEntity
  8
0
 62
     0
100
AcDbLine
 10
21.71240400000001
 20
226.0032809999998
 30
0.0
 11
22.25328100000015
 21
225.4624039999999
 31
0.0
  0
LINE
  5
4C132
330
4B7F3
100
AcDbEntity
  8
0
 62
     0
100
AcDbLine
 10
21.50777600000006
 20
225.5715140000002
 30
0.0
 11
21.82151400000011
 21
225.2577759999999
 31
0.0
  0
LINE
  5
4C133
330
4B7F3
100
AcDbEntity
  8
0
 62
     0
100
AcDbLine
 10
214.1500001919297
 20
284.4000000000001
 30
0.0
 11
214.7500001919296
 21
283.8000000000002
 31
0.0
  0
LINE
  5
4C134
330
4B7F3
100
AcDbEntity
  8
0
 62
     0
100
AcDbLine
 10
214.1537481919296
 20
284.466962
 30
0.0
 11
214.8169621919295
 21
283.8037479999998
 31
0.0
  0
LINE
  5
4C135
330
4B7F3
100
AcDbEntity
  8
0
 62
     0
100
AcDbLine
 10
214.1637421919296
 20
284.5276789999998
 30
0.0
 11
214.8776791919296
 21
283.8137419999998
 31
0.0
  0
LINE
  5
4C136
330
4B7F3
100
AcDbEntity
  8
0
 62
     0
100
AcDbLine
 10
214.1787211919296
 20
284.5834110000001
 30
0.0
 11
214.9334111919296
 21
283.8287209999999
 31
0.0
  0
LINE
  5
4C137
330
4B7F3
100
AcDbEntity
  8
0
 62
     0
100
AcDbLine
 10
214.1979081919297
 20
284.634935
 30
0.0
 11
214.9849351919296
 21
283.8479080000002
 31
0.0
  0
LINE
  5
4C138
330
4B7F3
100
AcDbEntity
  8
0
 62
     0
100
AcDbLine
 10
214.2208011919296
 20
284.6827520000002
 30
0.0
 11
215.0327521919297
 21
283.870801
 31
0.0
  0
LINE
  5
4C139
330
4B7F3
100
AcDbEntity
  8
0
 62
     0
100
AcDbLine
 10
214.2470671919296
 20
284.7271970000002
 30
0.0
 11
215.0771971919297
 21
283.8970669999999
 31
0.0
  0
LINE
  5
4C13A
330
4B7F3
100
AcDbEntity
  8
0
 62
     0
100
AcDbLine
 10
214.2764861919296
 20
284.768489
 30
0.0
 11
215.1184891919296
 21
283.9264859999998
 31
0.0
  0
LINE
  5
4C13B
330
4B7F3
100
AcDbEntity
  8
0
 62
     0
100
AcDbLine
 10
214.3089261919298
 20
284.8067599999999
 30
0.0
 11
215.1567601919295
 21
283.9589259999998
 31
0.0
  0
LINE
  5
4C13C
330
4B7F3
100
AcDbEntity
  8
0
 62
     0
100
AcDbLine
 10
214.3443241919298
 20
284.8420719999999
 30
0.0
 11
215.1920721919297
 21
283.9943240000002
 31
0.0
  0
LINE
  5
4C13D
330
4B7F3
100
AcDbEntity
  8
0
 62
     0
100
AcDbLine
 10
214.3826831919297
 20
284.8744240000001
 30
0.0
 11
215.2244241919296
 21
284.0326829999999
 31
0.0
  0
LINE
  5
4C13E
330
4B7F3
100
AcDbEntity
  8
0
 62
     0
100
AcDbLine
 10
214.1547661919297
 20
284.3245230000002
 30
0.0
 11
214.6745231919298
 21
283.8047660000002
 31
0.0
  0
LINE
  5
4C13F
330
4B7F3
100
AcDbEntity
  8
0
 62
     0
100
AcDbLine
 10
214.1729561919295
 20
284.235623
 30
0.0
 11
214.5856231919296
 21
283.822956
 31
0.0
  0
LINE
  5
4C140
330
4B7F3
100
AcDbEntity
  8
0
 62
     0
100
AcDbLine
 10
214.2210101919296
 20
284.1168579999999
 30
0.0
 11
214.4668581919296
 21
283.8710099999998
 31
0.0
  0
LINE
  5
4C141
330
4B7F3
100
AcDbEntity
  8
0
 62
     0
100
AcDbLine
 10
214.1500001919297
 20
284.4000000000001
 30
0.0
 11
214.7500001919296
 21
285.0
 31
0.0
  0
LINE
  5
4C142
330
4B7F3
100
AcDbEntity
  8
0
 62
     0
100
AcDbLine
 10
214.1537481919296
 20
284.3330379999998
 30
0.0
 11
214.8169621919295
 21
284.9962519999999
 31
0.0
  0
LINE
  5
4C143
330
4B7F3
100
AcDbEntity
  8
0
 62
     0
100
AcDbLine
 10
214.1637421919296
 20
284.2723209999999
 30
0.0
 11
214.8776791919296
 21
284.9862579999999
 31
0.0
  0
LINE
  5
4C144
330
4B7F3
100
AcDbEntity
  8
0
 62
     0
100
AcDbLine
 10
214.1787211919296
 20
284.2165890000001
 30
0.0
 11
214.9334111919296
 21
284.9712789999999
 31
0.0
  0
LINE
  5
4C145
330
4B7F3
100
AcDbEntity
  8
0
 62
     0
100
AcDbLine
 10
214.1979081919297
 20
284.1650650000001
 30
0.0
 11
214.9849351919296
 21
284.952092
 31
0.0
  0
LINE
  5
4C146
330
4B7F3
100
AcDbEntity
  8
0
 62
     0
100
AcDbLine
 10
214.2208011919296
 20
284.117248
 30
0.0
 11
215.0327521919297
 21
284.9291990000002
 31
0.0
  0
LINE
  5
4C147
330
4B7F3
100
AcDbEntity
  8
0
 62
     0
100
AcDbLine
 10
214.2470671919296
 20
284.072803
 30
0.0
 11
215.0771971919297
 21
284.9029329999998
 31
0.0
  0
LINE
  5
4C148
330
4B7F3
100
AcDbEntity
  8
0
 62
     0
100
AcDbLine
 10
214.2764861919296
 20
284.0315110000001
 30
0.0
 11
215.1184891919296
 21
284.8735139999999
 31
0.0
  0
LINE
  5
4C149
330
4B7F3
100
AcDbEntity
  8
0
 62
     0
100
AcDbLine
 10
214.3089261919298
 20
283.9932399999998
 30
0.0
 11
215.1567601919295
 21
284.8410739999999
 31
0.0
  0
LINE
  5
4C14A
330
4B7F3
100
AcDbEntity
  8
0
 62
     0
100
AcDbLine
 10
214.3443241919298
 20
283.9579279999998
 30
0.0
 11
215.1920721919297
 21
284.8056759999999
 31
0.0
  0
LINE
  5
4C14B
330
4B7F3
100
AcDbEntity
  8
0
 62
     0
100
AcDbLine
 10
214.3826831919297
 20
283.9255760000001
 30
0.0
 11
215.2244241919296
 21
284.7673169999998
 31
0.0
  0
LINE
  5
4C14C
330
4B7F3
100
AcDbEntity
  8
0
 62
     0
100
AcDbLine
 10
214.1547661919297
 20
284.475477
 30
0.0
 11
214.6745231919298
 21
284.995234
 31
0.0
  0
LINE
  5
4C14D
330
4B7F3
100
AcDbEntity
  8
0
 62
     0
100
AcDbLine
 10
214.1729561919295
 20
284.5643770000001
 30
0.0
 11
214.5856231919296
 21
284.9770440000002
 31
0.0
  0
LINE
  5
4C14E
330
4B7F3
100
AcDbEntity
  8
0
 62
     0
100
AcDbLine
 10
214.2210101919296
 20
284.6831419999999
 30
0.0
 11
214.4668581919296
 21
284.9289899999999
 31
0.0
  0
LINE
  5
4C14F
330
4B7F3
100
AcDbEntity
  8
0
 62
     0
100
AcDbLine
 10
214.4240651919298
 20
284.9037520000002
 30
0.0
 11
215.2537521919297
 21
284.0740649999998
 31
0.0
  0
LINE
  5
4C150
330
4B7F3
100
AcDbEntity
  8
0
 62
     0
100
AcDbLine
 10
214.4686061919295
 20
284.9299219999998
 30
0.0
 11
215.2799221919298
 21
284.118606
 31
0.0
  0
LINE
  5
4C151
330
4B7F3
100
AcDbEntity
  8
0
 62
     0
100
AcDbLine
 10
214.5165271919296
 20
284.9527120000002
 30
0.0
 11
215.3027121919298
 21
284.1665269999999
 31
0.0
  0
LINE
  5
4C152
330
4B7F3
100
AcDbEntity
  8
0
 62
     0
100
AcDbLine
 10
214.5681661919296
 20
284.9717839999998
 30
0.0
 11
215.3217841919296
 21
284.2181660000001
 31
0.0
  0
LINE
  5
4C153
330
4B7F3
100
AcDbEntity
  8
0
 62
     0
100
AcDbLine
 10
214.6240321919298
 20
284.9866280000001
 30
0.0
 11
215.3366281919296
 21
284.2740319999998
 31
0.0
  0
LINE
  5
4C154
330
4B7F3
100
AcDbEntity
  8
0
 62
     0
100
AcDbLine
 10
214.6849121919298
 20
284.996459
 30
0.0
 11
215.3464591919295
 21
284.3349119999998
 31
0.0
  0
LINE
  5
4C155
330
4B7F3
100
AcDbEntity
  8
0
 62
     0
100
AcDbLine
 10
214.7520851919297
 20
284.999996
 30
0.0
 11
215.3499961919295
 21
284.4020850000002
 31
0.0
  0
LINE
  5
4C156
330
4B7F3
100
AcDbEntity
  8
0
 62
     0
100
AcDbLine
 10
214.8278661919297
 20
284.9949259999999
 30
0.0
 11
215.3449261919296
 21
284.4778660000002
 31
0.0
  0
LINE
  5
4C157
330
4B7F3
100
AcDbEntity
  8
0
 62
     0
100
AcDbLine
 10
214.9172991919296
 20
284.9762040000001
 30
0.0
 11
215.3262041919296
 21
284.5672989999998
 31
0.0
  0
LINE
  5
4C158
330
4B7F3
100
AcDbEntity
  8
0
 62
     0
100
AcDbLine
 10
215.0376741919298
 20
284.926539
 30
0.0
 11
215.2765391919296
 21
284.6876739999998
 31
0.0
  0
LINE
  5
4C159
330
4B7F3
100
AcDbEntity
  8
0
 62
     0
100
AcDbLine
 10
214.4240651919298
 20
283.896248
 30
0.0
 11
215.2537521919297
 21
284.7259349999999
 31
0.0
  0
LINE
  5
4C15A
330
4B7F3
100
AcDbEntity
  8
0
 62
     0
100
AcDbLine
 10
214.4686061919295
 20
283.8700779999999
 30
0.0
 11
215.2799221919298
 21
284.6813940000002
 31
0.0
  0
LINE
  5
4C15B
330
4B7F3
100
AcDbEntity
  8
0
 62
     0
100
AcDbLine
 10
214.5165271919296
 20
283.8472879999999
 30
0.0
 11
215.3027121919298
 21
284.6334729999999
 31
0.0
  0
LINE
  5
4C15C
330
4B7F3
100
AcDbEntity
  8
0
 62
     0
100
AcDbLine
 10
214.5681661919296
 20
283.8282159999999
 30
0.0
 11
215.3217841919296
 21
284.5818340000001
 31
0.0
  0
LINE
  5
4C15D
330
4B7F3
100
AcDbEntity
  8
0
 62
     0
100
AcDbLine
 10
214.6240321919298
 20
283.8133720000001
 30
0.0
 11
215.3366281919296
 21
284.5259679999999
 31
0.0
  0
LINE
  5
4C15E
330
4B7F3
100
AcDbEntity
  8
0
 62
     0
100
AcDbLine
 10
214.6849121919298
 20
283.8035410000002
 30
0.0
 11
215.3464591919295
 21
284.4650879999999
 31
0.0
  0
LINE
  5
4C15F
330
4B7F3
100
AcDbEntity
  8
0
 62
     0
100
AcDbLine
 10
214.7520851919297
 20
283.8000040000002
 30
0.0
 11
215.3499961919295
 21
284.397915
 31
0.0
  0
LINE
  5
4C160
330
4B7F3
100
AcDbEntity
  8
0
 62
     0
100
AcDbLine
 10
214.8278661919297
 20
283.8050739999999
 30
0.0
 11
215.3449261919296
 21
284.322134
 31
0.0
  0
LINE
  5
4C161
330
4B7F3
100
AcDbEntity
  8
0
 62
     0
100
AcDbLine
 10
214.9172991919296
 20
283.8237960000001
 30
0.0
 11
215.3262041919296
 21
284.2327009999999
 31
0.0
  0
LINE
  5
4C162
330
4B7F3
100
AcDbEntity
  8
0
 62
     0
100
AcDbLine
 10
215.0376741919298
 20
283.8734610000001
 30
0.0
 11
215.2765391919296
 21
284.1123259999999
 31
0.0
  0
LINE
  5
4C163
330
4B7F3
100
AcDbEntity
  8
0
 62
     0
100
AcDbLine
 10
406.8000003838565
 20
159.5499981125803
 30
0.0
 11
407.4000003838564
 21
158.9499981125804
 31
0.0
  0
LINE
  5
4C164
330
4B7F3
100
AcDbEntity
  8
0
 62
     0
100
AcDbLine
 10
406.8037483838564
 20
159.6169601125802
 30
0.0
 11
407.4669623838563
 21
158.9537461125805
 31
0.0
  0
LINE
  5
4C165
330
4B7F3
100
AcDbEntity
  8
0
 62
     0
100
AcDbLine
 10
406.8137423838564
 20
159.6776771125805
 30
0.0
 11
407.5276793838564
 21
158.9637401125805
 31
0.0
  0
LINE
  5
4C166
330
4B7F3
100
AcDbEntity
  8
0
 62
     0
100
AcDbLine
 10
406.8287213838564
 20
159.7334091125803
 30
0.0
 11
407.5834113838564
 21
158.9787191125805
 31
0.0
  0
LINE
  5
4C167
330
4B7F3
100
AcDbEntity
  8
0
 62
     0
100
AcDbLine
 10
406.8479083838565
 20
159.7849331125803
 30
0.0
 11
407.6349353838564
 21
158.9979061125804
 31
0.0
  0
LINE
  5
4C168
330
4B7F3
100
AcDbEntity
  8
0
 62
     0
100
AcDbLine
 10
406.8708013838564
 20
159.8327501125804
 30
0.0
 11
407.6827523838565
 21
159.0207991125802
 31
0.0
  0
LINE
  5
4C169
330
4B7F3
100
AcDbEntity
  8
0
 62
     0
100
AcDbLine
 10
406.8970673838564
 20
159.8771951125804
 30
0.0
 11
407.7271973838565
 21
159.0470651125801
 31
0.0
  0
LINE
  5
4C16A
330
4B7F3
100
AcDbEntity
  8
0
 62
     0
100
AcDbLine
 10
406.9264863838564
 20
159.9184871125803
 30
0.0
 11
407.7684893838564
 21
159.0764841125805
 31
0.0
  0
LINE
  5
4C16B
330
4B7F3
100
AcDbEntity
  8
0
 62
     0
100
AcDbLine
 10
406.9589263838566
 20
159.9567581125802
 30
0.0
 11
407.8067603838565
 21
159.1089241125805
 31
0.0
  0
LINE
  5
4C16C
330
4B7F3
100
AcDbEntity
  8
0
 62
     0
100
AcDbLine
 10
406.9943243838566
 20
159.9920701125801
 30
0.0
 11
407.8420723838565
 21
159.1443221125805
 31
0.0
  0
LINE
  5
4C16D
330
4B7F3
100
AcDbEntity
  8
0
 62
     0
100
AcDbLine
 10
407.0326833838565
 20
160.0244221125803
 30
0.0
 11
407.8744243838564
 21
159.1826811125801
 31
0.0
  0
LINE
  5
4C16E
330
4B7F3
100
AcDbEntity
  8
0
 62
     0
100
AcDbLine
 10
407.0740653838564
 20
160.0537501125804
 30
0.0
 11
407.9037523838565
 21
159.2240631125805
 31
0.0
  0
LINE
  5
4C16F
330
4B7F3
100
AcDbEntity
  8
0
 62
     0
100
AcDbLine
 10
407.1186063838563
 20
160.0799201125805
 30
0.0
 11
407.9299223838564
 21
159.2686041125802
 31
0.0
  0
LINE
  5
4C170
330
4B7F3
100
AcDbEntity
  8
0
 62
     0
100
AcDbLine
 10
407.1665273838564
 20
160.1027101125805
 30
0.0
 11
407.9527123838566
 21
159.3165251125805
 31
0.0
  0
LINE
  5
4C171
330
4B7F3
100
AcDbEntity
  8
0
 62
     0
100
AcDbLine
 10
407.2181663838564
 20
160.1217821125805
 30
0.0
 11
407.9717843838564
 21
159.3681641125803
 31
0.0
  0
LINE
  5
4C172
330
4B7F3
100
AcDbEntity
  8
0
 62
     0
100
AcDbLine
 10
407.2740323838564
 20
160.1366261125803
 30
0.0
 11
407.9866283838564
 21
159.4240301125805
 31
0.0
  0
LINE
  5
4C173
330
4B7F3
100
AcDbEntity
  8
0
 62
     0
100
AcDbLine
 10
407.3349123838564
 20
160.1464571125802
 30
0.0
 11
407.9964593838563
 21
159.4849101125805
 31
0.0
  0
LINE
  5
4C174
330
4B7F3
100
AcDbEntity
  8
0
 62
     0
100
AcDbLine
 10
407.4020853838565
 20
160.1499941125802
 30
0.0
 11
407.9999963838563
 21
159.5520831125804
 31
0.0
  0
LINE
  5
4C175
330
4B7F3
100
AcDbEntity
  8
0
 62
     0
100
AcDbLine
 10
407.4778663838565
 20
160.1449241125805
 30
0.0
 11
407.9949263838564
 21
159.6278641125804
 31
0.0
  0
LINE
  5
4C176
330
4B7F3
100
AcDbEntity
  8
0
 62
     0
100
AcDbLine
 10
407.5672993838564
 20
160.1262021125803
 30
0.0
 11
407.9762043838564
 21
159.7172971125805
 31
0.0
  0
LINE
  5
4C177
330
4B7F3
100
AcDbEntity
  8
0
 62
     0
100
AcDbLine
 10
407.6876743838566
 20
160.0765371125803
 30
0.0
 11
407.9265393838564
 21
159.8376721125805
 31
0.0
  0
LINE
  5
4C178
330
4B7F3
100
AcDbEntity
  8
0
 62
     0
100
AcDbLine
 10
406.8047663838565
 20
159.4745211125804
 30
0.0
 11
407.3245233838566
 21
158.9547641125804
 31
0.0
  0
LINE
  5
4C179
330
4B7F3
100
AcDbEntity
  8
0
 62
     0
100
AcDbLine
 10
406.8229563838563
 20
159.3856211125803
 30
0.0
 11
407.2356233838564
 21
158.9729541125802
 31
0.0
  0
LINE
  5
4C17A
330
4B7F3
100
AcDbEntity
  8
0
 62
     0
100
AcDbLine
 10
406.8710103838564
 20
159.2668561125801
 30
0.0
 11
407.1168583838564
 21
159.0210081125805
 31
0.0
  0
LINE
  5
4C17B
330
4B7F3
100
AcDbEntity
  8
0
 62
     0
100
AcDbLine
 10
406.8000003838565
 20
159.5499981125803
 30
0.0
 11
407.4000003838564
 21
160.1499981125802
 31
0.0
  0
LINE
  5
4C17C
330
4B7F3
100
AcDbEntity
  8
0
 62
     0
100
AcDbLine
 10
406.8037483838564
 20
159.4830361125804
 30
0.0
 11
407.4669623838563
 21
160.1462501125801
 31
0.0
  0
LINE
  5
4C17D
330
4B7F3
100
AcDbEntity
  8
0
 62
     0
100
AcDbLine
 10
406.8137423838564
 20
159.4223191125801
 30
0.0
 11
407.5276793838564
 21
160.1362561125801
 31
0.0
  0
LINE
  5
4C17E
330
4B7F3
100
AcDbEntity
  8
0
 62
     0
100
AcDbLine
 10
406.8287213838564
 20
159.3665871125803
 30
0.0
 11
407.5834113838564
 21
160.1212771125801
 31
0.0
  0
LINE
  5
4C17F
330
4B7F3
100
AcDbEntity
  8
0
 62
     0
100
AcDbLine
 10
406.8479083838565
 20
159.3150631125804
 30
0.0
 11
407.6349353838564
 21
160.1020901125802
 31
0.0
  0
LINE
  5
4C180
330
4B7F3
100
AcDbEntity
  8
0
 62
     0
100
AcDbLine
 10
406.8708013838564
 20
159.2672461125802
 30
0.0
 11
407.6827523838565
 21
160.0791971125804
 31
0.0
  0
LINE
  5
4C181
330
4B7F3
100
AcDbEntity
  8
0
 62
     0
100
AcDbLine
 10
406.8970673838564
 20
159.2228011125802
 30
0.0
 11
407.7271973838565
 21
160.0529311125805
 31
0.0
  0
LINE
  5
4C182
330
4B7F3
100
AcDbEntity
  8
0
 62
     0
100
AcDbLine
 10
406.9264863838564
 20
159.1815091125804
 30
0.0
 11
407.7684893838564
 21
160.0235121125801
 31
0.0
  0
LINE
  5
4C183
330
4B7F3
100
AcDbEntity
  8
0
 62
     0
100
AcDbLine
 10
406.9589263838566
 20
159.1432381125805
 30
0.0
 11
407.8067603838565
 21
159.9910721125802
 31
0.0
  0
LINE
  5
4C184
330
4B7F3
100
AcDbEntity
  8
0
 62
     0
100
AcDbLine
 10
406.9943243838566
 20
159.1079261125805
 30
0.0
 11
407.8420723838565
 21
159.9556741125802
 31
0.0
  0
LINE
  5
4C185
330
4B7F3
100
AcDbEntity
  8
0
 62
     0
100
AcDbLine
 10
407.0326833838565
 20
159.0755741125803
 30
0.0
 11
407.8744243838564
 21
159.9173151125805
 31
0.0
  0
LINE
  5
4C186
330
4B7F3
100
AcDbEntity
  8
0
 62
     0
100
AcDbLine
 10
407.0740653838564
 20
159.0462461125802
 30
0.0
 11
407.9037523838565
 21
159.8759331125802
 31
0.0
  0
LINE
  5
4C187
330
4B7F3
100
AcDbEntity
  8
0
 62
     0
100
AcDbLine
 10
407.1186063838563
 20
159.0200761125801
 30
0.0
 11
407.9299223838564
 21
159.8313921125804
 31
0.0
  0
LINE
  5
4C188
330
4B7F3
100
AcDbEntity
  8
0
 62
     0
100
AcDbLine
 10
407.1665273838564
 20
158.9972861125802
 30
0.0
 11
407.9527123838566
 21
159.7834711125801
 31
0.0
  0
LINE
  5
4C189
330
4B7F3
100
AcDbEntity
  8
0
 62
     0
100
AcDbLine
 10
407.2181663838564
 20
158.9782141125801
 30
0.0
 11
407.9717843838564
 21
159.7318321125803
 31
0.0
  0
LINE
  5
4C18A
330
4B7F3
100
AcDbEntity
  8
0
 62
     0
100
AcDbLine
 10
407.2740323838564
 20
158.9633701125803
 30
0.0
 11
407.9866283838564
 21
159.6759661125801
 31
0.0
  0
LINE
  5
4C18B
330
4B7F3
100
AcDbEntity
  8
0
 62
     0
100
AcDbLine
 10
407.3349123838564
 20
158.9535391125804
 30
0.0
 11
407.9964593838563
 21
159.6150861125801
 31
0.0
  0
LINE
  5
4C18C
330
4B7F3
100
AcDbEntity
  8
0
 62
     0
100
AcDbLine
 10
407.4020853838565
 20
158.9500021125804
 30
0.0
 11
407.9999963838563
 21
159.5479131125802
 31
0.0
  0
LINE
  5
4C18D
330
4B7F3
100
AcDbEntity
  8
0
 62
     0
100
AcDbLine
 10
407.4778663838565
 20
158.9550721125801
 30
0.0
 11
407.9949263838564
 21
159.4721321125802
 31
0.0
  0
LINE
  5
4C18E
330
4B7F3
100
AcDbEntity
  8
0
 62
     0
100
AcDbLine
 10
407.5672993838564
 20
158.9737941125804
 30
0.0
 11
407.9762043838564
 21
159.3826991125801
 31
0.0
  0
LINE
  5
4C18F
330
4B7F3
100
AcDbEntity
  8
0
 62
     0
100
AcDbLine
 10
407.6876743838566
 20
159.0234591125804
 30
0.0
 11
407.9265393838564
 21
159.2623241125802
 31
0.0
  0
LINE
  5
4C190
330
4B7F3
100
AcDbEntity
  8
0
 62
     0
100
AcDbLine
 10
406.8047663838565
 20
159.6254751125802
 30
0.0
 11
407.3245233838566
 21
160.1452321125802
 31
0.0
  0
LINE
  5
4C191
330
4B7F3
100
AcDbEntity
  8
0
 62
     0
100
AcDbLine
 10
406.8229563838563
 20
159.7143751125804
 30
0.0
 11
407.2356233838564
 21
160.1270421125804
 31
0.0
  0
LINE
  5
4C192
330
4B7F3
100
AcDbEntity
  8
0
 62
     0
100
AcDbLine
 10
406.8710103838564
 20
159.8331401125805
 30
0.0
 11
407.1168583838564
 21
160.0789881125801
 31
0.0
  0
LINE
  5
4C193
330
4B7F3
100
AcDbEntity
  8
0
 62
     0
100
AcDbLine
 10
407.1999999999999
 20
279.6500000000001
 30
0.0
 11
407.6
 21
280.0500000000002
 31
0.0
  0
LINE
  5
4C194
330
4B7F3
100
AcDbEntity
  8
0
 62
     0
100
AcDbLine
 10
407.2077760000001
 20
279.728486
 30
0.0
 11
407.5215140000001
 21
280.0422239999998
 31
0.0
  0
LINE
  5
4C195
330
4B7F3
100
AcDbEntity
  8
0
 62
     0
100
AcDbLine
 10
407.24734
 20
279.838761
 30
0.0
 11
407.4112390000001
 21
280.0026600000001
 31
0.0
  0
LINE
  5
4C196
330
4B7F3
100
AcDbEntity
  8
0
 62
     0
100
AcDbLine
 10
407.205372
 20
279.5846620000002
 30
0.0
 11
407.6653379999999
 21
280.0446280000001
 31
0.0
  0
LINE
  5
4C197
330
4B7F3
100
AcDbEntity
  8
0
 62
     0
100
AcDbLine
 10
407.2191469999999
 20
279.5277259999998
 30
0.0
 11
407.7222740000001
 21
280.0308530000002
 31
0.0
  0
LINE
  5
4C198
330
4B7F3
100
AcDbEntity
  8
0
 62
     0
100
AcDbLine
 10
407.239277
 20
279.4771449999998
 30
0.0
 11
407.772855
 21
280.0107229999999
 31
0.0
  0
LINE
  5
4C199
330
4B7F3
100
AcDbEntity
  8
0
 62
     0
100
AcDbLine
 10
407.2647109999999
 20
279.4318680000001
 30
0.0
 11
407.818132
 21
279.9852890000002
 31
0.0
  0
LINE
  5
4C19A
330
4B7F3
100
AcDbEntity
  8
0
 62
     0
100
AcDbLine
 10
407.2948889999999
 20
279.3913360000001
 30
0.0
 11
407.858664
 21
279.9551110000002
 31
0.0
  0
LINE
  5
4C19B
330
4B7F3
100
AcDbEntity
  8
0
 62
     0
100
AcDbLine
 10
407.32955
 20
279.355286
 30
0.0
 11
407.8947140000001
 21
279.9204500000001
 31
0.0
  0
LINE
  5
4C19C
330
4B7F3
100
AcDbEntity
  8
0
 62
     0
100
AcDbLine
 10
407.36866
 20
279.3236849999998
 30
0.0
 11
407.926315
 21
279.8813399999999
 31
0.0
  0
LINE
  5
4C19D
330
4B7F3
100
AcDbEntity
  8
0
 62
     0
100
AcDbLine
 10
407.412404
 20
279.2967189999999
 30
0.0
 11
407.9532810000002
 21
279.8375959999998
 31
0.0
  0
LINE
  5
4C19E
330
4B7F3
100
AcDbEntity
  8
0
 62
     0
100
AcDbLine
 10
407.4612370000001
 20
279.27484
 30
0.0
 11
407.9751600000001
 21
279.788763
 31
0.0
  0
LINE
  5
4C19F
330
4B7F3
100
AcDbEntity
  8
0
 62
     0
100
AcDbLine
 10
407.5160219999999
 20
279.2589149999999
 30
0.0
 11
407.991085
 21
279.7339780000002
 31
0.0
  0
LINE
  5
4C1A0
330
4B7F3
100
AcDbEntity
  8
0
 62
     0
100
AcDbLine
 10
407.5784009999999
 20
279.2505839999999
 30
0.0
 11
407.999416
 21
279.6715989999998
 31
0.0
  0
LINE
  5
4C1A1
330
4B7F3
100
AcDbEntity
  8
0
 62
     0
100
AcDbLine
 10
407.651911
 20
279.2533830000002
 30
0.0
 11
407.9966169999999
 21
279.5980890000001
 31
0.0
  0
LINE
  5
4C1A2
330
4B7F3
100
AcDbEntity
  8
0
 62
     0
100
AcDbLine
 10
407.7473799999999
 20
279.2781409999998
 30
0.0
 11
407.9718589999999
 21
279.5026200000002
 31
0.0
  0
LINE
  5
4C1A3
330
4B7F3
100
AcDbEntity
  8
0
 62
     0
100
AcDbLine
 10
407.1999999999999
 20
279.6500000000001
 30
0.0
 11
407.6
 21
279.25
 31
0.0
  0
LINE
  5
4C1A4
330
4B7F3
100
AcDbEntity
  8
0
 62
     0
100
AcDbLine
 10
407.205372
 20
279.715338
 30
0.0
 11
407.6653379999999
 21
279.2553720000001
 31
0.0
  0
LINE
  5
4C1A5
330
4B7F3
100
AcDbEntity
  8
0
 62
     0
100
AcDbLine
 10
407.2191469999999
 20
279.7722739999999
 30
0.0
 11
407.7222740000001
 21
279.269147
 31
0.0
  0
LINE
  5
4C1A6
330
4B7F3
100
AcDbEntity
  8
0
 62
     0
100
AcDbLine
 10
407.239277
 20
279.8228549999999
 30
0.0
 11
407.772855
 21
279.2892769999999
 31
0.0
  0
LINE
  5
4C1A7
330
4B7F3
100
AcDbEntity
  8
0
 62
     0
100
AcDbLine
 10
407.2647109999999
 20
279.8681320000001
 30
0.0
 11
407.818132
 21
279.314711
 31
0.0
  0
LINE
  5
4C1A8
330
4B7F3
100
AcDbEntity
  8
0
 62
     0
100
AcDbLine
 10
407.2948889999999
 20
279.908664
 30
0.0
 11
407.858664
 21
279.344889
 31
0.0
  0
LINE
  5
4C1A9
330
4B7F3
100
AcDbEntity
  8
0
 62
     0
100
AcDbLine
 10
407.32955
 20
279.9447140000002
 30
0.0
 11
407.8947140000001
 21
279.3795500000001
 31
0.0
  0
LINE
  5
4C1AA
330
4B7F3
100
AcDbEntity
  8
0
 62
     0
100
AcDbLine
 10
407.36866
 20
279.9763149999999
 30
0.0
 11
407.926315
 21
279.4186599999998
 31
0.0
  0
LINE
  5
4C1AB
330
4B7F3
100
AcDbEntity
  8
0
 62
     0
100
AcDbLine
 10
407.412404
 20
280.0032810000002
 30
0.0
 11
407.9532810000002
 21
279.4624039999999
 31
0.0
  0
LINE
  5
4C1AC
330
4B7F3
100
AcDbEntity
  8
0
 62
     0
100
AcDbLine
 10
407.4612370000001
 20
280.0251600000001
 30
0.0
 11
407.9751600000001
 21
279.5112370000002
 31
0.0
  0
LINE
  5
4C1AD
330
4B7F3
100
AcDbEntity
  8
0
 62
     0
100
AcDbLine
 10
407.5160219999999
 20
280.0410849999998
 30
0.0
 11
407.991085
 21
279.566022
 31
0.0
  0
LINE
  5
4C1AE
330
4B7F3
100
AcDbEntity
  8
0
 62
     0
100
AcDbLine
 10
407.5784009999999
 20
280.0494159999998
 30
0.0
 11
407.999416
 21
279.6284009999999
 31
0.0
  0
LINE
  5
4C1AF
330
4B7F3
100
AcDbEntity
  8
0
 62
     0
100
AcDbLine
 10
407.651911
 20
280.046617
 30
0.0
 11
407.9966169999999
 21
279.7019110000001
 31
0.0
  0
LINE
  5
4C1B0
330
4B7F3
100
AcDbEntity
  8
0
 62
     0
100
AcDbLine
 10
407.7473799999999
 20
280.0218589999999
 30
0.0
 11
407.9718589999999
 21
279.79738
 31
0.0
  0
LINE
  5
4C1B1
330
4B7F3
100
AcDbEntity
  8
0
 62
     0
100
AcDbLine
 10
407.2077760000001
 20
279.5715140000002
 30
0.0
 11
407.5215140000001
 21
279.2577759999999
 31
0.0
  0
LINE
  5
4C1B2
330
4B7F3
100
AcDbEntity
  8
0
 62
     0
100
AcDbLine
 10
407.24734
 20
279.4612390000002
 30
0.0
 11
407.4112390000001
 21
279.2973400000001
 31
0.0
  0
LINE
  5
4C1B3
330
4B7F3
100
AcDbEntity
  8
0
 62
     0
100
AcDbLine
 10
407.1999999999999
 20
273.6500000000001
 30
0.0
 11
407.6
 21
274.0500000000002
 31
0.0
  0
LINE
  5
4C1B4
330
4B7F3
100
AcDbEntity
  8
0
 62
     0
100
AcDbLine
 10
407.2077760000001
 20
273.728486
 30
0.0
 11
407.5215140000001
 21
274.0422239999998
 31
0.0
  0
LINE
  5
4C1B5
330
4B7F3
100
AcDbEntity
  8
0
 62
     0
100
AcDbLine
 10
407.24734
 20
273.838761
 30
0.0
 11
407.4112390000001
 21
274.0026600000001
 31
0.0
  0
LINE
  5
4C1B6
330
4B7F3
100
AcDbEntity
  8
0
 62
     0
100
AcDbLine
 10
407.205372
 20
273.5846620000002
 30
0.0
 11
407.6653379999999
 21
274.0446280000001
 31
0.0
  0
LINE
  5
4C1B7
330
4B7F3
100
AcDbEntity
  8
0
 62
     0
100
AcDbLine
 10
407.2191469999999
 20
273.5277259999998
 30
0.0
 11
407.7222740000001
 21
274.0308530000002
 31
0.0
  0
LINE
  5
4C1B8
330
4B7F3
100
AcDbEntity
  8
0
 62
     0
100
AcDbLine
 10
407.239277
 20
273.4771449999998
 30
0.0
 11
407.772855
 21
274.0107229999999
 31
0.0
  0
LINE
  5
4C1B9
330
4B7F3
100
AcDbEntity
  8
0
 62
     0
100
AcDbLine
 10
407.2647109999999
 20
273.4318680000001
 30
0.0
 11
407.818132
 21
273.9852890000002
 31
0.0
  0
LINE
  5
4C1BA
330
4B7F3
100
AcDbEntity
  8
0
 62
     0
100
AcDbLine
 10
407.2948889999999
 20
273.3913360000001
 30
0.0
 11
407.858664
 21
273.9551110000002
 31
0.0
  0
LINE
  5
4C1BB
330
4B7F3
100
AcDbEntity
  8
0
 62
     0
100
AcDbLine
 10
407.32955
 20
273.355286
 30
0.0
 11
407.8947140000001
 21
273.9204500000001
 31
0.0
  0
LINE
  5
4C1BC
330
4B7F3
100
AcDbEntity
  8
0
 62
     0
100
AcDbLine
 10
407.36866
 20
273.3236849999998
 30
0.0
 11
407.926315
 21
273.8813399999999
 31
0.0
  0
LINE
  5
4C1BD
330
4B7F3
100
AcDbEntity
  8
0
 62
     0
100
AcDbLine
 10
407.412404
 20
273.2967189999999
 30
0.0
 11
407.9532810000002
 21
273.8375959999998
 31
0.0
  0
LINE
  5
4C1BE
330
4B7F3
100
AcDbEntity
  8
0
 62
     0
100
AcDbLine
 10
407.4612370000001
 20
273.27484
 30
0.0
 11
407.9751600000001
 21
273.788763
 31
0.0
  0
LINE
  5
4C1BF
330
4B7F3
100
AcDbEntity
  8
0
 62
     0
100
AcDbLine
 10
407.5160219999999
 20
273.2589149999999
 30
0.0
 11
407.991085
 21
273.7339780000002
 31
0.0
  0
LINE
  5
4C1C0
330
4B7F3
100
AcDbEntity
  8
0
 62
     0
100
AcDbLine
 10
407.5784009999999
 20
273.2505839999999
 30
0.0
 11
407.999416
 21
273.6715989999998
 31
0.0
  0
LINE
  5
4C1C1
330
4B7F3
100
AcDbEntity
  8
0
 62
     0
100
AcDbLine
 10
407.651911
 20
273.2533830000002
 30
0.0
 11
407.9966169999999
 21
273.5980890000001
 31
0.0
  0
LINE
  5
4C1C2
330
4B7F3
100
AcDbEntity
  8
0
 62
     0
100
AcDbLine
 10
407.7473799999999
 20
273.2781409999998
 30
0.0
 11
407.9718589999999
 21
273.5026200000002
 31
0.0
  0
LINE
  5
4C1C3
330
4B7F3
100
AcDbEntity
  8
0
 62
     0
100
AcDbLine
 10
407.1999999999999
 20
273.6500000000001
 30
0.0
 11
407.6
 21
273.25
 31
0.0
  0
LINE
  5
4C1C4
330
4B7F3
100
AcDbEntity
  8
0
 62
     0
100
AcDbLine
 10
407.205372
 20
273.715338
 30
0.0
 11
407.6653379999999
 21
273.2553720000001
 31
0.0
  0
LINE
  5
4C1C5
330
4B7F3
100
AcDbEntity
  8
0
 62
     0
100
AcDbLine
 10
407.2191469999999
 20
273.7722739999999
 30
0.0
 11
407.7222740000001
 21
273.269147
 31
0.0
  0
LINE
  5
4C1C6
330
4B7F3
100
AcDbEntity
  8
0
 62
     0
100
AcDbLine
 10
407.239277
 20
273.8228549999999
 30
0.0
 11
407.772855
 21
273.2892769999999
 31
0.0
  0
LINE
  5
4C1C7
330
4B7F3
100
AcDbEntity
  8
0
 62
     0
100
AcDbLine
 10
407.2647109999999
 20
273.8681320000001
 30
0.0
 11
407.818132
 21
273.314711
 31
0.0
  0
LINE
  5
4C1C8
330
4B7F3
100
AcDbEntity
  8
0
 62
     0
100
AcDbLine
 10
407.2948889999999
 20
273.908664
 30
0.0
 11
407.858664
 21
273.344889
 31
0.0
  0
LINE
  5
4C1C9
330
4B7F3
100
AcDbEntity
  8
0
 62
     0
100
AcDbLine
 10
407.32955
 20
273.9447140000002
 30
0.0
 11
407.8947140000001
 21
273.3795500000001
 31
0.0
  0
LINE
  5
4C1CA
330
4B7F3
100
AcDbEntity
  8
0
 62
     0
100
AcDbLine
 10
407.36866
 20
273.9763149999999
 30
0.0
 11
407.926315
 21
273.4186599999998
 31
0.0
  0
LINE
  5
4C1CB
330
4B7F3
100
AcDbEntity
  8
0
 62
     0
100
AcDbLine
 10
407.412404
 20
274.0032809999998
 30
0.0
 11
407.9532810000002
 21
273.4624039999999
 31
0.0
  0
LINE
  5
4C1CC
330
4B7F3
100
AcDbEntity
  8
0
 62
     0
100
AcDbLine
 10
407.4612370000001
 20
274.0251600000001
 30
0.0
 11
407.9751600000001
 21
273.5112370000002
 31
0.0
  0
LINE
  5
4C1CD
330
4B7F3
100
AcDbEntity
  8
0
 62
     0
100
AcDbLine
 10
407.5160219999999
 20
274.0410849999998
 30
0.0
 11
407.991085
 21
273.566022
 31
0.0
  0
LINE
  5
4C1CE
330
4B7F3
100
AcDbEntity
  8
0
 62
     0
100
AcDbLine
 10
407.5784009999999
 20
274.0494159999998
 30
0.0
 11
407.999416
 21
273.6284009999999
 31
0.0
  0
LINE
  5
4C1CF
330
4B7F3
100
AcDbEntity
  8
0
 62
     0
100
AcDbLine
 10
407.651911
 20
274.046617
 30
0.0
 11
407.9966169999999
 21
273.7019110000001
 31
0.0
  0
LINE
  5
4C1D0
330
4B7F3
100
AcDbEntity
  8
0
 62
     0
100
AcDbLine
 10
407.7473799999999
 20
274.0218589999999
 30
0.0
 11
407.9718589999999
 21
273.79738
 31
0.0
  0
LINE
  5
4C1D1
330
4B7F3
100
AcDbEntity
  8
0
 62
     0
100
AcDbLine
 10
407.2077760000001
 20
273.5715140000002
 30
0.0
 11
407.5215140000001
 21
273.2577759999999
 31
0.0
  0
LINE
  5
4C1D2
330
4B7F3
100
AcDbEntity
  8
0
 62
     0
100
AcDbLine
 10
407.24734
 20
273.4612390000002
 30
0.0
 11
407.4112390000001
 21
273.2973400000001
 31
0.0
  0
LINE
  5
4C1D3
330
4B7F3
100
AcDbEntity
  8
0
 62
     0
100
AcDbLine
 10
407.1999999999999
 20
267.6500000000001
 30
0.0
 11
407.6
 21
268.0500000000002
 31
0.0
  0
LINE
  5
4C1D4
330
4B7F3
100
AcDbEntity
  8
0
 62
     0
100
AcDbLine
 10
407.2077760000001
 20
267.728486
 30
0.0
 11
407.5215140000001
 21
268.0422239999998
 31
0.0
  0
LINE
  5
4C1D5
330
4B7F3
100
AcDbEntity
  8
0
 62
     0
100
AcDbLine
 10
407.24734
 20
267.838761
 30
0.0
 11
407.4112390000001
 21
268.0026600000001
 31
0.0
  0
LINE
  5
4C1D6
330
4B7F3
100
AcDbEntity
  8
0
 62
     0
100
AcDbLine
 10
407.205372
 20
267.5846620000002
 30
0.0
 11
407.6653379999999
 21
268.0446280000001
 31
0.0
  0
LINE
  5
4C1D7
330
4B7F3
100
AcDbEntity
  8
0
 62
     0
100
AcDbLine
 10
407.2191469999999
 20
267.5277259999998
 30
0.0
 11
407.7222740000001
 21
268.0308530000002
 31
0.0
  0
LINE
  5
4C1D8
330
4B7F3
100
AcDbEntity
  8
0
 62
     0
100
AcDbLine
 10
407.239277
 20
267.4771449999998
 30
0.0
 11
407.772855
 21
268.0107229999999
 31
0.0
  0
LINE
  5
4C1D9
330
4B7F3
100
AcDbEntity
  8
0
 62
     0
100
AcDbLine
 10
407.2647109999999
 20
267.4318680000001
 30
0.0
 11
407.818132
 21
267.9852890000002
 31
0.0
  0
LINE
  5
4C1DA
330
4B7F3
100
AcDbEntity
  8
0
 62
     0
100
AcDbLine
 10
407.2948889999999
 20
267.3913360000001
 30
0.0
 11
407.858664
 21
267.9551110000002
 31
0.0
  0
LINE
  5
4C1DB
330
4B7F3
100
AcDbEntity
  8
0
 62
     0
100
AcDbLine
 10
407.32955
 20
267.355286
 30
0.0
 11
407.8947140000001
 21
267.9204500000001
 31
0.0
  0
LINE
  5
4C1DC
330
4B7F3
100
AcDbEntity
  8
0
 62
     0
100
AcDbLine
 10
407.36866
 20
267.3236849999998
 30
0.0
 11
407.926315
 21
267.8813399999999
 31
0.0
  0
LINE
  5
4C1DD
330
4B7F3
100
AcDbEntity
  8
0
 62
     0
100
AcDbLine
 10
407.412404
 20
267.2967189999999
 30
0.0
 11
407.9532810000002
 21
267.8375959999998
 31
0.0
  0
LINE
  5
4C1DE
330
4B7F3
100
AcDbEntity
  8
0
 62
     0
100
AcDbLine
 10
407.4612370000001
 20
267.27484
 30
0.0
 11
407.9751600000001
 21
267.788763
 31
0.0
  0
LINE
  5
4C1DF
330
4B7F3
100
AcDbEntity
  8
0
 62
     0
100
AcDbLine
 10
407.5160219999999
 20
267.2589149999999
 30
0.0
 11
407.991085
 21
267.7339780000002
 31
0.0
  0
LINE
  5
4C1E0
330
4B7F3
100
AcDbEntity
  8
0
 62
     0
100
AcDbLine
 10
407.5784009999999
 20
267.2505839999999
 30
0.0
 11
407.999416
 21
267.6715989999998
 31
0.0
  0
LINE
  5
4C1E1
330
4B7F3
100
AcDbEntity
  8
0
 62
     0
100
AcDbLine
 10
407.651911
 20
267.2533830000002
 30
0.0
 11
407.9966169999999
 21
267.5980890000001
 31
0.0
  0
LINE
  5
4C1E2
330
4B7F3
100
AcDbEntity
  8
0
 62
     0
100
AcDbLine
 10
407.7473799999999
 20
267.2781409999998
 30
0.0
 11
407.9718589999999
 21
267.5026200000002
 31
0.0
  0
LINE
  5
4C1E3
330
4B7F3
100
AcDbEntity
  8
0
 62
     0
100
AcDbLine
 10
407.1999999999999
 20
267.6500000000001
 30
0.0
 11
407.6
 21
267.25
 31
0.0
  0
LINE
  5
4C1E4
330
4B7F3
100
AcDbEntity
  8
0
 62
     0
100
AcDbLine
 10
407.205372
 20
267.715338
 30
0.0
 11
407.6653379999999
 21
267.2553720000001
 31
0.0
  0
LINE
  5
4C1E5
330
4B7F3
100
AcDbEntity
  8
0
 62
     0
100
AcDbLine
 10
407.2191469999999
 20
267.7722739999999
 30
0.0
 11
407.7222740000001
 21
267.269147
 31
0.0
  0
LINE
  5
4C1E6
330
4B7F3
100
AcDbEntity
  8
0
 62
     0
100
AcDbLine
 10
407.239277
 20
267.8228549999999
 30
0.0
 11
407.772855
 21
267.2892769999999
 31
0.0
  0
LINE
  5
4C1E7
330
4B7F3
100
AcDbEntity
  8
0
 62
     0
100
AcDbLine
 10
407.2647109999999
 20
267.8681320000001
 30
0.0
 11
407.818132
 21
267.314711
 31
0.0
  0
LINE
  5
4C1E8
330
4B7F3
100
AcDbEntity
  8
0
 62
     0
100
AcDbLine
 10
407.2948889999999
 20
267.908664
 30
0.0
 11
407.858664
 21
267.344889
 31
0.0
  0
LINE
  5
4C1E9
330
4B7F3
100
AcDbEntity
  8
0
 62
     0
100
AcDbLine
 10
407.32955
 20
267.9447140000002
 30
0.0
 11
407.8947140000001
 21
267.3795500000001
 31
0.0
  0
LINE
  5
4C1EA
330
4B7F3
100
AcDbEntity
  8
0
 62
     0
100
AcDbLine
 10
407.36866
 20
267.9763149999999
 30
0.0
 11
407.926315
 21
267.4186599999998
 31
0.0
  0
LINE
  5
4C1EB
330
4B7F3
100
AcDbEntity
  8
0
 62
     0
100
AcDbLine
 10
407.412404
 20
268.0032809999998
 30
0.0
 11
407.9532810000002
 21
267.4624039999999
 31
0.0
  0
LINE
  5
4C1EC
330
4B7F3
100
AcDbEntity
  8
0
 62
     0
100
AcDbLine
 10
407.4612370000001
 20
268.0251600000001
 30
0.0
 11
407.9751600000001
 21
267.5112370000002
 31
0.0
  0
LINE
  5
4C1ED
330
4B7F3
100
AcDbEntity
  8
0
 62
     0
100
AcDbLine
 10
407.5160219999999
 20
268.0410849999998
 30
0.0
 11
407.991085
 21
267.566022
 31
0.0
  0
LINE
  5
4C1EE
330
4B7F3
100
AcDbEntity
  8
0
 62
     0
100
AcDbLine
 10
407.5784009999999
 20
268.0494159999998
 30
0.0
 11
407.999416
 21
267.6284009999999
 31
0.0
  0
LINE
  5
4C1EF
330
4B7F3
100
AcDbEntity
  8
0
 62
     0
100
AcDbLine
 10
407.651911
 20
268.046617
 30
0.0
 11
407.9966169999999
 21
267.7019110000001
 31
0.0
  0
LINE
  5
4C1F0
330
4B7F3
100
AcDbEntity
  8
0
 62
     0
100
AcDbLine
 10
407.7473799999999
 20
268.0218589999999
 30
0.0
 11
407.9718589999999
 21
267.79738
 31
0.0
  0
LINE
  5
4C1F1
330
4B7F3
100
AcDbEntity
  8
0
 62
     0
100
AcDbLine
 10
407.2077760000001
 20
267.5715140000002
 30
0.0
 11
407.5215140000001
 21
267.2577759999999
 31
0.0
  0
LINE
  5
4C1F2
330
4B7F3
100
AcDbEntity
  8
0
 62
     0
100
AcDbLine
 10
407.24734
 20
267.4612390000002
 30
0.0
 11
407.4112390000001
 21
267.2973400000001
 31
0.0
  0
LINE
  5
4C1F3
330
4B7F3
100
AcDbEntity
  8
0
 62
     0
100
AcDbLine
 10
407.1999999999999
 20
261.6500000000001
 30
0.0
 11
407.6
 21
262.0500000000002
 31
0.0
  0
LINE
  5
4C1F4
330
4B7F3
100
AcDbEntity
  8
0
 62
     0
100
AcDbLine
 10
407.2077760000001
 20
261.728486
 30
0.0
 11
407.5215140000001
 21
262.0422239999998
 31
0.0
  0
LINE
  5
4C1F5
330
4B7F3
100
AcDbEntity
  8
0
 62
     0
100
AcDbLine
 10
407.24734
 20
261.838761
 30
0.0
 11
407.4112390000001
 21
262.0026600000001
 31
0.0
  0
LINE
  5
4C1F6
330
4B7F3
100
AcDbEntity
  8
0
 62
     0
100
AcDbLine
 10
407.205372
 20
261.5846620000002
 30
0.0
 11
407.6653379999999
 21
262.0446280000001
 31
0.0
  0
LINE
  5
4C1F7
330
4B7F3
100
AcDbEntity
  8
0
 62
     0
100
AcDbLine
 10
407.2191469999999
 20
261.5277259999998
 30
0.0
 11
407.7222740000001
 21
262.0308530000002
 31
0.0
  0
LINE
  5
4C1F8
330
4B7F3
100
AcDbEntity
  8
0
 62
     0
100
AcDbLine
 10
407.239277
 20
261.4771449999998
 30
0.0
 11
407.772855
 21
262.0107229999999
 31
0.0
  0
LINE
  5
4C1F9
330
4B7F3
100
AcDbEntity
  8
0
 62
     0
100
AcDbLine
 10
407.2647109999999
 20
261.4318680000001
 30
0.0
 11
407.818132
 21
261.9852890000002
 31
0.0
  0
LINE
  5
4C1FA
330
4B7F3
100
AcDbEntity
  8
0
 62
     0
100
AcDbLine
 10
407.2948889999999
 20
261.3913360000001
 30
0.0
 11
407.858664
 21
261.9551110000002
 31
0.0
  0
LINE
  5
4C1FB
330
4B7F3
100
AcDbEntity
  8
0
 62
     0
100
AcDbLine
 10
407.32955
 20
261.355286
 30
0.0
 11
407.8947140000001
 21
261.9204500000001
 31
0.0
  0
LINE
  5
4C1FC
330
4B7F3
100
AcDbEntity
  8
0
 62
     0
100
AcDbLine
 10
407.36866
 20
261.3236849999998
 30
0.0
 11
407.926315
 21
261.8813399999999
 31
0.0
  0
LINE
  5
4C1FD
330
4B7F3
100
AcDbEntity
  8
0
 62
     0
100
AcDbLine
 10
407.412404
 20
261.2967189999999
 30
0.0
 11
407.9532810000002
 21
261.8375959999998
 31
0.0
  0
LINE
  5
4C1FE
330
4B7F3
100
AcDbEntity
  8
0
 62
     0
100
AcDbLine
 10
407.4612370000001
 20
261.27484
 30
0.0
 11
407.9751600000001
 21
261.788763
 31
0.0
  0
LINE
  5
4C1FF
330
4B7F3
100
AcDbEntity
  8
0
 62
     0
100
AcDbLine
 10
407.5160219999999
 20
261.2589149999999
 30
0.0
 11
407.991085
 21
261.7339780000002
 31
0.0
  0
LINE
  5
4C200
330
4B7F3
100
AcDbEntity
  8
0
 62
     0
100
AcDbLine
 10
407.5784009999999
 20
261.2505839999999
 30
0.0
 11
407.999416
 21
261.6715989999998
 31
0.0
  0
LINE
  5
4C201
330
4B7F3
100
AcDbEntity
  8
0
 62
     0
100
AcDbLine
 10
407.651911
 20
261.2533830000002
 30
0.0
 11
407.9966169999999
 21
261.5980890000001
 31
0.0
  0
LINE
  5
4C202
330
4B7F3
100
AcDbEntity
  8
0
 62
     0
100
AcDbLine
 10
407.7473799999999
 20
261.2781409999998
 30
0.0
 11
407.9718589999999
 21
261.5026200000002
 31
0.0
  0
LINE
  5
4C203
330
4B7F3
100
AcDbEntity
  8
0
 62
     0
100
AcDbLine
 10
407.1999999999999
 20
261.6500000000001
 30
0.0
 11
407.6
 21
261.25
 31
0.0
  0
LINE
  5
4C204
330
4B7F3
100
AcDbEntity
  8
0
 62
     0
100
AcDbLine
 10
407.205372
 20
261.715338
 30
0.0
 11
407.6653379999999
 21
261.2553720000001
 31
0.0
  0
LINE
  5
4C205
330
4B7F3
100
AcDbEntity
  8
0
 62
     0
100
AcDbLine
 10
407.2191469999999
 20
261.7722739999999
 30
0.0
 11
407.7222740000001
 21
261.269147
 31
0.0
  0
LINE
  5
4C206
330
4B7F3
100
AcDbEntity
  8
0
 62
     0
100
AcDbLine
 10
407.239277
 20
261.8228549999999
 30
0.0
 11
407.772855
 21
261.2892769999999
 31
0.0
  0
LINE
  5
4C207
330
4B7F3
100
AcDbEntity
  8
0
 62
     0
100
AcDbLine
 10
407.2647109999999
 20
261.8681320000001
 30
0.0
 11
407.818132
 21
261.314711
 31
0.0
  0
LINE
  5
4C208
330
4B7F3
100
AcDbEntity
  8
0
 62
     0
100
AcDbLine
 10
407.2948889999999
 20
261.908664
 30
0.0
 11
407.858664
 21
261.344889
 31
0.0
  0
LINE
  5
4C209
330
4B7F3
100
AcDbEntity
  8
0
 62
     0
100
AcDbLine
 10
407.32955
 20
261.9447140000002
 30
0.0
 11
407.8947140000001
 21
261.3795500000001
 31
0.0
  0
LINE
  5
4C20A
330
4B7F3
100
AcDbEntity
  8
0
 62
     0
100
AcDbLine
 10
407.36866
 20
261.9763149999999
 30
0.0
 11
407.926315
 21
261.4186599999998
 31
0.0
  0
LINE
  5
4C20B
330
4B7F3
100
AcDbEntity
  8
0
 62
     0
100
AcDbLine
 10
407.412404
 20
262.0032809999998
 30
0.0
 11
407.9532810000002
 21
261.4624039999999
 31
0.0
  0
LINE
  5
4C20C
330
4B7F3
100
AcDbEntity
  8
0
 62
     0
100
AcDbLine
 10
407.4612370000001
 20
262.0251600000001
 30
0.0
 11
407.9751600000001
 21
261.5112370000002
 31
0.0
  0
LINE
  5
4C20D
330
4B7F3
100
AcDbEntity
  8
0
 62
     0
100
AcDbLine
 10
407.5160219999999
 20
262.0410849999998
 30
0.0
 11
407.991085
 21
261.566022
 31
0.0
  0
LINE
  5
4C20E
330
4B7F3
100
AcDbEntity
  8
0
 62
     0
100
AcDbLine
 10
407.5784009999999
 20
262.0494159999998
 30
0.0
 11
407.999416
 21
261.6284009999999
 31
0.0
  0
LINE
  5
4C20F
330
4B7F3
100
AcDbEntity
  8
0
 62
     0
100
AcDbLine
 10
407.651911
 20
262.046617
 30
0.0
 11
407.9966169999999
 21
261.7019110000001
 31
0.0
  0
LINE
  5
4C210
330
4B7F3
100
AcDbEntity
  8
0
 62
     0
100
AcDbLine
 10
407.7473799999999
 20
262.0218589999999
 30
0.0
 11
407.9718589999999
 21
261.79738
 31
0.0
  0
LINE
  5
4C211
330
4B7F3
100
AcDbEntity
  8
0
 62
     0
100
AcDbLine
 10
407.2077760000001
 20
261.5715140000002
 30
0.0
 11
407.5215140000001
 21
261.2577759999999
 31
0.0
  0
LINE
  5
4C212
330
4B7F3
100
AcDbEntity
  8
0
 62
     0
100
AcDbLine
 10
407.24734
 20
261.4612390000002
 30
0.0
 11
407.4112390000001
 21
261.2973400000001
 31
0.0
  0
LINE
  5
4C213
330
4B7F3
100
AcDbEntity
  8
0
 62
     0
100
AcDbLine
 10
407.1999999999999
 20
255.6500000000001
 30
0.0
 11
407.6
 21
256.0500000000002
 31
0.0
  0
LINE
  5
4C214
330
4B7F3
100
AcDbEntity
  8
0
 62
     0
100
AcDbLine
 10
407.2077760000001
 20
255.728486
 30
0.0
 11
407.5215140000001
 21
256.0422239999998
 31
0.0
  0
LINE
  5
4C215
330
4B7F3
100
AcDbEntity
  8
0
 62
     0
100
AcDbLine
 10
407.24734
 20
255.838761
 30
0.0
 11
407.4112390000001
 21
256.0026600000001
 31
0.0
  0
LINE
  5
4C216
330
4B7F3
100
AcDbEntity
  8
0
 62
     0
100
AcDbLine
 10
407.205372
 20
255.5846620000002
 30
0.0
 11
407.6653379999999
 21
256.0446280000001
 31
0.0
  0
LINE
  5
4C217
330
4B7F3
100
AcDbEntity
  8
0
 62
     0
100
AcDbLine
 10
407.2191469999999
 20
255.5277259999998
 30
0.0
 11
407.7222740000001
 21
256.0308530000002
 31
0.0
  0
LINE
  5
4C218
330
4B7F3
100
AcDbEntity
  8
0
 62
     0
100
AcDbLine
 10
407.239277
 20
255.4771449999998
 30
0.0
 11
407.772855
 21
256.0107229999999
 31
0.0
  0
LINE
  5
4C219
330
4B7F3
100
AcDbEntity
  8
0
 62
     0
100
AcDbLine
 10
407.2647109999999
 20
255.4318680000001
 30
0.0
 11
407.818132
 21
255.9852890000002
 31
0.0
  0
LINE
  5
4C21A
330
4B7F3
100
AcDbEntity
  8
0
 62
     0
100
AcDbLine
 10
407.2948889999999
 20
255.3913360000001
 30
0.0
 11
407.858664
 21
255.9551110000002
 31
0.0
  0
LINE
  5
4C21B
330
4B7F3
100
AcDbEntity
  8
0
 62
     0
100
AcDbLine
 10
407.32955
 20
255.355286
 30
0.0
 11
407.8947140000001
 21
255.9204500000001
 31
0.0
  0
LINE
  5
4C21C
330
4B7F3
100
AcDbEntity
  8
0
 62
     0
100
AcDbLine
 10
407.36866
 20
255.3236849999998
 30
0.0
 11
407.926315
 21
255.8813399999999
 31
0.0
  0
LINE
  5
4C21D
330
4B7F3
100
AcDbEntity
  8
0
 62
     0
100
AcDbLine
 10
407.412404
 20
255.2967189999999
 30
0.0
 11
407.9532810000002
 21
255.8375959999998
 31
0.0
  0
LINE
  5
4C21E
330
4B7F3
100
AcDbEntity
  8
0
 62
     0
100
AcDbLine
 10
407.4612370000001
 20
255.27484
 30
0.0
 11
407.9751600000001
 21
255.788763
 31
0.0
  0
LINE
  5
4C21F
330
4B7F3
100
AcDbEntity
  8
0
 62
     0
100
AcDbLine
 10
407.5160219999999
 20
255.2589149999999
 30
0.0
 11
407.991085
 21
255.7339780000002
 31
0.0
  0
LINE
  5
4C220
330
4B7F3
100
AcDbEntity
  8
0
 62
     0
100
AcDbLine
 10
407.5784009999999
 20
255.2505839999999
 30
0.0
 11
407.999416
 21
255.6715989999998
 31
0.0
  0
LINE
  5
4C221
330
4B7F3
100
AcDbEntity
  8
0
 62
     0
100
AcDbLine
 10
407.651911
 20
255.2533830000002
 30
0.0
 11
407.9966169999999
 21
255.5980890000001
 31
0.0
  0
LINE
  5
4C222
330
4B7F3
100
AcDbEntity
  8
0
 62
     0
100
AcDbLine
 10
407.7473799999999
 20
255.2781409999998
 30
0.0
 11
407.9718589999999
 21
255.5026200000002
 31
0.0
  0
LINE
  5
4C223
330
4B7F3
100
AcDbEntity
  8
0
 62
     0
100
AcDbLine
 10
407.1999999999999
 20
255.6500000000001
 30
0.0
 11
407.6
 21
255.25
 31
0.0
  0
LINE
  5
4C224
330
4B7F3
100
AcDbEntity
  8
0
 62
     0
100
AcDbLine
 10
407.205372
 20
255.715338
 30
0.0
 11
407.6653379999999
 21
255.2553720000001
 31
0.0
  0
LINE
  5
4C225
330
4B7F3
100
AcDbEntity
  8
0
 62
     0
100
AcDbLine
 10
407.2191469999999
 20
255.7722739999999
 30
0.0
 11
407.7222740000001
 21
255.269147
 31
0.0
  0
LINE
  5
4C226
330
4B7F3
100
AcDbEntity
  8
0
 62
     0
100
AcDbLine
 10
407.239277
 20
255.8228549999999
 30
0.0
 11
407.772855
 21
255.2892769999999
 31
0.0
  0
LINE
  5
4C227
330
4B7F3
100
AcDbEntity
  8
0
 62
     0
100
AcDbLine
 10
407.2647109999999
 20
255.8681320000001
 30
0.0
 11
407.818132
 21
255.314711
 31
0.0
  0
LINE
  5
4C228
330
4B7F3
100
AcDbEntity
  8
0
 62
     0
100
AcDbLine
 10
407.2948889999999
 20
255.908664
 30
0.0
 11
407.858664
 21
255.344889
 31
0.0
  0
LINE
  5
4C229
330
4B7F3
100
AcDbEntity
  8
0
 62
     0
100
AcDbLine
 10
407.32955
 20
255.9447140000002
 30
0.0
 11
407.8947140000001
 21
255.3795500000001
 31
0.0
  0
LINE
  5
4C22A
330
4B7F3
100
AcDbEntity
  8
0
 62
     0
100
AcDbLine
 10
407.36866
 20
255.9763149999999
 30
0.0
 11
407.926315
 21
255.4186599999998
 31
0.0
  0
LINE
  5
4C22B
330
4B7F3
100
AcDbEntity
  8
0
 62
     0
100
AcDbLine
 10
407.412404
 20
256.0032809999998
 30
0.0
 11
407.9532810000002
 21
255.4624039999999
 31
0.0
  0
LINE
  5
4C22C
330
4B7F3
100
AcDbEntity
  8
0
 62
     0
100
AcDbLine
 10
407.4612370000001
 20
256.0251600000001
 30
0.0
 11
407.9751600000001
 21
255.5112370000002
 31
0.0
  0
LINE
  5
4C22D
330
4B7F3
100
AcDbEntity
  8
0
 62
     0
100
AcDbLine
 10
407.5160219999999
 20
256.0410849999998
 30
0.0
 11
407.991085
 21
255.566022
 31
0.0
  0
LINE
  5
4C22E
330
4B7F3
100
AcDbEntity
  8
0
 62
     0
100
AcDbLine
 10
407.5784009999999
 20
256.0494159999998
 30
0.0
 11
407.999416
 21
255.6284009999999
 31
0.0
  0
LINE
  5
4C22F
330
4B7F3
100
AcDbEntity
  8
0
 62
     0
100
AcDbLine
 10
407.651911
 20
256.046617
 30
0.0
 11
407.9966169999999
 21
255.7019110000001
 31
0.0
  0
LINE
  5
4C230
330
4B7F3
100
AcDbEntity
  8
0
 62
     0
100
AcDbLine
 10
407.7473799999999
 20
256.0218589999999
 30
0.0
 11
407.9718589999999
 21
255.79738
 31
0.0
  0
LINE
  5
4C231
330
4B7F3
100
AcDbEntity
  8
0
 62
     0
100
AcDbLine
 10
407.2077760000001
 20
255.5715140000002
 30
0.0
 11
407.5215140000001
 21
255.2577759999999
 31
0.0
  0
LINE
  5
4C232
330
4B7F3
100
AcDbEntity
  8
0
 62
     0
100
AcDbLine
 10
407.24734
 20
255.4612390000002
 30
0.0
 11
407.4112390000001
 21
255.2973400000001
 31
0.0
  0
LINE
  5
4C233
330
4B7F3
100
AcDbEntity
  8
0
 62
     0
100
AcDbLine
 10
407.1999999999999
 20
249.6500000000001
 30
0.0
 11
407.6
 21
250.0500000000002
 31
0.0
  0
LINE
  5
4C234
330
4B7F3
100
AcDbEntity
  8
0
 62
     0
100
AcDbLine
 10
407.2077760000001
 20
249.728486
 30
0.0
 11
407.5215140000001
 21
250.0422239999998
 31
0.0
  0
LINE
  5
4C235
330
4B7F3
100
AcDbEntity
  8
0
 62
     0
100
AcDbLine
 10
407.24734
 20
249.838761
 30
0.0
 11
407.4112390000001
 21
250.0026600000001
 31
0.0
  0
LINE
  5
4C236
330
4B7F3
100
AcDbEntity
  8
0
 62
     0
100
AcDbLine
 10
407.205372
 20
249.5846620000002
 30
0.0
 11
407.6653379999999
 21
250.0446280000001
 31
0.0
  0
LINE
  5
4C237
330
4B7F3
100
AcDbEntity
  8
0
 62
     0
100
AcDbLine
 10
407.2191469999999
 20
249.5277259999998
 30
0.0
 11
407.7222740000001
 21
250.0308530000002
 31
0.0
  0
LINE
  5
4C238
330
4B7F3
100
AcDbEntity
  8
0
 62
     0
100
AcDbLine
 10
407.239277
 20
249.4771449999998
 30
0.0
 11
407.772855
 21
250.0107229999999
 31
0.0
  0
LINE
  5
4C239
330
4B7F3
100
AcDbEntity
  8
0
 62
     0
100
AcDbLine
 10
407.2647109999999
 20
249.4318680000001
 30
0.0
 11
407.818132
 21
249.9852890000002
 31
0.0
  0
LINE
  5
4C23A
330
4B7F3
100
AcDbEntity
  8
0
 62
     0
100
AcDbLine
 10
407.2948889999999
 20
249.3913360000001
 30
0.0
 11
407.858664
 21
249.9551110000002
 31
0.0
  0
LINE
  5
4C23B
330
4B7F3
100
AcDbEntity
  8
0
 62
     0
100
AcDbLine
 10
407.32955
 20
249.355286
 30
0.0
 11
407.8947140000001
 21
249.9204500000001
 31
0.0
  0
LINE
  5
4C23C
330
4B7F3
100
AcDbEntity
  8
0
 62
     0
100
AcDbLine
 10
407.36866
 20
249.3236849999998
 30
0.0
 11
407.926315
 21
249.8813399999999
 31
0.0
  0
LINE
  5
4C23D
330
4B7F3
100
AcDbEntity
  8
0
 62
     0
100
AcDbLine
 10
407.412404
 20
249.2967189999999
 30
0.0
 11
407.9532810000002
 21
249.8375959999998
 31
0.0
  0
LINE
  5
4C23E
330
4B7F3
100
AcDbEntity
  8
0
 62
     0
100
AcDbLine
 10
407.4612370000001
 20
249.27484
 30
0.0
 11
407.9751600000001
 21
249.788763
 31
0.0
  0
LINE
  5
4C23F
330
4B7F3
100
AcDbEntity
  8
0
 62
     0
100
AcDbLine
 10
407.5160219999999
 20
249.2589149999999
 30
0.0
 11
407.991085
 21
249.7339780000002
 31
0.0
  0
LINE
  5
4C240
330
4B7F3
100
AcDbEntity
  8
0
 62
     0
100
AcDbLine
 10
407.5784009999999
 20
249.2505839999999
 30
0.0
 11
407.999416
 21
249.6715989999998
 31
0.0
  0
LINE
  5
4C241
330
4B7F3
100
AcDbEntity
  8
0
 62
     0
100
AcDbLine
 10
407.651911
 20
249.2533830000002
 30
0.0
 11
407.9966169999999
 21
249.5980890000001
 31
0.0
  0
LINE
  5
4C242
330
4B7F3
100
AcDbEntity
  8
0
 62
     0
100
AcDbLine
 10
407.7473799999999
 20
249.2781409999998
 30
0.0
 11
407.9718589999999
 21
249.5026200000002
 31
0.0
  0
LINE
  5
4C243
330
4B7F3
100
AcDbEntity
  8
0
 62
     0
100
AcDbLine
 10
407.1999999999999
 20
249.6500000000001
 30
0.0
 11
407.6
 21
249.25
 31
0.0
  0
LINE
  5
4C244
330
4B7F3
100
AcDbEntity
  8
0
 62
     0
100
AcDbLine
 10
407.205372
 20
249.715338
 30
0.0
 11
407.6653379999999
 21
249.2553720000001
 31
0.0
  0
LINE
  5
4C245
330
4B7F3
100
AcDbEntity
  8
0
 62
     0
100
AcDbLine
 10
407.2191469999999
 20
249.7722739999999
 30
0.0
 11
407.7222740000001
 21
249.269147
 31
0.0
  0
LINE
  5
4C246
330
4B7F3
100
AcDbEntity
  8
0
 62
     0
100
AcDbLine
 10
407.239277
 20
249.8228549999999
 30
0.0
 11
407.772855
 21
249.2892769999999
 31
0.0
  0
LINE
  5
4C247
330
4B7F3
100
AcDbEntity
  8
0
 62
     0
100
AcDbLine
 10
407.2647109999999
 20
249.8681320000001
 30
0.0
 11
407.818132
 21
249.314711
 31
0.0
  0
LINE
  5
4C248
330
4B7F3
100
AcDbEntity
  8
0
 62
     0
100
AcDbLine
 10
407.2948889999999
 20
249.908664
 30
0.0
 11
407.858664
 21
249.344889
 31
0.0
  0
LINE
  5
4C249
330
4B7F3
100
AcDbEntity
  8
0
 62
     0
100
AcDbLine
 10
407.32955
 20
249.9447140000002
 30
0.0
 11
407.8947140000001
 21
249.3795500000001
 31
0.0
  0
LINE
  5
4C24A
330
4B7F3
100
AcDbEntity
  8
0
 62
     0
100
AcDbLine
 10
407.36866
 20
249.9763149999999
 30
0.0
 11
407.926315
 21
249.4186599999998
 31
0.0
  0
LINE
  5
4C24B
330
4B7F3
100
AcDbEntity
  8
0
 62
     0
100
AcDbLine
 10
407.412404
 20
250.0032809999998
 30
0.0
 11
407.9532810000002
 21
249.4624039999999
 31
0.0
  0
LINE
  5
4C24C
330
4B7F3
100
AcDbEntity
  8
0
 62
     0
100
AcDbLine
 10
407.4612370000001
 20
250.0251600000001
 30
0.0
 11
407.9751600000001
 21
249.5112370000002
 31
0.0
  0
LINE
  5
4C24D
330
4B7F3
100
AcDbEntity
  8
0
 62
     0
100
AcDbLine
 10
407.5160219999999
 20
250.0410849999998
 30
0.0
 11
407.991085
 21
249.566022
 31
0.0
  0
LINE
  5
4C24E
330
4B7F3
100
AcDbEntity
  8
0
 62
     0
100
AcDbLine
 10
407.5784009999999
 20
250.0494159999998
 30
0.0
 11
407.999416
 21
249.6284009999999
 31
0.0
  0
LINE
  5
4C24F
330
4B7F3
100
AcDbEntity
  8
0
 62
     0
100
AcDbLine
 10
407.651911
 20
250.046617
 30
0.0
 11
407.9966169999999
 21
249.7019110000001
 31
0.0
  0
LINE
  5
4C250
330
4B7F3
100
AcDbEntity
  8
0
 62
     0
100
AcDbLine
 10
407.7473799999999
 20
250.0218589999999
 30
0.0
 11
407.9718589999999
 21
249.79738
 31
0.0
  0
LINE
  5
4C251
330
4B7F3
100
AcDbEntity
  8
0
 62
     0
100
AcDbLine
 10
407.2077760000001
 20
249.5715140000002
 30
0.0
 11
407.5215140000001
 21
249.2577759999999
 31
0.0
  0
LINE
  5
4C252
330
4B7F3
100
AcDbEntity
  8
0
 62
     0
100
AcDbLine
 10
407.24734
 20
249.4612390000002
 30
0.0
 11
407.4112390000001
 21
249.2973400000001
 31
0.0
  0
LINE
  5
4C253
330
4B7F3
100
AcDbEntity
  8
0
 62
     0
100
AcDbLine
 10
407.1999999999999
 20
243.6500000000001
 30
0.0
 11
407.6
 21
244.0500000000002
 31
0.0
  0
LINE
  5
4C254
330
4B7F3
100
AcDbEntity
  8
0
 62
     0
100
AcDbLine
 10
407.2077760000001
 20
243.728486
 30
0.0
 11
407.5215140000001
 21
244.0422239999998
 31
0.0
  0
LINE
  5
4C255
330
4B7F3
100
AcDbEntity
  8
0
 62
     0
100
AcDbLine
 10
407.24734
 20
243.838761
 30
0.0
 11
407.4112390000001
 21
244.0026600000001
 31
0.0
  0
LINE
  5
4C256
330
4B7F3
100
AcDbEntity
  8
0
 62
     0
100
AcDbLine
 10
407.205372
 20
243.5846620000002
 30
0.0
 11
407.6653379999999
 21
244.0446280000001
 31
0.0
  0
LINE
  5
4C257
330
4B7F3
100
AcDbEntity
  8
0
 62
     0
100
AcDbLine
 10
407.2191469999999
 20
243.5277259999998
 30
0.0
 11
407.7222740000001
 21
244.0308530000002
 31
0.0
  0
LINE
  5
4C258
330
4B7F3
100
AcDbEntity
  8
0
 62
     0
100
AcDbLine
 10
407.239277
 20
243.4771449999998
 30
0.0
 11
407.772855
 21
244.0107229999999
 31
0.0
  0
LINE
  5
4C259
330
4B7F3
100
AcDbEntity
  8
0
 62
     0
100
AcDbLine
 10
407.2647109999999
 20
243.4318680000001
 30
0.0
 11
407.818132
 21
243.9852890000002
 31
0.0
  0
LINE
  5
4C25A
330
4B7F3
100
AcDbEntity
  8
0
 62
     0
100
AcDbLine
 10
407.2948889999999
 20
243.3913360000001
 30
0.0
 11
407.858664
 21
243.9551110000002
 31
0.0
  0
LINE
  5
4C25B
330
4B7F3
100
AcDbEntity
  8
0
 62
     0
100
AcDbLine
 10
407.32955
 20
243.355286
 30
0.0
 11
407.8947140000001
 21
243.9204500000001
 31
0.0
  0
LINE
  5
4C25C
330
4B7F3
100
AcDbEntity
  8
0
 62
     0
100
AcDbLine
 10
407.36866
 20
243.3236849999998
 30
0.0
 11
407.926315
 21
243.8813399999999
 31
0.0
  0
LINE
  5
4C25D
330
4B7F3
100
AcDbEntity
  8
0
 62
     0
100
AcDbLine
 10
407.412404
 20
243.2967189999999
 30
0.0
 11
407.9532810000002
 21
243.8375959999998
 31
0.0
  0
LINE
  5
4C25E
330
4B7F3
100
AcDbEntity
  8
0
 62
     0
100
AcDbLine
 10
407.4612370000001
 20
243.27484
 30
0.0
 11
407.9751600000001
 21
243.788763
 31
0.0
  0
LINE
  5
4C25F
330
4B7F3
100
AcDbEntity
  8
0
 62
     0
100
AcDbLine
 10
407.5160219999999
 20
243.2589149999999
 30
0.0
 11
407.991085
 21
243.7339780000002
 31
0.0
  0
LINE
  5
4C260
330
4B7F3
100
AcDbEntity
  8
0
 62
     0
100
AcDbLine
 10
407.5784009999999
 20
243.2505839999999
 30
0.0
 11
407.999416
 21
243.6715989999998
 31
0.0
  0
LINE
  5
4C261
330
4B7F3
100
AcDbEntity
  8
0
 62
     0
100
AcDbLine
 10
407.651911
 20
243.2533830000002
 30
0.0
 11
407.9966169999999
 21
243.5980890000001
 31
0.0
  0
LINE
  5
4C262
330
4B7F3
100
AcDbEntity
  8
0
 62
     0
100
AcDbLine
 10
407.7473799999999
 20
243.2781409999998
 30
0.0
 11
407.9718589999999
 21
243.5026200000002
 31
0.0
  0
LINE
  5
4C263
330
4B7F3
100
AcDbEntity
  8
0
 62
     0
100
AcDbLine
 10
407.1999999999999
 20
243.6500000000001
 30
0.0
 11
407.6
 21
243.25
 31
0.0
  0
LINE
  5
4C264
330
4B7F3
100
AcDbEntity
  8
0
 62
     0
100
AcDbLine
 10
407.205372
 20
243.715338
 30
0.0
 11
407.6653379999999
 21
243.2553720000001
 31
0.0
  0
LINE
  5
4C265
330
4B7F3
100
AcDbEntity
  8
0
 62
     0
100
AcDbLine
 10
407.2191469999999
 20
243.7722739999999
 30
0.0
 11
407.7222740000001
 21
243.269147
 31
0.0
  0
LINE
  5
4C266
330
4B7F3
100
AcDbEntity
  8
0
 62
     0
100
AcDbLine
 10
407.239277
 20
243.8228549999999
 30
0.0
 11
407.772855
 21
243.2892769999999
 31
0.0
  0
LINE
  5
4C267
330
4B7F3
100
AcDbEntity
  8
0
 62
     0
100
AcDbLine
 10
407.2647109999999
 20
243.8681320000001
 30
0.0
 11
407.818132
 21
243.314711
 31
0.0
  0
LINE
  5
4C268
330
4B7F3
100
AcDbEntity
  8
0
 62
     0
100
AcDbLine
 10
407.2948889999999
 20
243.908664
 30
0.0
 11
407.858664
 21
243.344889
 31
0.0
  0
LINE
  5
4C269
330
4B7F3
100
AcDbEntity
  8
0
 62
     0
100
AcDbLine
 10
407.32955
 20
243.9447140000002
 30
0.0
 11
407.8947140000001
 21
243.3795500000001
 31
0.0
  0
LINE
  5
4C26A
330
4B7F3
100
AcDbEntity
  8
0
 62
     0
100
AcDbLine
 10
407.36866
 20
243.9763149999999
 30
0.0
 11
407.926315
 21
243.4186599999998
 31
0.0
  0
LINE
  5
4C26B
330
4B7F3
100
AcDbEntity
  8
0
 62
     0
100
AcDbLine
 10
407.412404
 20
244.0032809999998
 30
0.0
 11
407.9532810000002
 21
243.4624039999999
 31
0.0
  0
LINE
  5
4C26C
330
4B7F3
100
AcDbEntity
  8
0
 62
     0
100
AcDbLine
 10
407.4612370000001
 20
244.0251600000001
 30
0.0
 11
407.9751600000001
 21
243.5112370000002
 31
0.0
  0
LINE
  5
4C26D
330
4B7F3
100
AcDbEntity
  8
0
 62
     0
100
AcDbLine
 10
407.5160219999999
 20
244.0410849999998
 30
0.0
 11
407.991085
 21
243.566022
 31
0.0
  0
LINE
  5
4C26E
330
4B7F3
100
AcDbEntity
  8
0
 62
     0
100
AcDbLine
 10
407.5784009999999
 20
244.0494159999998
 30
0.0
 11
407.999416
 21
243.6284009999999
 31
0.0
  0
LINE
  5
4C26F
330
4B7F3
100
AcDbEntity
  8
0
 62
     0
100
AcDbLine
 10
407.651911
 20
244.046617
 30
0.0
 11
407.9966169999999
 21
243.7019110000001
 31
0.0
  0
LINE
  5
4C270
330
4B7F3
100
AcDbEntity
  8
0
 62
     0
100
AcDbLine
 10
407.7473799999999
 20
244.0218589999999
 30
0.0
 11
407.9718589999999
 21
243.79738
 31
0.0
  0
LINE
  5
4C271
330
4B7F3
100
AcDbEntity
  8
0
 62
     0
100
AcDbLine
 10
407.2077760000001
 20
243.5715140000002
 30
0.0
 11
407.5215140000001
 21
243.2577759999999
 31
0.0
  0
LINE
  5
4C272
330
4B7F3
100
AcDbEntity
  8
0
 62
     0
100
AcDbLine
 10
407.24734
 20
243.4612390000002
 30
0.0
 11
407.4112390000001
 21
243.2973400000001
 31
0.0
  0
LINE
  5
4C273
330
4B7F3
100
AcDbEntity
  8
0
 62
     0
100
AcDbLine
 10
407.1999999999999
 20
237.6500000000001
 30
0.0
 11
407.6
 21
238.0500000000002
 31
0.0
  0
LINE
  5
4C274
330
4B7F3
100
AcDbEntity
  8
0
 62
     0
100
AcDbLine
 10
407.2077760000001
 20
237.728486
 30
0.0
 11
407.5215140000001
 21
238.0422239999998
 31
0.0
  0
LINE
  5
4C275
330
4B7F3
100
AcDbEntity
  8
0
 62
     0
100
AcDbLine
 10
407.24734
 20
237.838761
 30
0.0
 11
407.4112390000001
 21
238.0026600000001
 31
0.0
  0
LINE
  5
4C276
330
4B7F3
100
AcDbEntity
  8
0
 62
     0
100
AcDbLine
 10
407.205372
 20
237.5846620000002
 30
0.0
 11
407.6653379999999
 21
238.0446280000001
 31
0.0
  0
LINE
  5
4C277
330
4B7F3
100
AcDbEntity
  8
0
 62
     0
100
AcDbLine
 10
407.2191469999999
 20
237.5277259999998
 30
0.0
 11
407.7222740000001
 21
238.0308530000002
 31
0.0
  0
LINE
  5
4C278
330
4B7F3
100
AcDbEntity
  8
0
 62
     0
100
AcDbLine
 10
407.239277
 20
237.4771449999998
 30
0.0
 11
407.772855
 21
238.0107229999999
 31
0.0
  0
LINE
  5
4C279
330
4B7F3
100
AcDbEntity
  8
0
 62
     0
100
AcDbLine
 10
407.2647109999999
 20
237.4318680000001
 30
0.0
 11
407.818132
 21
237.9852890000002
 31
0.0
  0
LINE
  5
4C27A
330
4B7F3
100
AcDbEntity
  8
0
 62
     0
100
AcDbLine
 10
407.2948889999999
 20
237.3913360000001
 30
0.0
 11
407.858664
 21
237.9551110000002
 31
0.0
  0
LINE
  5
4C27B
330
4B7F3
100
AcDbEntity
  8
0
 62
     0
100
AcDbLine
 10
407.32955
 20
237.355286
 30
0.0
 11
407.8947140000001
 21
237.9204500000001
 31
0.0
  0
LINE
  5
4C27C
330
4B7F3
100
AcDbEntity
  8
0
 62
     0
100
AcDbLine
 10
407.36866
 20
237.3236849999998
 30
0.0
 11
407.926315
 21
237.8813399999999
 31
0.0
  0
LINE
  5
4C27D
330
4B7F3
100
AcDbEntity
  8
0
 62
     0
100
AcDbLine
 10
407.412404
 20
237.2967189999999
 30
0.0
 11
407.9532810000002
 21
237.8375959999998
 31
0.0
  0
LINE
  5
4C27E
330
4B7F3
100
AcDbEntity
  8
0
 62
     0
100
AcDbLine
 10
407.4612370000001
 20
237.27484
 30
0.0
 11
407.9751600000001
 21
237.788763
 31
0.0
  0
LINE
  5
4C27F
330
4B7F3
100
AcDbEntity
  8
0
 62
     0
100
AcDbLine
 10
407.5160219999999
 20
237.2589149999999
 30
0.0
 11
407.991085
 21
237.7339780000002
 31
0.0
  0
LINE
  5
4C280
330
4B7F3
100
AcDbEntity
  8
0
 62
     0
100
AcDbLine
 10
407.5784009999999
 20
237.2505839999999
 30
0.0
 11
407.999416
 21
237.6715989999998
 31
0.0
  0
LINE
  5
4C281
330
4B7F3
100
AcDbEntity
  8
0
 62
     0
100
AcDbLine
 10
407.651911
 20
237.2533830000002
 30
0.0
 11
407.9966169999999
 21
237.5980890000001
 31
0.0
  0
LINE
  5
4C282
330
4B7F3
100
AcDbEntity
  8
0
 62
     0
100
AcDbLine
 10
407.7473799999999
 20
237.2781409999998
 30
0.0
 11
407.9718589999999
 21
237.5026200000002
 31
0.0
  0
LINE
  5
4C283
330
4B7F3
100
AcDbEntity
  8
0
 62
     0
100
AcDbLine
 10
407.1999999999999
 20
237.6500000000001
 30
0.0
 11
407.6
 21
237.25
 31
0.0
  0
LINE
  5
4C284
330
4B7F3
100
AcDbEntity
  8
0
 62
     0
100
AcDbLine
 10
407.205372
 20
237.715338
 30
0.0
 11
407.6653379999999
 21
237.2553720000001
 31
0.0
  0
LINE
  5
4C285
330
4B7F3
100
AcDbEntity
  8
0
 62
     0
100
AcDbLine
 10
407.2191469999999
 20
237.7722739999999
 30
0.0
 11
407.7222740000001
 21
237.269147
 31
0.0
  0
LINE
  5
4C286
330
4B7F3
100
AcDbEntity
  8
0
 62
     0
100
AcDbLine
 10
407.239277
 20
237.8228549999999
 30
0.0
 11
407.772855
 21
237.2892769999999
 31
0.0
  0
LINE
  5
4C287
330
4B7F3
100
AcDbEntity
  8
0
 62
     0
100
AcDbLine
 10
407.2647109999999
 20
237.8681320000001
 30
0.0
 11
407.818132
 21
237.314711
 31
0.0
  0
LINE
  5
4C288
330
4B7F3
100
AcDbEntity
  8
0
 62
     0
100
AcDbLine
 10
407.2948889999999
 20
237.908664
 30
0.0
 11
407.858664
 21
237.344889
 31
0.0
  0
LINE
  5
4C289
330
4B7F3
100
AcDbEntity
  8
0
 62
     0
100
AcDbLine
 10
407.32955
 20
237.9447140000002
 30
0.0
 11
407.8947140000001
 21
237.3795500000001
 31
0.0
  0
LINE
  5
4C28A
330
4B7F3
100
AcDbEntity
  8
0
 62
     0
100
AcDbLine
 10
407.36866
 20
237.9763149999999
 30
0.0
 11
407.926315
 21
237.4186599999998
 31
0.0
  0
LINE
  5
4C28B
330
4B7F3
100
AcDbEntity
  8
0
 62
     0
100
AcDbLine
 10
407.412404
 20
238.0032809999998
 30
0.0
 11
407.9532810000002
 21
237.4624039999999
 31
0.0
  0
LINE
  5
4C28C
330
4B7F3
100
AcDbEntity
  8
0
 62
     0
100
AcDbLine
 10
407.4612370000001
 20
238.0251600000001
 30
0.0
 11
407.9751600000001
 21
237.5112370000002
 31
0.0
  0
LINE
  5
4C28D
330
4B7F3
100
AcDbEntity
  8
0
 62
     0
100
AcDbLine
 10
407.5160219999999
 20
238.0410849999998
 30
0.0
 11
407.991085
 21
237.566022
 31
0.0
  0
LINE
  5
4C28E
330
4B7F3
100
AcDbEntity
  8
0
 62
     0
100
AcDbLine
 10
407.5784009999999
 20
238.0494159999998
 30
0.0
 11
407.999416
 21
237.6284009999999
 31
0.0
  0
LINE
  5
4C28F
330
4B7F3
100
AcDbEntity
  8
0
 62
     0
100
AcDbLine
 10
407.651911
 20
238.046617
 30
0.0
 11
407.9966169999999
 21
237.7019110000001
 31
0.0
  0
LINE
  5
4C290
330
4B7F3
100
AcDbEntity
  8
0
 62
     0
100
AcDbLine
 10
407.7473799999999
 20
238.0218589999999
 30
0.0
 11
407.9718589999999
 21
237.79738
 31
0.0
  0
LINE
  5
4C291
330
4B7F3
100
AcDbEntity
  8
0
 62
     0
100
AcDbLine
 10
407.2077760000001
 20
237.5715140000002
 30
0.0
 11
407.5215140000001
 21
237.2577759999999
 31
0.0
  0
LINE
  5
4C292
330
4B7F3
100
AcDbEntity
  8
0
 62
     0
100
AcDbLine
 10
407.24734
 20
237.4612390000002
 30
0.0
 11
407.4112390000001
 21
237.2973400000001
 31
0.0
  0
LINE
  5
4C293
330
4B7F3
100
AcDbEntity
  8
0
 62
     0
100
AcDbLine
 10
407.1999999999999
 20
231.6500000000001
 30
0.0
 11
407.6
 21
232.0500000000002
 31
0.0
  0
LINE
  5
4C294
330
4B7F3
100
AcDbEntity
  8
0
 62
     0
100
AcDbLine
 10
407.2077760000001
 20
231.728486
 30
0.0
 11
407.5215140000001
 21
232.0422239999998
 31
0.0
  0
LINE
  5
4C295
330
4B7F3
100
AcDbEntity
  8
0
 62
     0
100
AcDbLine
 10
407.24734
 20
231.838761
 30
0.0
 11
407.4112390000001
 21
232.0026600000001
 31
0.0
  0
LINE
  5
4C296
330
4B7F3
100
AcDbEntity
  8
0
 62
     0
100
AcDbLine
 10
407.205372
 20
231.5846620000002
 30
0.0
 11
407.6653379999999
 21
232.0446280000001
 31
0.0
  0
LINE
  5
4C297
330
4B7F3
100
AcDbEntity
  8
0
 62
     0
100
AcDbLine
 10
407.2191469999999
 20
231.5277259999998
 30
0.0
 11
407.7222740000001
 21
232.0308530000002
 31
0.0
  0
LINE
  5
4C298
330
4B7F3
100
AcDbEntity
  8
0
 62
     0
100
AcDbLine
 10
407.239277
 20
231.4771449999998
 30
0.0
 11
407.772855
 21
232.0107229999999
 31
0.0
  0
LINE
  5
4C299
330
4B7F3
100
AcDbEntity
  8
0
 62
     0
100
AcDbLine
 10
407.2647109999999
 20
231.4318680000001
 30
0.0
 11
407.818132
 21
231.9852890000002
 31
0.0
  0
LINE
  5
4C29A
330
4B7F3
100
AcDbEntity
  8
0
 62
     0
100
AcDbLine
 10
407.2948889999999
 20
231.3913360000001
 30
0.0
 11
407.858664
 21
231.9551110000002
 31
0.0
  0
LINE
  5
4C29B
330
4B7F3
100
AcDbEntity
  8
0
 62
     0
100
AcDbLine
 10
407.32955
 20
231.355286
 30
0.0
 11
407.8947140000001
 21
231.9204500000001
 31
0.0
  0
LINE
  5
4C29C
330
4B7F3
100
AcDbEntity
  8
0
 62
     0
100
AcDbLine
 10
407.36866
 20
231.3236849999998
 30
0.0
 11
407.926315
 21
231.8813399999999
 31
0.0
  0
LINE
  5
4C29D
330
4B7F3
100
AcDbEntity
  8
0
 62
     0
100
AcDbLine
 10
407.412404
 20
231.2967189999999
 30
0.0
 11
407.9532810000002
 21
231.8375959999998
 31
0.0
  0
LINE
  5
4C29E
330
4B7F3
100
AcDbEntity
  8
0
 62
     0
100
AcDbLine
 10
407.4612370000001
 20
231.27484
 30
0.0
 11
407.9751600000001
 21
231.788763
 31
0.0
  0
LINE
  5
4C29F
330
4B7F3
100
AcDbEntity
  8
0
 62
     0
100
AcDbLine
 10
407.5160219999999
 20
231.2589149999999
 30
0.0
 11
407.991085
 21
231.7339780000002
 31
0.0
  0
LINE
  5
4C2A0
330
4B7F3
100
AcDbEntity
  8
0
 62
     0
100
AcDbLine
 10
407.5784009999999
 20
231.2505839999999
 30
0.0
 11
407.999416
 21
231.6715989999998
 31
0.0
  0
LINE
  5
4C2A1
330
4B7F3
100
AcDbEntity
  8
0
 62
     0
100
AcDbLine
 10
407.651911
 20
231.2533830000002
 30
0.0
 11
407.9966169999999
 21
231.5980890000001
 31
0.0
  0
LINE
  5
4C2A2
330
4B7F3
100
AcDbEntity
  8
0
 62
     0
100
AcDbLine
 10
407.7473799999999
 20
231.2781409999998
 30
0.0
 11
407.9718589999999
 21
231.5026200000002
 31
0.0
  0
LINE
  5
4C2A3
330
4B7F3
100
AcDbEntity
  8
0
 62
     0
100
AcDbLine
 10
407.1999999999999
 20
231.6500000000001
 30
0.0
 11
407.6
 21
231.25
 31
0.0
  0
LINE
  5
4C2A4
330
4B7F3
100
AcDbEntity
  8
0
 62
     0
100
AcDbLine
 10
407.205372
 20
231.715338
 30
0.0
 11
407.6653379999999
 21
231.2553720000001
 31
0.0
  0
LINE
  5
4C2A5
330
4B7F3
100
AcDbEntity
  8
0
 62
     0
100
AcDbLine
 10
407.2191469999999
 20
231.7722739999999
 30
0.0
 11
407.7222740000001
 21
231.269147
 31
0.0
  0
LINE
  5
4C2A6
330
4B7F3
100
AcDbEntity
  8
0
 62
     0
100
AcDbLine
 10
407.239277
 20
231.8228549999999
 30
0.0
 11
407.772855
 21
231.2892769999999
 31
0.0
  0
LINE
  5
4C2A7
330
4B7F3
100
AcDbEntity
  8
0
 62
     0
100
AcDbLine
 10
407.2647109999999
 20
231.8681320000001
 30
0.0
 11
407.818132
 21
231.314711
 31
0.0
  0
LINE
  5
4C2A8
330
4B7F3
100
AcDbEntity
  8
0
 62
     0
100
AcDbLine
 10
407.2948889999999
 20
231.908664
 30
0.0
 11
407.858664
 21
231.344889
 31
0.0
  0
LINE
  5
4C2A9
330
4B7F3
100
AcDbEntity
  8
0
 62
     0
100
AcDbLine
 10
407.32955
 20
231.9447140000002
 30
0.0
 11
407.8947140000001
 21
231.3795500000001
 31
0.0
  0
LINE
  5
4C2AA
330
4B7F3
100
AcDbEntity
  8
0
 62
     0
100
AcDbLine
 10
407.36866
 20
231.9763149999999
 30
0.0
 11
407.926315
 21
231.4186599999998
 31
0.0
  0
LINE
  5
4C2AB
330
4B7F3
100
AcDbEntity
  8
0
 62
     0
100
AcDbLine
 10
407.412404
 20
232.0032809999998
 30
0.0
 11
407.9532810000002
 21
231.4624039999999
 31
0.0
  0
LINE
  5
4C2AC
330
4B7F3
100
AcDbEntity
  8
0
 62
     0
100
AcDbLine
 10
407.4612370000001
 20
232.0251600000001
 30
0.0
 11
407.9751600000001
 21
231.5112370000002
 31
0.0
  0
LINE
  5
4C2AD
330
4B7F3
100
AcDbEntity
  8
0
 62
     0
100
AcDbLine
 10
407.5160219999999
 20
232.0410849999998
 30
0.0
 11
407.991085
 21
231.566022
 31
0.0
  0
LINE
  5
4C2AE
330
4B7F3
100
AcDbEntity
  8
0
 62
     0
100
AcDbLine
 10
407.5784009999999
 20
232.0494159999998
 30
0.0
 11
407.999416
 21
231.6284009999999
 31
0.0
  0
LINE
  5
4C2AF
330
4B7F3
100
AcDbEntity
  8
0
 62
     0
100
AcDbLine
 10
407.651911
 20
232.046617
 30
0.0
 11
407.9966169999999
 21
231.7019110000001
 31
0.0
  0
LINE
  5
4C2B0
330
4B7F3
100
AcDbEntity
  8
0
 62
     0
100
AcDbLine
 10
407.7473799999999
 20
232.0218589999999
 30
0.0
 11
407.9718589999999
 21
231.79738
 31
0.0
  0
LINE
  5
4C2B1
330
4B7F3
100
AcDbEntity
  8
0
 62
     0
100
AcDbLine
 10
407.2077760000001
 20
231.5715140000002
 30
0.0
 11
407.5215140000001
 21
231.2577759999999
 31
0.0
  0
LINE
  5
4C2B2
330
4B7F3
100
AcDbEntity
  8
0
 62
     0
100
AcDbLine
 10
407.24734
 20
231.4612390000002
 30
0.0
 11
407.4112390000001
 21
231.2973400000001
 31
0.0
  0
LINE
  5
4C2B3
330
4B7F3
100
AcDbEntity
  8
0
 62
     0
100
AcDbLine
 10
407.1999999999999
 20
225.6500000000001
 30
0.0
 11
407.6
 21
226.0500000000002
 31
0.0
  0
LINE
  5
4C2B4
330
4B7F3
100
AcDbEntity
  8
0
 62
     0
100
AcDbLine
 10
407.2077760000001
 20
225.728486
 30
0.0
 11
407.5215140000001
 21
226.0422239999998
 31
0.0
  0
LINE
  5
4C2B5
330
4B7F3
100
AcDbEntity
  8
0
 62
     0
100
AcDbLine
 10
407.24734
 20
225.838761
 30
0.0
 11
407.4112390000001
 21
226.0026600000001
 31
0.0
  0
LINE
  5
4C2B6
330
4B7F3
100
AcDbEntity
  8
0
 62
     0
100
AcDbLine
 10
407.205372
 20
225.5846620000002
 30
0.0
 11
407.6653379999999
 21
226.0446280000001
 31
0.0
  0
LINE
  5
4C2B7
330
4B7F3
100
AcDbEntity
  8
0
 62
     0
100
AcDbLine
 10
407.2191469999999
 20
225.5277259999998
 30
0.0
 11
407.7222740000001
 21
226.0308530000002
 31
0.0
  0
LINE
  5
4C2B8
330
4B7F3
100
AcDbEntity
  8
0
 62
     0
100
AcDbLine
 10
407.5160219999999
 20
226.0410849999998
 30
0.0
 11
407.991085
 21
225.566022
 31
0.0
  0
LINE
  5
4C2B9
330
4B7F3
100
AcDbEntity
  8
0
 62
     0
100
AcDbLine
 10
407.5784009999999
 20
226.0494159999998
 30
0.0
 11
407.999416
 21
225.6284009999999
 31
0.0
  0
LINE
  5
4C2BA
330
4B7F3
100
AcDbEntity
  8
0
 62
     0
100
AcDbLine
 10
407.651911
 20
226.046617
 30
0.0
 11
407.9966169999999
 21
225.7019110000001
 31
0.0
  0
LINE
  5
4C2BB
330
4B7F3
100
AcDbEntity
  8
0
 62
     0
100
AcDbLine
 10
407.7473799999999
 20
226.0218589999999
 30
0.0
 11
407.9718589999999
 21
225.79738
 31
0.0
  0
LINE
  5
4C2BC
330
4B7F3
100
AcDbEntity
  8
0
 62
     0
100
AcDbLine
 10
407.7473799999999
 20
225.2781409999998
 30
0.0
 11
407.9718589999999
 21
225.5026200000002
 31
0.0
  0
LINE
  5
4C2BD
330
4B7F3
100
AcDbEntity
  8
0
 62
     0
100
AcDbLine
 10
407.24734
 20
225.4612390000002
 30
0.0
 11
407.4112390000001
 21
225.2973400000001
 31
0.0
  0
LINE
  5
4C2BE
330
4B7F3
100
AcDbEntity
  8
0
 62
     0
100
AcDbLine
 10
407.239277
 20
225.4771449999998
 30
0.0
 11
407.772855
 21
226.0107229999999
 31
0.0
  0
LINE
  5
4C2BF
330
4B7F3
100
AcDbEntity
  8
0
 62
     0
100
AcDbLine
 10
407.2647109999999
 20
225.4318680000001
 30
0.0
 11
407.818132
 21
225.9852890000002
 31
0.0
  0
LINE
  5
4C2C0
330
4B7F3
100
AcDbEntity
  8
0
 62
     0
100
AcDbLine
 10
407.2948889999999
 20
225.3913360000001
 30
0.0
 11
407.858664
 21
225.9551110000002
 31
0.0
  0
LINE
  5
4C2C1
330
4B7F3
100
AcDbEntity
  8
0
 62
     0
100
AcDbLine
 10
407.32955
 20
225.355286
 30
0.0
 11
407.8947140000001
 21
225.9204500000001
 31
0.0
  0
LINE
  5
4C2C2
330
4B7F3
100
AcDbEntity
  8
0
 62
     0
100
AcDbLine
 10
407.36866
 20
225.3236849999998
 30
0.0
 11
407.926315
 21
225.8813399999999
 31
0.0
  0
LINE
  5
4C2C3
330
4B7F3
100
AcDbEntity
  8
0
 62
     0
100
AcDbLine
 10
407.412404
 20
225.2967189999999
 30
0.0
 11
407.9532810000002
 21
225.8375959999998
 31
0.0
  0
LINE
  5
4C2C4
330
4B7F3
100
AcDbEntity
  8
0
 62
     0
100
AcDbLine
 10
407.4612370000001
 20
225.27484
 30
0.0
 11
407.9751600000001
 21
225.788763
 31
0.0
  0
LINE
  5
4C2C5
330
4B7F3
100
AcDbEntity
  8
0
 62
     0
100
AcDbLine
 10
407.5160219999999
 20
225.2589149999999
 30
0.0
 11
407.991085
 21
225.7339780000002
 31
0.0
  0
LINE
  5
4C2C6
330
4B7F3
100
AcDbEntity
  8
0
 62
     0
100
AcDbLine
 10
407.5784009999999
 20
225.2505839999999
 30
0.0
 11
407.999416
 21
225.6715989999998
 31
0.0
  0
LINE
  5
4C2C7
330
4B7F3
100
AcDbEntity
  8
0
 62
     0
100
AcDbLine
 10
407.651911
 20
225.2533830000002
 30
0.0
 11
407.9966169999999
 21
225.5980890000001
 31
0.0
  0
LINE
  5
4C2C8
330
4B7F3
100
AcDbEntity
  8
0
 62
     0
100
AcDbLine
 10
407.1999999999999
 20
225.6500000000001
 30
0.0
 11
407.6
 21
225.25
 31
0.0
  0
LINE
  5
4C2C9
330
4B7F3
100
AcDbEntity
  8
0
 62
     0
100
AcDbLine
 10
407.205372
 20
225.715338
 30
0.0
 11
407.6653379999999
 21
225.2553720000001
 31
0.0
  0
LINE
  5
4C2CA
330
4B7F3
100
AcDbEntity
  8
0
 62
     0
100
AcDbLine
 10
407.2191469999999
 20
225.7722739999999
 30
0.0
 11
407.7222740000001
 21
225.269147
 31
0.0
  0
LINE
  5
4C2CB
330
4B7F3
100
AcDbEntity
  8
0
 62
     0
100
AcDbLine
 10
407.239277
 20
225.8228549999999
 30
0.0
 11
407.772855
 21
225.2892769999999
 31
0.0
  0
LINE
  5
4C2CC
330
4B7F3
100
AcDbEntity
  8
0
 62
     0
100
AcDbLine
 10
407.2647109999999
 20
225.8681320000001
 30
0.0
 11
407.818132
 21
225.314711
 31
0.0
  0
LINE
  5
4C2CD
330
4B7F3
100
AcDbEntity
  8
0
 62
     0
100
AcDbLine
 10
407.2948889999999
 20
225.908664
 30
0.0
 11
407.858664
 21
225.344889
 31
0.0
  0
LINE
  5
4C2CE
330
4B7F3
100
AcDbEntity
  8
0
 62
     0
100
AcDbLine
 10
407.32955
 20
225.9447140000002
 30
0.0
 11
407.8947140000001
 21
225.3795500000001
 31
0.0
  0
LINE
  5
4C2CF
330
4B7F3
100
AcDbEntity
  8
0
 62
     0
100
AcDbLine
 10
407.36866
 20
225.9763149999999
 30
0.0
 11
407.926315
 21
225.4186599999998
 31
0.0
  0
LINE
  5
4C2D0
330
4B7F3
100
AcDbEntity
  8
0
 62
     0
100
AcDbLine
 10
407.412404
 20
226.0032809999998
 30
0.0
 11
407.9532810000002
 21
225.4624039999999
 31
0.0
  0
LINE
  5
4C2D1
330
4B7F3
100
AcDbEntity
  8
0
 62
     0
100
AcDbLine
 10
407.4612370000001
 20
226.0251600000001
 30
0.0
 11
407.9751600000001
 21
225.5112370000002
 31
0.0
  0
LINE
  5
4C2D2
330
4B7F3
100
AcDbEntity
  8
0
 62
     0
100
AcDbLine
 10
407.2077760000001
 20
225.5715140000002
 30
0.0
 11
407.5215140000001
 21
225.2577759999999
 31
0.0
  0
HATCH
  5
4C2D3
330
4B7F3
100
AcDbEntity
  8
0
 62
     0
100
AcDbHatch
 10
0.0
 20
0.0
 30
0.0
210
0.0
220
0.0
230
1.0
  2
SOLID
 70
     1
 71
     1
 91
        2
 92
        7
 72
     1
 73
     1
 93
        9
 10
212.6219144128614
 20
13.53735916098692
 42
0.0
 10
212.8477623889827
 20
13.53735916098692
 42
0.0
 10
212.8477623889827
 20
14.83074211089974
 42
0.0
 10
213.7832587052317
 20
13.53735916098692
 42
0.0
 10
214.0592115736069
 20
13.53735916098692
 42
0.0
 10
213.1511404903222
 20
14.83074211089974
 42
0.0
 10
213.3857525899145
 20
14.83074211089973
 42
1.0
 10
213.3857525899145
 20
16.12412506081216
 42
0.0
 10
212.6219144128615
 20
16.12412506081216
 42
0.0
 97
        1
330
4C2D5
 92
       22
 72
     1
 73
     1
 93
        4
 10
212.8477623889827
 20
15.89827708469125
 42
0.0
 10
213.3857525899145
 20
15.89827708469124
 42
-1.0
 10
213.3857525899144
 20
15.05658925708469
 42
0.0
 10
212.8477623889826
 20
15.05658925708481
 42
0.0
 97
        1
330
4C34F
 75
     0
 76
     1
 47
0.0094553770012845
 98
        2
 10
212.7666279908292
 20
15.39441417871939
 10
212.7666279908292
 20
15.39441417871939
  0
HATCH
  5
4C2D4
330
4B7F3
100
AcDbEntity
  8
0
 62
    83
100
AcDbHatch
 10
0.0
 20
0.0
 30
0.0
210
0.0
220
0.0
230
1.0
  2
SOLID
 70
     1
 71
     1
 91
       20
 92
        7
 72
     0
 73
     1
 93
        4
 10
180.7771999999999
 20
29.65329999999994
 10
180.7771999999999
 20
18.64834950495063
 10
237.7772
 20
18.64834950495063
 10
237.7772
 20
29.65329999999994
 97
        1
330
4C2D6
 92
       22
 72
     0
 73
     1
 93
        4
 10
204.1796504950495
 20
24.95080000000035
 10
204.1796504950495
 20
23.35084950495056
 10
202.5796999999999
 20
23.35084950495056
 10
202.5796999999999
 20
24.95080000000001
 97
        4
330
4C33E
330
4C2FB
330
4C324
330
4C2FC
 92
       22
 72
     1
 73
     1
 93
        4
 10
207.4712594059405
 20
25.98498316831709
 42
0.0
 10
207.697001980198
 20
25.98498316831709
 42
-1.0
 10
207.697001980198
 20
22.31666633663386
 42
0.0
 10
207.4712594059405
 20
22.31666633663386
 42
-1.0
 97
        4
330
4C33B
330
4C33A
330
4C33C
330
4C33D
 92
        6
 72
     1
 73
     1
 93
        2
 10
208.9103683168316
 20
24.15082475247547
 42
-1.0
 10
206.2578930693068
 20
24.15082475247547
 42
-1.0
 97
        1
330
4C339
 92
       22
 72
     0
 73
     1
 93
        8
 10
201.2633386138613
 20
25.9849831683171
 10
201.2633386138613
 20
25.42062673267328
 10
200.2192792079208
 20
25.42062673267328
 10
200.2192792079208
 20
22.31666633663386
 10
199.4856158415841
 20
22.31666633663386
 10
199.4856158415841
 20
25.42062673267328
 10
198.4415564356435
 20
25.42062673267328
 10
198.4415564356435
 20
25.98498316831709
 97
        8
330
4C322
330
4C321
330
4C320
330
4C31F
330
4C31E
330
4C31D
330
4C31C
330
4C323
 92
       22
 72
     1
 73
     1
 93
        2
 10
212.4028175742573
 20
24.15082475247547
 42
-1.0
 10
210.7228695544553
 20
24.15082475247547
 42
-1.0
 97
        1
330
4C33F
 92
       22
 72
     0
 73
     1
 93
        3
 10
197.9543973209085
 20
23.40117101048351
 10
196.1069333721607
 20
23.40117101048351
 10
197.0306653465346
 20
25.00112150553295
 97
        3
330
4C31B
330
4C31A
330
4C319
 92
       22
 72
     1
 73
     1
 93
        5
 10
213.5098732673266
 20
25.9849831683171
 42
0.0
 10
214.7937841584158
 20
25.98498316831709
 42
-0.8268396299405429
 10
215.132258940184
 20
24.21557239597574
 42
-0.9235794106673716
 10
214.9811397058823
 20
22.31666633663386
 42
0.0
 10
213.5098732673266
 20
22.31666633663386
 42
0.0
 97
        5
330
4C359
330
4C35E
330
4C35F
330
4C35A
330
4C35B
 92
       22
 72
     1
 73
     1
 93
        4
 10
193.0237346534653
 20
22.31666633663386
 42
0.0
 10
192.7979920792079
 20
22.31666633663386
 42
-1.0
 10
192.7979920792079
 20
25.98498316831709
 42
0.0
 10
193.0237346534653
 20
25.98498316831709
 42
-1.0
 97
        4
330
4C2F6
330
4C2F7
330
4C2F5
330
4C2D8
 92
        6
 72
     1
 73
     1
 93
        4
 10
214.1588831683168
 20
25.47706237623782
 42
0.0
 10
214.6385861386138
 20
25.47706237623782
 42
-1.0
 10
214.6385861386138
 20
24.46122079207927
 42
0.0
 10
214.1588831683168
 20
24.46122079207927
 42
0.0
 97
        4
330
4C363
330
4C35D
330
4C361
330
4C360
 92
        6
 72
     1
 73
     1
 93
        4
 10
214.1588831683168
 20
23.98151782178226
 42
0.0
 10
214.7373485148514
 20
23.98151782178226
 42
-1.000000696587788
 10
214.7373485148514
 20
22.82458712871313
 42
0.0
 10
214.1588831683167
 20
22.82458712871313
 42
0.0
 97
        4
330
4C362
330
4C35C
330
4C364
330
4C365
 92
        6
 72
     1
 73
     1
 93
        2
 10
194.237100990099
 20
24.15082475247547
 42
-1.0
 10
191.5846257425742
 20
24.15082475247547
 42
-1.0
 97
        1
330
4C2D7
 92
       22
 72
     0
 73
     1
 93
        3
 10
216.8470323820617
 20
23.40117101048351
 10
217.7707643564355
 20
25.001121505533
 10
218.6944963308095
 20
23.40117101048351
 97
        3
330
4C357
330
4C36D
330
4C358
 92
       22
 72
     1
 73
     1
 93
        2
 10
189.5181641089108
 20
24.15082475247547
 42
-1.0
 10
187.8382160891088
 20
24.15082475247547
 42
-1.0
 97
        1
330
4C2E9
 92
       22
 72
     1
 73
     1
 93
       10
 10
219.7177940594059
 20
25.98498316831709
 42
0.0
 10
220.4514574257425
 20
25.98498316831709
 42
0.0
 10
220.4514574257425
 20
23.69933960396035
 42
1.000000186147331
 10
222.0880910891088
 20
23.69933960396035
 42
0.0
 10
222.0880910891088
 20
25.9849831683171
 42
0.0
 10
222.8217544554455
 20
25.98498316831709
 42
0.0
 10
222.8217544554455
 20
23.79810198019809
 42
-0.4142135623730698
 10
221.3403188118811
 20
22.31666633663386
 42
0.0
 10
221.1992297029703
 20
22.31666633663386
 42
-0.4142135623731069
 10
219.7177940594059
 20
23.79810198019822
 42
0.0
 97
       10
330
4C368
330
4C36C
330
4C367
330
4C36B
330
4C346
330
4C38B
330
4C345
330
4C369
330
4C366
330
4C36A
 92
       22
 72
     0
 73
     1
 93
       11
 10
187.0697742574257
 20
25.98498316831709
 10
185.8689092457776
 20
24.35977938264444
 10
187.267299009901
 20
22.31666633663386
 10
186.4772
 20
22.31666633663386
 10
185.2073980198019
 20
24.15082475247546
 10
185.2073980198019
 20
22.31666633663386
 10
184.5019524752474
 20
22.31666633663385
 10
184.5019524752474
 20
25.98498316831709
 10
185.2073980198019
 20
25.98498316831709
 10
185.2073980198019
 20
24.47750579499151
 10
186.3492172393709
 20
25.9849831683171
 97
       11
330
4C2F0
330
4C2F1
330
4C2EC
330
4C2EA
330
4C2EF
330
4C2F2
330
4C2F4
330
4C2F3
330
4C2EE
330
4C2EB
330
4C2ED
 92
       22
 72
     0
 73
     1
 93
        4
 10
223.9970267326732
 20
24.95080000000002
 10
225.5969772277228
 20
24.95080000000001
 10
225.5969772277228
 20
23.35084950495056
 10
223.9970267326732
 20
23.35084950495056
 97
        4
330
4C390
330
4C38F
330
4C38E
330
4C38D
 92
       22
 72
     0
 73
     1
 93
       11
 10
226.687596039604
 20
25.98498316831709
 10
227.3930415841584
 20
25.9849831683171
 10
227.3930415841584
 20
24.4775057949916
 10
228.5348608037275
 20
25.98498316831709
 10
229.2554178217821
 20
25.98498316831709
 10
228.0545528101339
 20
24.35977938264445
 10
229.4529425742574
 20
22.31666633663386
 10
228.6628435643564
 20
22.31666633663386
 10
227.3930415841584
 20
24.15082475247553
 10
227.3930415841584
 20
22.31666633663386
 10
226.6875960396039
 20
22.31666633663386
 97
       11
330
4C38A
330
4C394
330
4C391
330
4C393
330
4C396
330
4C397
330
4C392
330
4C398
330
4C395
330
4C389
330
4C38C
 92
       22
 72
     1
 73
     1
 93
        2
 10
231.7602433168317
 20
24.15082475247547
 42
-1.0
 10
230.0802952970297
 20
24.15082475247547
 42
-1.0
 97
        1
330
4C399
 92
       22
 72
     0
 73
     1
 93
        4
 10
233.4880910891088
 20
25.9849831683171
 10
234.1653188118812
 20
25.98498316831709
 10
234.1653188118811
 20
22.31666633663385
 10
233.4880910891088
 20
22.31666633663386
 97
        4
330
4C39D
330
4C39C
330
4C39B
330
4C39A
 75
     0
 76
     1
 47
0.0905417887396367
 98
       20
 10
204.3202003392414
 20
27.32291270836356
 10
204.3202003392414
 20
27.32291270836356
 10
204.3202003392414
 20
27.32291270836356
 10
204.3202003392414
 20
27.32291270836356
 10
204.3202003392414
 20
27.32291270836356
 10
204.3202003392414
 20
27.32291270836356
 10
204.3202003392414
 20
27.32291270836356
 10
204.3202003392414
 20
27.32291270836356
 10
204.3202003392414
 20
27.32291270836356
 10
204.3202003392414
 20
27.32291270836356
 10
204.3202003392414
 20
27.32291270836356
 10
204.3202003392414
 20
27.32291270836356
 10
204.3202003392414
 20
27.32291270836356
 10
204.3202003392414
 20
27.32291270836356
 10
204.3202003392414
 20
27.32291270836356
 10
204.3202003392414
 20
27.32291270836356
 10
204.3202003392414
 20
27.32291270836356
 10
204.3202003392414
 20
27.32291270836356
 10
204.3202003392414
 20
27.32291270836356
 10
204.3202003392414
 20
27.32291270836356
  0
LWPOLYLINE
  5
4C2D5
102
{ACAD_REACTORS
330
4C2D3
102
}
330
4B7F3
100
AcDbEntity
  8
0
 62
     0
100
AcDbPolyline
 90
       10
 70
     0
 43
0.0
 10
212.6219144128614
 20
16.12412506081216
 10
213.3857525899145
 20
16.12412506081216
 42
-1.000000000000001
 10
213.3857525899145
 20
14.83074211089973
 10
213.1511404903222
 20
14.83074211089973
 10
214.0592115736069
 20
13.53735916098692
 10
213.7832587052318
 20
13.53735916098692
 10
212.8477623889827
 20
14.83074211089973
 10
212.8477623889827
 20
13.53735916098692
 10
212.6219144128614
 20
13.53735916098692
 10
212.6219144128614
 20
16.12412506081216
  0
LWPOLYLINE
  5
4C2D6
102
{ACAD_REACTORS
330
4C2D4
102
}
330
4B7F3
100
AcDbEntity
  8
0
 62
    83
100
AcDbPolyline
 90
        4
 70
     1
 43
0.0
 10
180.7771999999999
 20
18.64834950495063
 10
237.7772
 20
18.64834950495063
 10
237.7772
 20
29.65329999999994
 10
180.7771999999999
 20
29.65329999999994
  0
CIRCLE
  5
4C2D7
102
{ACAD_REACTORS
330
4C2D4
102
}
330
4B7F3
100
AcDbEntity
  8
0
 62
    83
100
AcDbCircle
 10
192.9108633663366
 20
24.15082475247547
 30
0.0
 40
1.326237623762377
  0
ARC
  5
4C2D8
102
{ACAD_REACTORS
330
4C2D4
102
}
330
4B7F3
100
AcDbEntity
  8
0
 62
    83
100
AcDbCircle
 10
193.0237346534653
 20
24.15082475247547
 30
0.0
 40
1.834158415841585
100
AcDbArc
 50
270.0
 51
90.0
  0
HATCH
  5
4C2D9
330
4B7F3
100
AcDbEntity
  8
0
 62
     0
100
AcDbHatch
 10
0.0
 20
0.0
 30
0.0
210
0.0
220
0.0
230
1.0
  2
SOLID
 70
     1
 71
     1
 91
        2
 92
        7
 72
     1
 73
     1
 93
        2
 10
190.6519715182779
 20
14.830738791156
 42
1.0
 10
193.2387307786157
 20
14.830738791156
 42
1.0
 97
        1
330
4C2E2
 92
       22
 72
     1
 73
     1
 93
        2
 10
193.0128836324305
 20
14.830738791156
 42
-1.00000013533277
 10
190.8778186644631
 20
14.830738791156
 42
-1.00000013533277
 97
        1
330
4C2E3
 75
     0
 76
     1
 47
0.0275451680087292
 98
        2
 10
191.9875879881659
 20
15.99707706072821
 10
191.9875879881659
 20
15.99707706072821
  0
HATCH
  5
4C2DA
330
4B7F3
100
AcDbEntity
  8
0
 62
     0
100
AcDbHatch
 10
0.0
 20
0.0
 30
0.0
210
0.0
220
0.0
230
1.0
  2
SOLID
 70
     1
 71
     1
 91
        1
 92
        7
 72
     0
 73
     1
 93
       11
 10
188.8907171647544
 20
13.53735916098693
 10
189.1165651408755
 20
13.53735916098692
 10
189.1165651408755
 20
14.76717399791187
 10
190.2463262212482
 20
13.53735916098693
 10
190.4721733674334
 20
13.53735916098693
 10
189.1998782596873
 20
14.92233052091695
 10
190.3994002936616
 20
16.11713949004919
 10
190.1735531486242
 20
16.11713949004919
 10
189.1165651408755
 20
15.06430434153457
 10
189.1165651408755
 20
16.12412506081215
 10
188.8907171647544
 20
16.12412506081215
 97
       11
330
4C2E8
330
4C2DC
330
4C2E1
330
4C2E5
330
4C2DB
330
4C2E4
330
4C2E0
330
4C2DD
330
4C2E7
330
4C2DE
330
4C2DF
 75
     0
 76
     1
 47
0.0275451680087292
 98
        1
 10
189.0117705821236
 20
14.9454843580849
  0
LINE
  5
4C2DB
102
{ACAD_REACTORS
330
4C2DA
102
}
330
4B7F3
100
AcDbEntity
  8
0
 62
     0
100
AcDbLine
 10
188.8907171647544
 20
13.53735916098692
 30
0.0
 11
188.8907171647544
 21
16.1241184213247
 31
0.0
  0
LINE
  5
4C2DC
102
{ACAD_REACTORS
330
4C2DA
102
}
330
4B7F3
100
AcDbEntity
  8
0
 62
     0
100
AcDbLine
 10
189.1165651408755
 20
15.06430434153457
 30
0.0
 11
190.1805596079692
 21
16.1241184213247
 31
0.0
  0
LINE
  5
4C2DD
102
{ACAD_REACTORS
330
4C2DA
102
}
330
4B7F3
100
AcDbEntity
  8
0
 62
     0
100
AcDbLine
 10
189.1165651408755
 20
14.76717399791187
 30
0.0
 11
190.2463262212482
 21
13.53735916098692
 31
0.0
  0
LINE
  5
4C2DE
102
{ACAD_REACTORS
330
4C2DA
102
}
330
4B7F3
100
AcDbEntity
  8
0
 62
     0
100
AcDbLine
 10
189.1998782596873
 20
14.92233052091694
 30
0.0
 11
190.4721733674335
 21
13.53735916098692
 31
0.0
  0
LINE
  5
4C2DF
102
{ACAD_REACTORS
330
4C2DA
102
}
330
4B7F3
100
AcDbEntity
  8
0
 62
     0
100
AcDbLine
 10
189.1998782596873
 20
14.92233052091694
 30
0.0
 11
190.4064067541544
 21
16.1241184213247
 31
0.0
  0
LINE
  5
4C2E0
102
{ACAD_REACTORS
330
4C2DA
102
}
330
4B7F3
100
AcDbEntity
  8
0
 62
     0
100
AcDbLine
 10
189.1165651408755
 20
13.53735916098692
 30
0.0
 11
189.1165651408755
 21
14.76717399791187
 31
0.0
  0
LINE
  5
4C2E1
102
{ACAD_REACTORS
330
4C2DA
102
}
330
4B7F3
100
AcDbEntity
  8
0
 62
     0
100
AcDbLine
 10
189.1165651408755
 20
15.06430434153457
 30
0.0
 11
189.1165651408755
 21
16.1241184213247
 31
0.0
  0
CIRCLE
  5
4C2E2
102
{ACAD_REACTORS
330
4C2D9
102
}
330
4B7F3
100
AcDbEntity
  8
0
 62
     0
100
AcDbCircle
 10
191.9453511484468
 20
14.830738791156
 30
0.0
 40
1.2933796301689
  0
CIRCLE
  5
4C2E3
102
{ACAD_REACTORS
330
4C2D9
102
}
330
4B7F3
100
AcDbEntity
  8
0
 62
     0
100
AcDbCircle
 10
191.9453511484468
 20
14.830738791156
 30
0.0
 40
1.067532483983693
  0
LINE
  5
4C2E4
102
{ACAD_REACTORS
330
4C2DA
102
}
330
4B7F3
100
AcDbEntity
  8
0
 62
     0
100
AcDbLine
 10
188.8907171647544
 20
13.53735916098692
 30
0.0
 11
189.1165651408755
 21
13.53735916098692
 31
0.0
  0
LINE
  5
4C2E5
102
{ACAD_REACTORS
330
4C2DA
102
}
330
4B7F3
100
AcDbEntity
  8
0
 62
     0
100
AcDbLine
 10
188.8907171647544
 20
16.12412506081215
 30
0.0
 11
189.1165651408755
 21
16.12412506081215
 31
0.0
  0
LINE
  5
4C2E6
330
4B7F3
100
AcDbEntity
  8
0
 62
     0
100
AcDbLine
 10
190.1805662474568
 20
16.12412506081215
 30
0.0
 11
190.4064067541544
 21
16.12412506081215
 31
0.0
  0
LINE
  5
4C2E7
102
{ACAD_REACTORS
330
4C2DA
102
}
330
4B7F3
100
AcDbEntity
  8
0
 62
     0
100
AcDbLine
 10
190.2463262212482
 20
13.53735916098692
 30
0.0
 11
190.4721733674335
 21
13.53735916098692
 31
0.0
  0
LINE
  5
4C2E8
102
{ACAD_REACTORS
330
4C2DA
102
}
330
4B7F3
100
AcDbEntity
  8
0
 62
     0
100
AcDbLine
 10
190.3993937955056
 20
16.11713949004919
 30
0.0
 11
190.173552458872
 21
16.11713949004919
 31
0.0
  0
CIRCLE
  5
4C2E9
102
{ACAD_REACTORS
330
4C2D4
102
}
330
4B7F3
100
AcDbEntity
  8
0
 62
    83
100
AcDbCircle
 10
188.6781900990098
 20
24.15082475247547
 30
0.0
 40
0.8399740099009905
  0
LINE
  5
4C2EA
102
{ACAD_REACTORS
330
4C2D4
102
}
330
4B7F3
100
AcDbEntity
  8
0
 62
    83
100
AcDbLine
 10
185.2073980198019
 20
24.15082475247547
 30
0.0
 11
186.4772
 21
22.31666633663386
 31
0.0
  0
LINE
  5
4C2EB
102
{ACAD_REACTORS
330
4C2D4
102
}
330
4B7F3
100
AcDbEntity
  8
0
 62
    83
100
AcDbLine
 10
186.3492172393709
 20
25.98498316831709
 30
0.0
 11
185.2073980198019
 21
24.47750579499154
 31
0.0
  0
LINE
  5
4C2EC
102
{ACAD_REACTORS
330
4C2D4
102
}
330
4B7F3
100
AcDbEntity
  8
0
 62
    83
100
AcDbLine
 10
186.4772
 20
22.31666633663386
 30
0.0
 11
187.267299009901
 21
22.31666633663386
 31
0.0
  0
LINE
  5
4C2ED
102
{ACAD_REACTORS
330
4C2D4
102
}
330
4B7F3
100
AcDbEntity
  8
0
 62
    83
100
AcDbLine
 10
186.3492172393709
 20
25.98498316831709
 30
0.0
 11
187.0697742574257
 21
25.98498316831709
 31
0.0
  0
LINE
  5
4C2EE
102
{ACAD_REACTORS
330
4C2D4
102
}
330
4B7F3
100
AcDbEntity
  8
0
 62
    83
100
AcDbLine
 10
185.2073980198019
 20
24.47750579499154
 30
0.0
 11
185.2073980198019
 21
25.98498316831709
 31
0.0
  0
LINE
  5
4C2EF
102
{ACAD_REACTORS
330
4C2D4
102
}
330
4B7F3
100
AcDbEntity
  8
0
 62
    83
100
AcDbLine
 10
185.2073980198019
 20
22.31666633663386
 30
0.0
 11
185.2073980198019
 21
24.15082475247547
 31
0.0
  0
LINE
  5
4C2F0
102
{ACAD_REACTORS
330
4C2D4
102
}
330
4B7F3
100
AcDbEntity
  8
0
 62
    83
100
AcDbLine
 10
187.0697742574257
 20
25.98498316831709
 30
0.0
 11
185.8689092457775
 21
24.35977938264443
 31
0.0
  0
LINE
  5
4C2F1
102
{ACAD_REACTORS
330
4C2D4
102
}
330
4B7F3
100
AcDbEntity
  8
0
 62
    83
100
AcDbLine
 10
187.267299009901
 20
22.31666633663386
 30
0.0
 11
185.8689092457775
 21
24.35977938264443
 31
0.0
  0
LINE
  5
4C2F2
102
{ACAD_REACTORS
330
4C2D4
102
}
330
4B7F3
100
AcDbEntity
  8
0
 62
    83
100
AcDbLine
 10
184.5019524752474
 20
22.31666633663386
 30
0.0
 11
185.2073980198019
 21
22.31666633663386
 31
0.0
  0
LINE
  5
4C2F3
102
{ACAD_REACTORS
330
4C2D4
102
}
330
4B7F3
100
AcDbEntity
  8
0
 62
    83
100
AcDbLine
 10
184.5019524752474
 20
25.98498316831709
 30
0.0
 11
185.2073980198019
 21
25.98498316831709
 31
0.0
  0
LINE
  5
4C2F4
102
{ACAD_REACTORS
330
4C2D4
102
}
330
4B7F3
100
AcDbEntity
  8
0
 62
    83
100
AcDbLine
 10
184.5019524752474
 20
22.31666633663386
 30
0.0
 11
184.5019524752474
 21
25.98498316831709
 31
0.0
  0
LINE
  5
4C2F5
102
{ACAD_REACTORS
330
4C2D4
102
}
330
4B7F3
100
AcDbEntity
  8
0
 62
    83
100
AcDbLine
 10
192.7979920792079
 20
25.98498316831709
 30
0.0
 11
193.0237346534653
 21
25.98498316831709
 31
0.0
  0
LINE
  5
4C2F6
102
{ACAD_REACTORS
330
4C2D4
102
}
330
4B7F3
100
AcDbEntity
  8
0
 62
    83
100
AcDbLine
 10
192.7979920792079
 20
22.31666633663386
 30
0.0
 11
193.0237346534653
 21
22.31666633663386
 31
0.0
  0
ARC
  5
4C2F7
102
{ACAD_REACTORS
330
4C2D4
102
}
330
4B7F3
100
AcDbEntity
  8
0
 62
    83
100
AcDbCircle
 10
192.7979920792079
 20
24.15082475247547
 30
0.0
 40
1.834158415841585
100
AcDbArc
 50
90.0
 51
270.0
  0
HATCH
  5
4C2F8
330
4B7F3
100
AcDbEntity
  8
0
 62
     0
100
AcDbHatch
 10
0.0
 20
0.0
 30
0.0
210
0.0
220
0.0
230
1.0
  2
SOLID
 70
     1
 71
     1
 91
        2
 92
        7
 72
     0
 73
     1
 93
       11
 10
203.266972828703
 20
14.92233052091694
 10
204.4735004932343
 20
16.1241184213247
 10
204.247653347049
 20
16.1241184213247
 10
203.1836588799552
 20
15.06430434153459
 10
203.1836588799553
 20
16.1241184213247
 10
202.9712907232867
 20
16.1241184213247
 10
202.9712907232867
 20
13.53735916098692
 10
203.1836588799553
 20
13.53735916098692
 10
203.1836588799552
 20
14.76717399791191
 10
204.313419960328
 20
13.53735916098693
 10
204.5392679364492
 20
13.53735916098693
 97
       11
330
4C329
330
4C32C
330
4C332
330
4C331
330
4C2F9
330
4C316
330
4C2FA
330
4C330
330
4C333
330
4C32D
330
4C328
 92
        7
 72
     0
 73
     1
 93
        4
 10
205.3050016871772
 20
16.1241184213247
 10
205.0791545409919
 20
16.1241184213247
 10
205.0791545409919
 20
13.53735916098692
 10
205.3050016871772
 20
13.53735916098692
 97
        4
330
4C32E
330
4C32A
330
4C32F
330
4C32B
 75
     0
 76
     1
 47
0.0094553770012844
 98
        2
 10
203.1212752133203
 20
14.91542670013433
 10
205.211427414204
 20
14.90757915977372
  0
LINE
  5
4C2F9
102
{ACAD_REACTORS
330
4C2F8
102
}
330
4B7F3
100
AcDbEntity
  8
0
 62
     0
100
AcDbLine
 10
202.9712907232867
 20
16.1241184213247
 30
0.0
 11
203.1836588799553
 21
16.1241184213247
 31
0.0
  0
LINE
  5
4C2FA
102
{ACAD_REACTORS
330
4C2F8
102
}
330
4B7F3
100
AcDbEntity
  8
0
 62
     0
100
AcDbLine
 10
202.9712907232867
 20
13.53735916098692
 30
0.0
 11
203.1836588799553
 21
13.53735916098692
 31
0.0
  0
LINE
  5
4C2FB
102
{ACAD_REACTORS
330
4C2D4
102
}
330
4B7F3
100
AcDbEntity
  8
0
 62
    83
100
AcDbLine
 10
204.1796504950495
 20
23.35084950495056
 30
0.0
 11
202.5796999999999
 21
23.35084950495056
 31
0.0
  0
LINE
  5
4C2FC
102
{ACAD_REACTORS
330
4C2D4
102
}
330
4B7F3
100
AcDbEntity
  8
0
 62
    83
100
AcDbLine
 10
202.5796999999999
 20
24.95080000000002
 30
0.0
 11
204.1796504950495
 21
24.95080000000002
 31
0.0
  0
HATCH
  5
4C2FD
330
4B7F3
100
AcDbEntity
  8
0
 62
     0
100
AcDbHatch
 10
0.0
 20
0.0
 30
0.0
210
0.0
220
0.0
230
1.0
  2
SOLID
 70
     1
 71
     1
 91
        2
 92
        7
 72
     1
 73
     1
 93
        2
 10
195.5607786528149
 20
14.830738791156
 42
1.0
 10
198.1475379131527
 20
14.830738791156
 42
1.0
 97
        1
330
4C303
 92
       22
 72
     1
 73
     1
 93
        2
 10
197.9216907669675
 20
14.830738791156
 42
-1.00000013533277
 10
195.7866257990001
 20
14.830738791156
 42
-1.00000013533277
 97
        1
330
4C304
 75
     0
 76
     1
 47
0.0275451680087292
 98
        2
 10
196.8633495180106
 20
16.01993842591023
 10
196.8633495180106
 20
16.01993842591023
  0
HATCH
  5
4C2FE
330
4B7F3
100
AcDbEntity
  8
0
 62
     0
100
AcDbHatch
 10
0.0
 20
0.0
 30
0.0
210
0.0
220
0.0
230
1.0
  2
SOLID
 70
     1
 71
     1
 91
        1
 92
        7
 72
     0
 73
     1
 93
        8
 10
193.62009298013
 20
16.12870630717222
 10
193.6200929801299
 20
15.89827044520378
 10
194.2868303126868
 20
15.89827044520378
 10
194.2868303126868
 20
13.53735252149947
 10
194.5126782888079
 20
13.53735252149946
 10
194.5126782888079
 20
15.89827044520378
 10
195.1794156213647
 20
15.89827044520378
 10
195.1794156213646
 20
16.12870630717222
 97
        8
330
4C308
330
4C306
330
4C307
330
4C2FF
330
4C305
330
4C300
330
4C301
330
4C302
 75
     0
 76
     1
 47
0.0275451680087292
 98
        1
 10
194.4140225705166
 20
15.99707706072821
  0
LINE
  5
4C2FF
102
{ACAD_REACTORS
330
4C2FE
102
}
330
4B7F3
100
AcDbEntity
  8
0
 62
     0
100
AcDbLine
 10
194.2868303126868
 20
15.89827044520378
 30
0.0
 11
194.2868303126868
 21
13.53735916098692
 31
0.0
  0
LINE
  5
4C300
102
{ACAD_REACTORS
330
4C2FE
102
}
330
4B7F3
100
AcDbEntity
  8
0
 62
     0
100
AcDbLine
 10
194.5126782888079
 20
15.89827044520378
 30
0.0
 11
194.5126782888079
 21
13.53735916098692
 31
0.0
  0
LINE
  5
4C301
102
{ACAD_REACTORS
330
4C2FE
102
}
330
4B7F3
100
AcDbEntity
  8
0
 62
     0
100
AcDbLine
 10
194.5126782888079
 20
15.89827044520378
 30
0.0
 11
195.1794156213647
 21
15.89827044520378
 31
0.0
  0
LINE
  5
4C302
102
{ACAD_REACTORS
330
4C2FE
102
}
330
4B7F3
100
AcDbEntity
  8
0
 62
     0
100
AcDbLine
 10
195.1794156213647
 20
15.89827044520378
 30
0.0
 11
195.1794156213647
 21
16.1241184213247
 31
0.0
  0
CIRCLE
  5
4C303
102
{ACAD_REACTORS
330
4C2FD
102
}
330
4B7F3
100
AcDbEntity
  8
0
 62
     0
100
AcDbCircle
 10
196.8541582829838
 20
14.830738791156
 30
0.0
 40
1.2933796301689
  0
CIRCLE
  5
4C304
102
{ACAD_REACTORS
330
4C2FD
102
}
330
4B7F3
100
AcDbEntity
  8
0
 62
     0
100
AcDbCircle
 10
196.8541582829838
 20
14.830738791156
 30
0.0
 40
1.067532483983693
  0
LINE
  5
4C305
102
{ACAD_REACTORS
330
4C2FE
102
}
330
4B7F3
100
AcDbEntity
  8
0
 62
     0
100
AcDbLine
 10
194.2868303126868
 20
13.53735252149946
 30
0.0
 11
194.5126782888079
 21
13.53735252149946
 31
0.0
  0
LINE
  5
4C306
102
{ACAD_REACTORS
330
4C2FE
102
}
330
4B7F3
100
AcDbEntity
  8
0
 62
     0
100
AcDbLine
 10
193.6200929801299
 20
15.89827044520378
 30
0.0
 11
193.6200929801299
 21
16.1241184213247
 31
0.0
  0
LINE
  5
4C307
102
{ACAD_REACTORS
330
4C2FE
102
}
330
4B7F3
100
AcDbEntity
  8
0
 62
     0
100
AcDbLine
 10
193.6200929801299
 20
15.89827044520378
 30
0.0
 11
194.2868303126868
 21
15.89827044520378
 31
0.0
  0
LINE
  5
4C308
102
{ACAD_REACTORS
330
4C2FE
102
}
330
4B7F3
100
AcDbEntity
  8
0
 62
     0
100
AcDbLine
 10
195.1794156213647
 20
16.12870630717222
 30
0.0
 11
193.6200929801299
 21
16.12870630717222
 31
0.0
  0
HATCH
  5
4C309
330
4B7F3
100
AcDbEntity
  8
0
 62
     0
100
AcDbHatch
 10
0.0
 20
0.0
 30
0.0
210
0.0
220
0.0
230
1.0
  2
SOLID
 70
     1
 71
     1
 91
        1
 92
        7
 72
     1
 73
     1
 93
        8
 10
200.7873865153659
 20
16.1241184213247
 42
0.0
 10
200.5615393691806
 20
16.1241184213247
 42
0.0
 10
200.5615393691806
 20
14.41141449004919
 42
0.9993112080576029
 10
202.3096508572413
 20
14.41020999000819
 42
0.0
 10
202.3096508572412
 20
16.1241184213247
 42
0.0
 10
202.0838037110561
 20
16.1241184213247
 42
0.0
 10
202.0838037110561
 20
14.41141449004919
 42
-1.0
 10
200.7873865153659
 20
14.41141449004919
 42
0.0
 97
        8
330
4C317
330
4C310
330
4C312
330
4C311
330
4C318
330
4C315
330
4C30F
330
4C313
 75
     0
 76
     1
 47
0.0094553774314989
 98
        1
 10
200.7091494683245
 20
15.45719352365653
  0
HATCH
  5
4C30A
330
4B7F3
100
AcDbEntity
  8
0
 62
     0
100
AcDbHatch
 10
0.0
 20
0.0
 30
0.0
210
0.0
220
0.0
230
1.0
  2
SOLID
 70
     1
 71
     1
 91
        3
 92
       16
 93
        4
 72
     1
 10
198.7944098991748
 20
15.89827044520379
 11
199.2657164076198
 21
15.89827127513954
 72
     2
 10
199.2657171527633
 20
15.47511681969394
 40
0.4231544554462469
 50
269.9998991063898
 51
450.0001008936102
 73
     0
 72
     1
 10
199.2657164076198
 20
15.05196236424835
 11
198.7944098991748
 21
15.05196236424835
 72
     1
 10
198.7944098991748
 20
15.05196236424835
 11
198.7944098991748
 21
15.89827044520379
 97
        1
330
4C30C
 92
       16
 93
        4
 72
     1
 10
198.7944098991748
 20
14.87128448131298
 11
199.2657164076198
 21
14.87128448131298
 72
     2
 10
199.2657164076198
 20
14.31724539424268
 40
0.5540390870702971
 50
270.0
 51
450.0
 73
     0
 72
     1
 10
199.2657164076198
 20
13.76320630717238
 11
198.7944098991748
 21
13.76320630717238
 72
     1
 10
198.7944098991748
 20
13.76320630717238
 11
198.7944098991748
 21
14.87128448131298
 97
        1
330
4C30B
 92
        1
 93
        5
 72
     1
 10
198.5685627529896
 20
16.1241184213247
 11
199.3334707174625
 21
16.1241184213247
 72
     2
 10
199.3334707174625
 20
15.54287112953676
 40
0.5812472917879354
 50
270.0
 51
450.0
 73
     0
 72
     2
 10
199.3334707174625
 20
14.24949149936813
 40
0.7121323383808971
 50
270.0
 51
450.0
 73
     0
 72
     1
 10
199.3334707174625
 20
13.53735916098724
 11
198.5685627529896
 21
13.53735916098692
 72
     1
 10
198.5685627529896
 20
13.53735916098692
 11
198.5685627529896
 21
16.1241184213247
 97
        2
330
4C30E
330
4C30D
 75
     0
 76
     1
 98
        1
 10
-72.12883341765698
 20
10.24415320912569
  0
LWPOLYLINE
  5
4C30B
102
{ACAD_REACTORS
330
4C30A
102
}
330
4B7F3
100
AcDbEntity
  8
0
 62
     0
100
AcDbPolyline
 90
        5
 70
     0
 43
0.0
 10
198.7944098991748
 20
14.87128448131298
 10
199.2657164076198
 20
14.87128448131298
 42
-1.0
 10
199.2657164076198
 20
13.76320630717238
 10
198.7944098991748
 20
13.76320630717238
 10
198.7944098991748
 20
14.87128448131298
  0
LWPOLYLINE
  5
4C30C
102
{ACAD_REACTORS
330
4C30A
102
}
330
4B7F3
100
AcDbEntity
  8
0
 62
     0
100
AcDbPolyline
 90
        5
 70
     0
 43
0.0
 10
198.7944098991748
 20
15.89827044520379
 10
199.2657164076198
 20
15.89827127513954
 42
-1.000001760927264
 10
199.2657164076198
 20
15.05196236424835
 10
198.7944098991748
 20
15.05196236424835
 10
198.7944098991748
 20
15.89827044520379
  0
LWPOLYLINE
  5
4C30D
102
{ACAD_REACTORS
330
4C30A
102
}
330
4B7F3
100
AcDbEntity
  8
0
 62
     0
100
AcDbPolyline
 90
        4
 70
     0
 43
0.0
 10
199.3334707174625
 20
14.96162383774903
 42
-1.0
 10
199.3334707174625
 20
13.53735916098724
 10
198.5685627529896
 20
13.53735916098692
 10
198.5685627529896
 20
16.1241184213247
  0
LWPOLYLINE
  5
4C30E
102
{ACAD_REACTORS
330
4C30A
102
}
330
4B7F3
100
AcDbEntity
  8
0
 62
     0
100
AcDbPolyline
 90
        3
 70
     0
 43
0.0
 10
198.5685627529896
 20
16.1241184213247
 10
199.3334707174625
 20
16.1241184213247
 42
-1.0
 10
199.3334707174625
 20
14.96162383774882
 42
-0.2926436946032611
  0
ARC
  5
4C30F
102
{ACAD_REACTORS
330
4C309
102
}
330
4B7F3
100
AcDbEntity
  8
0
 62
     0
100
AcDbCircle
 10
201.435595113211
 20
14.41141449004919
 30
0.0
 40
0.6482085978451059
100
AcDbArc
 50
180.0
 51
0.0
  0
LINE
  5
4C310
102
{ACAD_REACTORS
330
4C309
102
}
330
4B7F3
100
AcDbEntity
  8
0
 62
     0
100
AcDbLine
 10
200.5615393691806
 20
16.1241184213247
 30
0.0
 11
200.5615393691806
 21
14.41141449004919
 31
0.0
  0
LINE
  5
4C311
102
{ACAD_REACTORS
330
4C309
102
}
330
4B7F3
100
AcDbEntity
  8
0
 62
     0
100
AcDbLine
 10
202.3096508572413
 20
16.1241184213247
 30
0.0
 11
202.3096508572413
 21
14.41261899202532
 31
0.0
  0
ARC
  5
4C312
102
{ACAD_REACTORS
330
4C309
102
}
330
4B7F3
100
AcDbEntity
  8
0
 62
     0
100
AcDbCircle
 10
201.4355955281789
 20
14.41141449004919
 30
0.0
 40
0.8740561589982532
100
AcDbArc
 50
180.0
 51
0.0789570564544175
  0
LINE
  5
4C313
102
{ACAD_REACTORS
330
4C309
102
}
330
4B7F3
100
AcDbEntity
  8
0
 62
     0
100
AcDbLine
 10
200.7873865153659
 20
16.1241184213247
 30
0.0
 11
200.7873865153659
 21
14.41141449004919
 31
0.0
  0
ARC
  5
4C314
330
4B7F3
100
AcDbEntity
  8
0
 62
     0
100
AcDbCircle
 10
201.4355955281789
 20
14.41141449004919
 30
0.0
 40
0.6482081828771116
100
AcDbArc
 50
180.0
 51
0.0
  0
LINE
  5
4C315
102
{ACAD_REACTORS
330
4C309
102
}
330
4B7F3
100
AcDbEntity
  8
0
 62
     0
100
AcDbLine
 10
202.0838037110561
 20
14.41141449004919
 30
0.0
 11
202.0838037110561
 21
16.1241184213247
 31
0.0
  0
LINE
  5
4C316
102
{ACAD_REACTORS
330
4C2F8
102
}
330
4B7F3
100
AcDbEntity
  8
0
 62
     0
100
AcDbLine
 10
202.9712907232867
 20
13.53735916098692
 30
0.0
 11
202.9712907232867
 21
16.1241184213247
 31
0.0
  0
LINE
  5
4C317
102
{ACAD_REACTORS
330
4C309
102
}
330
4B7F3
100
AcDbEntity
  8
0
 62
     0
100
AcDbLine
 10
200.5615393691806
 20
16.1241184213247
 30
0.0
 11
200.7873865153659
 21
16.1241184213247
 31
0.0
  0
LINE
  5
4C318
102
{ACAD_REACTORS
330
4C309
102
}
330
4B7F3
100
AcDbEntity
  8
0
 62
     0
100
AcDbLine
 10
202.0838037110561
 20
16.1241184213247
 30
0.0
 11
202.3096508572413
 21
16.1241184213247
 31
0.0
  0
LINE
  5
4C319
102
{ACAD_REACTORS
330
4C2D4
102
}
330
4B7F3
100
AcDbEntity
  8
0
 62
    83
100
AcDbLine
 10
197.0306653465346
 20
25.00112150553296
 30
0.0
 11
197.9543973209085
 21
23.40117101048351
 31
0.0
  0
LINE
  5
4C31A
102
{ACAD_REACTORS
330
4C2D4
102
}
330
4B7F3
100
AcDbEntity
  8
0
 62
    83
100
AcDbLine
 10
197.0306653465346
 20
25.00112150553296
 30
0.0
 11
196.1069333721607
 21
23.40117101048351
 31
0.0
  0
LINE
  5
4C31B
102
{ACAD_REACTORS
330
4C2D4
102
}
330
4B7F3
100
AcDbEntity
  8
0
 62
    83
100
AcDbLine
 10
196.1069333721607
 20
23.40117101048351
 30
0.0
 11
197.9543973209085
 21
23.40117101048351
 31
0.0
  0
LINE
  5
4C31C
102
{ACAD_REACTORS
330
4C2D4
102
}
330
4B7F3
100
AcDbEntity
  8
0
 62
    83
100
AcDbLine
 10
198.4415564356435
 20
25.42062673267328
 30
0.0
 11
198.4415564356435
 21
25.98498316831709
 31
0.0
  0
LINE
  5
4C31D
102
{ACAD_REACTORS
330
4C2D4
102
}
330
4B7F3
100
AcDbEntity
  8
0
 62
    83
100
AcDbLine
 10
199.4856158415841
 20
25.42062673267328
 30
0.0
 11
198.4415564356435
 21
25.42062673267328
 31
0.0
  0
LINE
  5
4C31E
102
{ACAD_REACTORS
330
4C2D4
102
}
330
4B7F3
100
AcDbEntity
  8
0
 62
    83
100
AcDbLine
 10
199.4856158415841
 20
22.31666633663386
 30
0.0
 11
199.4856158415841
 21
25.42062673267328
 31
0.0
  0
LINE
  5
4C31F
102
{ACAD_REACTORS
330
4C2D4
102
}
330
4B7F3
100
AcDbEntity
  8
0
 62
    83
100
AcDbLine
 10
200.2192792079208
 20
22.31666633663386
 30
0.0
 11
199.4856158415841
 21
22.31666633663386
 31
0.0
  0
LINE
  5
4C320
102
{ACAD_REACTORS
330
4C2D4
102
}
330
4B7F3
100
AcDbEntity
  8
0
 62
    83
100
AcDbLine
 10
200.2192792079208
 20
25.42062673267328
 30
0.0
 11
200.2192792079208
 21
22.31666633663386
 31
0.0
  0
LINE
  5
4C321
102
{ACAD_REACTORS
330
4C2D4
102
}
330
4B7F3
100
AcDbEntity
  8
0
 62
    83
100
AcDbLine
 10
201.2633386138613
 20
25.42062673267328
 30
0.0
 11
200.2192792079208
 21
25.42062673267328
 31
0.0
  0
LINE
  5
4C322
102
{ACAD_REACTORS
330
4C2D4
102
}
330
4B7F3
100
AcDbEntity
  8
0
 62
    83
100
AcDbLine
 10
201.2633386138613
 20
25.98498316831709
 30
0.0
 11
201.2633386138613
 21
25.42062673267328
 31
0.0
  0
LINE
  5
4C323
102
{ACAD_REACTORS
330
4C2D4
102
}
330
4B7F3
100
AcDbEntity
  8
0
 62
    83
100
AcDbLine
 10
198.4415564356435
 20
25.98498316831709
 30
0.0
 11
201.2633386138613
 21
25.98498316831709
 31
0.0
  0
LINE
  5
4C324
102
{ACAD_REACTORS
330
4C2D4
102
}
330
4B7F3
100
AcDbEntity
  8
0
 62
    83
100
AcDbLine
 10
202.5796999999999
 20
23.35084950495056
 30
0.0
 11
202.5796999999999
 21
24.95080000000002
 31
0.0
  0
HATCH
  5
4C325
330
4B7F3
100
AcDbEntity
  8
0
 62
     0
100
AcDbHatch
 10
0.0
 20
0.0
 30
0.0
210
0.0
220
0.0
230
1.0
  2
SOLID
 70
     1
 71
     1
 91
        1
 92
        7
 72
     1
 73
     1
 93
        4
 10
209.2881845934089
 20
13.81794368446969
 42
0.0
 10
209.2881845934089
 20
14.12892027475158
 42
-2.667269372855936
 10
209.2881845934089
 20
15.53256394704789
 42
0.0
 10
209.2881845934089
 20
15.84354053732978
 42
2.071285835562603
 97
        4
330
4C336
330
4C326
330
4C335
330
4C327
 75
     0
 76
     1
 47
0.0094553770012845
 98
        1
 10
207.2991312711954
 20
14.86083375439441
  0
ARC
  5
4C326
102
{ACAD_REACTORS
330
4C325
102
}
330
4B7F3
100
AcDbEntity
  8
0
 62
     0
100
AcDbCircle
 10
208.4837725083769
 20
14.83074211089973
 30
0.0
 40
1.293382949912639
100
AcDbArc
 50
51.54173800000001
 51
308.458262
  0
ARC
  5
4C327
102
{ACAD_REACTORS
330
4C325
102
}
330
4B7F3
100
AcDbEntity
  8
0
 62
     0
100
AcDbCircle
 10
208.4837725083769
 20
14.83074211089973
 30
0.0
 40
1.067535803727432
100
AcDbArc
 50
41.103548
 51
318.896452
  0
LINE
  5
4C328
102
{ACAD_REACTORS
330
4C2F8
102
}
330
4B7F3
100
AcDbEntity
  8
0
 62
     0
100
AcDbLine
 10
203.266972828703
 20
14.92233052091694
 30
0.0
 11
204.5392679364492
 21
13.53735916098692
 31
0.0
  0
LINE
  5
4C329
102
{ACAD_REACTORS
330
4C2F8
102
}
330
4B7F3
100
AcDbEntity
  8
0
 62
     0
100
AcDbLine
 10
203.266972828703
 20
14.92233052091694
 30
0.0
 11
204.4735004932343
 21
16.1241184213247
 31
0.0
  0
LINE
  5
4C32A
102
{ACAD_REACTORS
330
4C2F8
102
}
330
4B7F3
100
AcDbEntity
  8
0
 62
     0
100
AcDbLine
 10
205.0791545409919
 20
13.53735916098692
 30
0.0
 11
205.0791545409919
 21
16.1241184213247
 31
0.0
  0
LINE
  5
4C32B
102
{ACAD_REACTORS
330
4C2F8
102
}
330
4B7F3
100
AcDbEntity
  8
0
 62
     0
100
AcDbLine
 10
205.3050016871772
 20
13.53735916098692
 30
0.0
 11
205.3050016871772
 21
16.1241184213247
 31
0.0
  0
LINE
  5
4C32C
102
{ACAD_REACTORS
330
4C2F8
102
}
330
4B7F3
100
AcDbEntity
  8
0
 62
     0
100
AcDbLine
 10
204.247653347049
 20
16.1241184213247
 30
0.0
 11
204.4735004932343
 21
16.1241184213247
 31
0.0
  0
LINE
  5
4C32D
102
{ACAD_REACTORS
330
4C2F8
102
}
330
4B7F3
100
AcDbEntity
  8
0
 62
     0
100
AcDbLine
 10
204.313419960328
 20
13.53735916098692
 30
0.0
 11
204.5392679364492
 21
13.53735916098692
 31
0.0
  0
LINE
  5
4C32E
102
{ACAD_REACTORS
330
4C2F8
102
}
330
4B7F3
100
AcDbEntity
  8
0
 62
     0
100
AcDbLine
 10
205.0791545409919
 20
16.1241184213247
 30
0.0
 11
205.3050016871772
 21
16.1241184213247
 31
0.0
  0
LINE
  5
4C32F
102
{ACAD_REACTORS
330
4C2F8
102
}
330
4B7F3
100
AcDbEntity
  8
0
 62
     0
100
AcDbLine
 10
205.0791545409919
 20
13.53735916098692
 30
0.0
 11
205.3050016871772
 21
13.53735916098692
 31
0.0
  0
LINE
  5
4C330
102
{ACAD_REACTORS
330
4C2F8
102
}
330
4B7F3
100
AcDbEntity
  8
0
 62
     0
100
AcDbLine
 10
203.1836588799553
 20
13.53735916098692
 30
0.0
 11
203.1836588799553
 21
14.76717399791187
 31
0.0
  0
LINE
  5
4C331
102
{ACAD_REACTORS
330
4C2F8
102
}
330
4B7F3
100
AcDbEntity
  8
0
 62
     0
100
AcDbLine
 10
203.1836588799553
 20
15.06430434153457
 30
0.0
 11
203.1836588799553
 21
16.1241184213247
 31
0.0
  0
LINE
  5
4C332
102
{ACAD_REACTORS
330
4C2F8
102
}
330
4B7F3
100
AcDbEntity
  8
0
 62
     0
100
AcDbLine
 10
203.1836588799553
 20
15.06430434153457
 30
0.0
 11
204.247653347049
 21
16.1241184213247
 31
0.0
  0
LINE
  5
4C333
102
{ACAD_REACTORS
330
4C2F8
102
}
330
4B7F3
100
AcDbEntity
  8
0
 62
     0
100
AcDbLine
 10
203.1836588799553
 20
14.76717399791187
 30
0.0
 11
204.313419960328
 21
13.53735916098692
 31
0.0
  0
HATCH
  5
4C334
330
4B7F3
100
AcDbEntity
  8
0
 62
     0
100
AcDbHatch
 10
0.0
 20
0.0
 30
0.0
210
0.0
220
0.0
230
1.0
  2
SOLID
 70
     1
 71
     1
 91
        2
 92
        7
 72
     1
 73
     1
 93
        2
 10
209.5578390779751
 20
14.83074211089973
 42
1.0
 10
212.1446049778004
 20
14.83074211089973
 42
1.0
 97
        1
330
4C337
 92
       22
 72
     1
 73
     1
 93
        2
 10
211.9187578316151
 20
14.83074211089973
 42
-1.000000127167677
 10
209.7836862241603
 20
14.83074211089973
 42
-1.000000127167677
 97
        1
330
4C338
 75
     0
 76
     1
 47
0.0094553770012845
 98
        2
 10
209.67216206495
 20
14.97854392596064
 10
209.67216206495
 20
14.97854392596064
  0
LINE
  5
4C335
102
{ACAD_REACTORS
330
4C325
102
}
330
4B7F3
100
AcDbEntity
  8
0
 62
     0
100
AcDbLine
 10
209.2881845934089
 20
13.81794390181394
 30
0.0
 11
209.2881845934089
 21
14.12892089657249
 31
0.0
  0
LINE
  5
4C336
102
{ACAD_REACTORS
330
4C325
102
}
330
4B7F3
100
AcDbEntity
  8
0
 62
     0
100
AcDbLine
 10
209.2881845934089
 20
15.53256332522697
 30
0.0
 11
209.2881845934089
 21
15.84354031998514
 31
0.0
  0
CIRCLE
  5
4C337
102
{ACAD_REACTORS
330
4C334
102
}
330
4B7F3
100
AcDbEntity
  8
0
 62
     0
100
AcDbCircle
 10
210.8512220278877
 20
14.83074211089973
 30
0.0
 40
1.293382949912639
  0
CIRCLE
  5
4C338
102
{ACAD_REACTORS
330
4C334
102
}
330
4B7F3
100
AcDbEntity
  8
0
 62
     0
100
AcDbCircle
 10
210.8512220278877
 20
14.83074211089973
 30
0.0
 40
1.067535803727432
  0
CIRCLE
  5
4C339
102
{ACAD_REACTORS
330
4C2D4
102
}
330
4B7F3
100
AcDbEntity
  8
0
 62
    83
100
AcDbCircle
 10
207.5841306930692
 20
24.15082475247547
 30
0.0
 40
1.326237623762377
  0
ARC
  5
4C33A
102
{ACAD_REACTORS
330
4C2D4
102
}
330
4B7F3
100
AcDbEntity
  8
0
 62
    83
100
AcDbCircle
 10
207.697001980198
 20
24.15082475247547
 30
0.0
 40
1.834158415841585
100
AcDbArc
 50
270.0
 51
90.0
  0
LINE
  5
4C33B
102
{ACAD_REACTORS
330
4C2D4
102
}
330
4B7F3
100
AcDbEntity
  8
0
 62
    83
100
AcDbLine
 10
207.4712594059405
 20
25.98498316831709
 30
0.0
 11
207.697001980198
 21
25.98498316831709
 31
0.0
  0
LINE
  5
4C33C
102
{ACAD_REACTORS
330
4C2D4
102
}
330
4B7F3
100
AcDbEntity
  8
0
 62
    83
100
AcDbLine
 10
207.4712594059405
 20
22.31666633663386
 30
0.0
 11
207.697001980198
 21
22.31666633663386
 31
0.0
  0
ARC
  5
4C33D
102
{ACAD_REACTORS
330
4C2D4
102
}
330
4B7F3
100
AcDbEntity
  8
0
 62
    83
100
AcDbCircle
 10
207.4712594059405
 20
24.15082475247547
 30
0.0
 40
1.834158415841585
100
AcDbArc
 50
90.0
 51
270.0
  0
LINE
  5
4C33E
102
{ACAD_REACTORS
330
4C2D4
102
}
330
4B7F3
100
AcDbEntity
  8
0
 62
    83
100
AcDbLine
 10
204.1796504950495
 20
24.95080000000002
 30
0.0
 11
204.1796504950495
 21
23.35084950495056
 31
0.0
  0
CIRCLE
  5
4C33F
102
{ACAD_REACTORS
330
4C2D4
102
}
330
4B7F3
100
AcDbEntity
  8
0
 62
    83
100
AcDbCircle
 10
211.5628435643563
 20
24.15082475247547
 30
0.0
 40
0.8399740099009905
  0
HATCH
  5
4C340
330
4B7F3
100
AcDbEntity
  8
0
 62
     0
100
AcDbHatch
 10
0.0
 20
0.0
 30
0.0
210
0.0
220
0.0
230
1.0
  2
SOLID
 70
     1
 71
     1
 91
        2
 92
        7
 72
     0
 73
     1
 93
        7
 10
222.2898978723839
 20
16.12412506081215
 10
221.2189402427974
 20
13.53735916098692
 10
221.4633787838575
 20
13.53735916098693
 10
221.7907669317899
 20
14.32812626931532
 10
222.7890279830421
 20
14.32812626931532
 10
223.1164161309745
 20
13.53735916098692
 10
223.3608546720345
 20
13.53735916098692
 97
        7
330
4C353
330
4C356
330
4C354
330
4C341
330
4C372
330
4C37C
330
4C343
 92
       22
 72
     0
 73
     1
 93
        3
 10
222.2898978723839
 20
15.53371444636842
 10
222.6955232509512
 20
14.55397424543662
 10
221.8842716638807
 20
14.55397424543661
 97
        3
330
4C344
330
4C342
330
4C355
 75
     0
 76
     1
 47
0.0094553770012842
 98
        2
 10
222.3064000185615
 20
15.70820919685694
 10
222.3064000185615
 20
15.70820919685694
  0
LINE
  5
4C341
102
{ACAD_REACTORS
330
4C340
102
}
330
4B7F3
100
AcDbEntity
  8
0
 62
     0
100
AcDbLine
 10
222.789027983042
 20
14.32812626931532
 30
0.0
 11
221.7907669317899
 21
14.32812626931532
 31
0.0
  0
LINE
  5
4C342
102
{ACAD_REACTORS
330
4C340
102
}
330
4B7F3
100
AcDbEntity
  8
0
 62
     0
100
AcDbLine
 10
222.6955232509512
 20
14.55397424543661
 30
0.0
 11
221.8842716638807
 21
14.55397424543661
 31
0.0
  0
LINE
  5
4C343
102
{ACAD_REACTORS
330
4C340
102
}
330
4B7F3
100
AcDbEntity
  8
0
 62
     0
100
AcDbLine
 10
222.2898978723839
 20
16.12412506081215
 30
0.0
 11
223.3608546720345
 21
13.53735916098692
 31
0.0
  0
LINE
  5
4C344
102
{ACAD_REACTORS
330
4C340
102
}
330
4B7F3
100
AcDbEntity
  8
0
 62
     0
100
AcDbLine
 10
222.6955232509512
 20
14.55397424543661
 30
0.0
 11
222.2898978723839
 21
15.53371444636832
 31
0.0
  0
ARC
  5
4C345
102
{ACAD_REACTORS
330
4C2D4
102
}
330
4B7F3
100
AcDbEntity
  8
0
 62
    83
100
AcDbCircle
 10
221.3403188118812
 20
23.7981019801981
 30
0.0
 40
1.481435643564357
100
AcDbArc
 50
270.0
 51
0.0
  0
LINE
  5
4C346
102
{ACAD_REACTORS
330
4C2D4
102
}
330
4B7F3
100
AcDbEntity
  8
0
 62
    83
100
AcDbLine
 10
222.8217544554455
 20
25.98498316831709
 30
0.0
 11
222.0880910891088
 21
25.98498316831709
 31
0.0
  0
HATCH
  5
4C347
330
4B7F3
100
AcDbEntity
  8
0
 62
     0
100
AcDbHatch
 10
0.0
 20
0.0
 30
0.0
210
0.0
220
0.0
230
1.0
  2
SOLID
 70
     1
 71
     1
 91
        2
 92
        7
 72
     1
 73
     1
 93
        2
 10
216.1804215910794
 20
14.83074211089973
 42
1.0
 10
218.7671874909046
 20
14.83074211089973
 42
1.0
 97
        1
330
4C348
 92
       22
 72
     1
 73
     1
 93
        2
 10
218.5413403447194
 20
14.83074211089973
 42
-1.000000127167677
 10
216.4062687372646
 20
14.83074211089973
 42
-1.000000127167677
 97
        1
330
4C34B
 75
     0
 76
     1
 47
0.0094553770012845
 98
        2
 10
217.4734007998717
 20
15.982966014498
 10
217.4734007998717
 20
15.982966014498
  0
CIRCLE
  5
4C348
102
{ACAD_REACTORS
330
4C347
102
}
330
4B7F3
100
AcDbEntity
  8
0
 62
     0
100
AcDbCircle
 10
217.473804540992
 20
14.83074211089973
 30
0.0
 40
1.293382949912639
  0
CIRCLE
  5
4C349
330
4B7F3
100
AcDbEntity
  8
0
 62
     0
100
AcDbCircle
 10
217.473804540992
 20
14.83074211089973
 30
0.0
 40
1.293382949912639
  0
CIRCLE
  5
4C34A
330
4B7F3
100
AcDbEntity
  8
0
 62
     0
100
AcDbCircle
 10
217.473804540992
 20
14.83074211089973
 30
0.0
 40
1.293382949912639
  0
CIRCLE
  5
4C34B
102
{ACAD_REACTORS
330
4C347
102
}
330
4B7F3
100
AcDbEntity
  8
0
 62
     0
100
AcDbCircle
 10
217.473804540992
 20
14.83074211089973
 30
0.0
 40
1.067535803727432
  0
HATCH
  5
4C34C
330
4B7F3
100
AcDbEntity
  8
0
 62
     0
100
AcDbHatch
 10
0.0
 20
0.0
 30
0.0
210
0.0
220
0.0
230
1.0
  2
SOLID
 70
     1
 71
     1
 91
        2
 92
        1
 93
        6
 72
     1
 10
214.5233134082022
 20
16.12412506081216
 11
215.2871507553193
 21
16.12412423087619
 72
     2
 10
215.2871500526669
 20
15.47743317088784
 40
0.6466910599887343
 50
270.0000622538648
 51
449.9999377461352
 73
     0
 72
     1
 10
215.2871507553193
 20
14.83074211089949
 11
214.7491605543875
 21
14.83074211089949
 72
     1
 10
214.7491605543875
 20
14.83074211089949
 11
214.7491605543875
 21
13.53735916098692
 72
     1
 10
214.7491605543875
 20
13.53735916098692
 11
214.5233134082022
 21
13.53735916098692
 72
     1
 10
214.5233134082022
 20
13.53735916098692
 11
214.5233134082022
 21
16.12412506081216
 97
        1
330
4C34E
 92
       16
 93
        4
 72
     1
 10
214.7491605543875
 20
15.89827708469124
 11
215.2871507553193
 21
15.89827708469124
 72
     2
 10
215.2871507553193
 20
15.47743317088803
 40
0.4208439138032176
 50
270.0
 51
450.0
 73
     0
 72
     1
 10
215.2871507553193
 20
15.05658925708481
 11
214.7491605543875
 21
15.05658925708481
 72
     1
 10
214.7491605543875
 20
15.05658925708481
 11
214.7491605543875
 21
15.89827708469124
 97
        1
330
4C34D
 75
     0
 76
     1
 98
        1
 10
-72.12883341765698
 20
10.24415320912569
  0
LWPOLYLINE
  5
4C34D
102
{ACAD_REACTORS
330
4C34C
102
}
330
4B7F3
100
AcDbEntity
  8
0
 62
     0
100
AcDbPolyline
 90
        5
 70
     0
 43
0.0
 10
214.7491605543875
 20
15.89827708469124
 10
215.2871507553193
 20
15.89827708469124
 42
-1.0
 10
215.2871507553193
 20
15.05658925708481
 10
214.7491605543875
 20
15.05658925708481
 10
214.7491605543875
 20
15.89827708469124
  0
LWPOLYLINE
  5
4C34E
102
{ACAD_REACTORS
330
4C34C
102
}
330
4B7F3
100
AcDbEntity
  8
0
 62
     0
100
AcDbPolyline
 90
        7
 70
     0
 43
0.0
 10
214.5233134082022
 20
16.12412506081216
 10
215.2871507553193
 20
16.12412423087619
 42
-0.9999989134656457
 10
215.2871507553193
 20
14.83074211089949
 42
-0.0000005432674547
 10
214.7491605543875
 20
14.83074211089949
 10
214.7491605543875
 20
13.53735916098692
 10
214.5233134082022
 20
13.53735916098692
 10
214.5233134082022
 20
16.12412506081216
  0
LWPOLYLINE
  5
4C34F
102
{ACAD_REACTORS
330
4C2D3
102
}
330
4B7F3
100
AcDbEntity
  8
0
 62
     0
100
AcDbPolyline
 90
        5
 70
     0
 43
0.0
 10
212.8477623889826
 20
15.89827708469124
 10
213.3857525899145
 20
15.89827708469124
 42
-1.0
 10
213.3857525899145
 20
15.05658925708469
 10
212.8477623889826
 20
15.05658925708481
 10
212.8477623889826
 20
15.89827708469124
  0
HATCH
  5
4C350
330
4B7F3
100
AcDbEntity
  8
0
 62
     0
100
AcDbHatch
 10
0.0
 20
0.0
 30
0.0
210
0.0
220
0.0
230
1.0
  2
SOLID
 70
     1
 71
     1
 91
        2
 92
        7
 72
     1
 73
     1
 93
        9
 10
220.0043738188021
 20
14.83074211089974
 42
0.0
 10
220.2389859183945
 20
14.83074211089973
 42
1.0
 10
220.2389859183945
 20
16.12412506081216
 42
0.0
 10
219.4751477413414
 20
16.12412506081216
 42
0.0
 10
219.4751477413414
 20
13.53735916098692
 42
0.0
 10
219.7009957174627
 20
13.53735916098692
 42
0.0
 10
219.7009957174627
 20
14.83074211089975
 42
0.0
 10
220.6364920337118
 20
13.53735916098692
 42
0.0
 10
220.9124449020869
 20
13.53735916098692
 42
0.0
 97
        1
330
4C352
 92
       22
 72
     1
 73
     1
 93
        4
 10
219.7009957174626
 20
15.05658925708481
 42
0.0
 10
219.7009957174626
 20
15.89827708469124
 42
0.0
 10
220.2389859183945
 20
15.89827708469124
 42
-1.0
 10
220.2389859183944
 20
15.05658925708469
 42
0.0
 97
        1
330
4C351
 75
     0
 76
     1
 47
0.0094553770012842
 98
        2
 10
219.8547926880178
 20
14.95486292529618
 10
219.8547926880178
 20
14.95486292529618
  0
LWPOLYLINE
  5
4C351
102
{ACAD_REACTORS
330
4C350
102
}
330
4B7F3
100
AcDbEntity
  8
0
 62
     0
100
AcDbPolyline
 90
        5
 70
     0
 43
0.0
 10
219.7009957174626
 20
15.89827708469124
 10
220.2389859183945
 20
15.89827708469124
 42
-1.0
 10
220.2389859183945
 20
15.05658925708469
 10
219.7009957174626
 20
15.05658925708481
 10
219.7009957174626
 20
15.89827708469124
  0
LWPOLYLINE
  5
4C352
102
{ACAD_REACTORS
330
4C350
102
}
330
4B7F3
100
AcDbEntity
  8
0
 62
     0
100
AcDbPolyline
 90
       10
 70
     0
 43
0.0
 10
219.4751477413414
 20
16.12412506081216
 10
220.2389859183945
 20
16.12412506081216
 42
-1.000000000000001
 10
220.2389859183945
 20
14.83074211089973
 10
220.0043738188021
 20
14.83074211089973
 10
220.9124449020869
 20
13.53735916098692
 10
220.6364920337118
 20
13.53735916098692
 10
219.7009957174627
 20
14.83074211089973
 10
219.7009957174627
 20
13.53735916098692
 10
219.4751477413414
 20
13.53735916098692
 10
219.4751477413414
 20
16.12412506081216
  0
LINE
  5
4C353
102
{ACAD_REACTORS
330
4C340
102
}
330
4B7F3
100
AcDbEntity
  8
0
 62
     0
100
AcDbLine
 10
222.2898978723839
 20
16.12412506081215
 30
0.0
 11
221.2189402427975
 21
13.53735916098692
 31
0.0
  0
LINE
  5
4C354
102
{ACAD_REACTORS
330
4C340
102
}
330
4B7F3
100
AcDbEntity
  8
0
 62
     0
100
AcDbLine
 10
221.4633787838575
 20
13.53735916098692
 30
0.0
 11
221.7907669317899
 21
14.32812626931532
 31
0.0
  0
LINE
  5
4C355
102
{ACAD_REACTORS
330
4C340
102
}
330
4B7F3
100
AcDbEntity
  8
0
 62
     0
100
AcDbLine
 10
221.8842716638807
 20
14.55397424543661
 30
0.0
 11
222.2898978723839
 21
15.53371444636832
 31
0.0
  0
LINE
  5
4C356
102
{ACAD_REACTORS
330
4C340
102
}
330
4B7F3
100
AcDbEntity
  8
0
 62
     0
100
AcDbLine
 10
221.2189402427975
 20
13.53735916098692
 30
0.0
 11
221.4633787838575
 21
13.53735916098692
 31
0.0
  0
LINE
  5
4C357
102
{ACAD_REACTORS
330
4C2D4
102
}
330
4B7F3
100
AcDbEntity
  8
0
 62
    83
100
AcDbLine
 10
217.7707643564356
 20
25.00112150553296
 30
0.0
 11
216.8470323820617
 21
23.40117101048351
 31
0.0
  0
LINE
  5
4C358
102
{ACAD_REACTORS
330
4C2D4
102
}
330
4B7F3
100
AcDbEntity
  8
0
 62
    83
100
AcDbLine
 10
216.8470323820617
 20
23.40117101048351
 30
0.0
 11
218.6944963308095
 21
23.40117101048351
 31
0.0
  0
LINE
  5
4C359
102
{ACAD_REACTORS
330
4C2D4
102
}
330
4B7F3
100
AcDbEntity
  8
0
 62
    83
100
AcDbLine
 10
214.7937841584158
 20
25.98498316831709
 30
0.0
 11
213.5098732673266
 21
25.98498316831709
 31
0.0
  0
LINE
  5
4C35A
102
{ACAD_REACTORS
330
4C2D4
102
}
330
4B7F3
100
AcDbEntity
  8
0
 62
    83
100
AcDbLine
 10
214.9811397058823
 20
22.31666633663386
 30
0.0
 11
213.5098732673266
 21
22.31666633663386
 31
0.0
  0
LINE
  5
4C35B
102
{ACAD_REACTORS
330
4C2D4
102
}
330
4B7F3
100
AcDbEntity
  8
0
 62
    83
100
AcDbLine
 10
213.5098732673266
 20
22.31666633663386
 30
0.0
 11
213.5098732673266
 21
25.98498316831709
 31
0.0
  0
ARC
  5
4C35C
102
{ACAD_REACTORS
330
4C2D4
102
}
330
4B7F3
100
AcDbEntity
  8
0
 62
    83
100
AcDbCircle
 10
214.7373485148514
 20
23.40305247524751
 30
0.0
 40
0.5784653465346538
100
AcDbArc
 50
270.0
 51
90.0
  0
ARC
  5
4C35D
102
{ACAD_REACTORS
330
4C2D4
102
}
330
4B7F3
100
AcDbEntity
  8
0
 62
    83
100
AcDbCircle
 10
214.6385861386138
 20
24.96914158415854
 30
0.0
 40
0.5079207920792081
100
AcDbArc
 50
270.0
 51
90.0
  0
ARC
  5
4C35E
102
{ACAD_REACTORS
330
4C2D4
102
}
330
4B7F3
100
AcDbEntity
  8
0
 62
    83
100
AcDbCircle
 10
214.7937841584158
 20
25.06790396039629
 30
0.0
 40
0.9170792079207924
100
AcDbArc
 50
291.6588350860839
 51
90.0
  0
ARC
  5
4C35F
102
{ACAD_REACTORS
330
4C2D4
102
}
330
4B7F3
100
AcDbEntity
  8
0
 62
    83
100
AcDbCircle
 10
214.9811397058823
 20
23.27213257134557
 30
0.0
 40
0.955466234711707
100
AcDbArc
 50
270.0
 51
80.8997242041225
  0
LINE
  5
4C360
102
{ACAD_REACTORS
330
4C2D4
102
}
330
4B7F3
100
AcDbEntity
  8
0
 62
    83
100
AcDbLine
 10
214.1588831683168
 20
24.46122079207927
 30
0.0
 11
214.1588831683168
 21
25.47706237623782
 31
0.0
  0
LINE
  5
4C361
102
{ACAD_REACTORS
330
4C2D4
102
}
330
4B7F3
100
AcDbEntity
  8
0
 62
    83
100
AcDbLine
 10
214.1588831683168
 20
24.46122079207927
 30
0.0
 11
214.6385861386138
 21
24.46122079207927
 31
0.0
  0
LINE
  5
4C362
102
{ACAD_REACTORS
330
4C2D4
102
}
330
4B7F3
100
AcDbEntity
  8
0
 62
    83
100
AcDbLine
 10
214.1588831683168
 20
23.98151782178226
 30
0.0
 11
214.7373485148514
 21
23.98151782178226
 31
0.0
  0
LINE
  5
4C363
102
{ACAD_REACTORS
330
4C2D4
102
}
330
4B7F3
100
AcDbEntity
  8
0
 62
    83
100
AcDbLine
 10
214.1588831683168
 20
25.47706237623782
 30
0.0
 11
214.6385861386138
 21
25.47706237623782
 31
0.0
  0
LINE
  5
4C364
102
{ACAD_REACTORS
330
4C2D4
102
}
330
4B7F3
100
AcDbEntity
  8
0
 62
    83
100
AcDbLine
 10
214.1588831683168
 20
22.82458712871313
 30
0.0
 11
214.7373485148514
 21
22.82458712871313
 31
0.0
  0
LINE
  5
4C365
102
{ACAD_REACTORS
330
4C2D4
102
}
330
4B7F3
100
AcDbEntity
  8
0
 62
    83
100
AcDbLine
 10
214.1588831683168
 20
23.98151782178226
 30
0.0
 11
214.1588831683168
 21
22.82458712871313
 31
0.0
  0
ARC
  5
4C366
102
{ACAD_REACTORS
330
4C2D4
102
}
330
4B7F3
100
AcDbEntity
  8
0
 62
    83
100
AcDbCircle
 10
221.1992297029703
 20
23.7981019801981
 30
0.0
 40
1.481435643564357
100
AcDbArc
 50
180.0
 51
270.0
  0
ARC
  5
4C367
102
{ACAD_REACTORS
330
4C2D4
102
}
330
4B7F3
100
AcDbEntity
  8
0
 62
    83
100
AcDbCircle
 10
221.2697742574257
 20
23.69933960396035
 30
0.0
 40
0.8183168316831687
100
AcDbArc
 50
180.0
 51
0.0
  0
LINE
  5
4C368
102
{ACAD_REACTORS
330
4C2D4
102
}
330
4B7F3
100
AcDbEntity
  8
0
 62
    83
100
AcDbLine
 10
219.7177940594059
 20
25.98498316831709
 30
0.0
 11
220.4514574257425
 21
25.98498316831709
 31
0.0
  0
LINE
  5
4C369
102
{ACAD_REACTORS
330
4C2D4
102
}
330
4B7F3
100
AcDbEntity
  8
0
 62
    83
100
AcDbLine
 10
221.1992297029703
 20
22.31666633663386
 30
0.0
 11
221.3403188118812
 21
22.31666633663386
 31
0.0
  0
LINE
  5
4C36A
102
{ACAD_REACTORS
330
4C2D4
102
}
330
4B7F3
100
AcDbEntity
  8
0
 62
    83
100
AcDbLine
 10
219.7177940594059
 20
25.98498316831709
 30
0.0
 11
219.7177940594059
 21
23.7981019801981
 31
0.0
  0
LINE
  5
4C36B
102
{ACAD_REACTORS
330
4C2D4
102
}
330
4B7F3
100
AcDbEntity
  8
0
 62
    83
100
AcDbLine
 10
222.0880910891088
 20
25.98498316831709
 30
0.0
 11
222.0880910891088
 21
23.69933960396035
 31
0.0
  0
LINE
  5
4C36C
102
{ACAD_REACTORS
330
4C2D4
102
}
330
4B7F3
100
AcDbEntity
  8
0
 62
    83
100
AcDbLine
 10
220.4514574257425
 20
25.98498316831709
 30
0.0
 11
220.4514574257425
 21
23.69933960396035
 31
0.0
  0
LINE
  5
4C36D
102
{ACAD_REACTORS
330
4C2D4
102
}
330
4B7F3
100
AcDbEntity
  8
0
 62
    83
100
AcDbLine
 10
217.7707643564356
 20
25.00112150553296
 30
0.0
 11
218.6944963308095
 21
23.40117101048351
 31
0.0
  0
HATCH
  5
4C36E
330
4B7F3
100
AcDbEntity
  8
0
 62
     0
100
AcDbHatch
 10
0.0
 20
0.0
 30
0.0
210
0.0
220
0.0
230
1.0
  2
SOLID
 70
     1
 71
     1
 91
        4
 92
        7
 72
     0
 73
     1
 93
        4
 10
225.626012097777
 20
16.12412506081215
 10
225.4001649515919
 20
16.12412506081215
 10
225.4001649515919
 20
13.53735916098692
 10
225.626012097777
 20
13.53735916098692
 97
        4
330
4C37F
330
4C37A
330
4C37E
330
4C37B
 92
        7
 72
     1
 73
     1
 93
        2
 10
226.1408147186274
 20
14.83074211089973
 42
1.0
 10
228.7275806184527
 20
14.83074211089973
 42
1.0
 97
        1
330
4C36F
 92
       22
 72
     1
 73
     1
 93
        2
 10
228.5017334722675
 20
14.83074211089973
 42
-1.000000127167677
 10
226.3666618648126
 20
14.83074211089973
 42
-1.000000127167677
 97
        1
330
4C370
 92
        7
 72
     0
 73
     1
 93
        8
 10
229.2785510174043
 20
13.53735916098692
 10
229.5043989935255
 20
13.53735916098692
 10
229.5043989935255
 20
15.57938333105119
 10
231.2173510756454
 20
13.53735916098695
 10
231.2173510756455
 20
16.12412506081215
 10
230.9915030995243
 20
16.12412506081215
 10
230.9915030995243
 20
14.0821008907483
 10
229.2785510174043
 20
16.12412506081215
 97
        8
330
4C386
330
4C382
330
4C388
330
4C384
330
4C385
330
4C383
330
4C387
330
4C381
 75
     0
 76
     1
 47
0.0094553770012842
 98
        4
 10
225.5430116901033
 20
15.18251543079575
 10
226.3130678714966
 20
15.15897329868784
 10
226.3130678714966
 20
15.15897329868784
 10
229.3854354534623
 20
15.14327870694044
  0
CIRCLE
  5
4C36F
102
{ACAD_REACTORS
330
4C36E
102
}
330
4B7F3
100
AcDbEntity
  8
0
 62
     0
100
AcDbCircle
 10
227.43419766854
 20
14.83074211089973
 30
0.0
 40
1.293382949912639
  0
CIRCLE
  5
4C370
102
{ACAD_REACTORS
330
4C36E
102
}
330
4B7F3
100
AcDbEntity
  8
0
 62
     0
100
AcDbCircle
 10
227.43419766854
 20
14.83074211089973
 30
0.0
 40
1.067535803727432
  0
HATCH
  5
4C371
330
4B7F3
100
AcDbEntity
  8
0
 62
     0
100
AcDbHatch
 10
0.0
 20
0.0
 30
0.0
210
0.0
220
0.0
230
1.0
  2
SOLID
 70
     1
 71
     1
 91
        1
 92
        7
 72
     0
 73
     1
 93
        8
 10
223.371153347049
 20
16.10296667409115
 10
223.371153347049
 20
15.87711952790606
 10
224.0378906796058
 20
15.87711952790607
 10
224.0378906796058
 20
13.51620741375338
 10
224.263738655727
 20
13.51620741375338
 10
224.263738655727
 20
15.87711952790607
 10
224.9304759882837
 20
15.87711952790607
 10
224.9304759882837
 20
16.10296667409115
 97
        8
330
4C373
330
4C378
330
4C376
330
4C374
330
4C37D
330
4C375
330
4C377
330
4C379
 75
     0
 76
     1
 47
0.0094553770012842
 98
        1
 10
224.1608215889343
 20
15.99071380420533
  0
LINE
  5
4C372
102
{ACAD_REACTORS
330
4C340
102
}
330
4B7F3
100
AcDbEntity
  8
0
 62
     0
100
AcDbLine
 10
223.1164161309745
 20
13.53735916098692
 30
0.0
 11
222.789027983042
 21
14.32812626931532
 31
0.0
  0
LINE
  5
4C373
102
{ACAD_REACTORS
330
4C371
102
}
330
4B7F3
100
AcDbEntity
  8
0
 62
     0
100
AcDbLine
 10
224.9304759882837
 20
16.10296667409115
 30
0.0
 11
223.371153347049
 21
16.10296667409115
 31
0.0
  0
LINE
  5
4C374
102
{ACAD_REACTORS
330
4C371
102
}
330
4B7F3
100
AcDbEntity
  8
0
 62
     0
100
AcDbLine
 10
224.0378906796058
 20
15.87711952790607
 30
0.0
 11
224.0378906796058
 21
13.51620741375338
 31
0.0
  0
LINE
  5
4C375
102
{ACAD_REACTORS
330
4C371
102
}
330
4B7F3
100
AcDbEntity
  8
0
 62
     0
100
AcDbLine
 10
224.263738655727
 20
15.87711952790607
 30
0.0
 11
224.263738655727
 21
13.51620741375338
 31
0.0
  0
LINE
  5
4C376
102
{ACAD_REACTORS
330
4C371
102
}
330
4B7F3
100
AcDbEntity
  8
0
 62
     0
100
AcDbLine
 10
223.371153347049
 20
15.87711952790607
 30
0.0
 11
224.0378906796058
 21
15.87711952790607
 31
0.0
  0
LINE
  5
4C377
102
{ACAD_REACTORS
330
4C371
102
}
330
4B7F3
100
AcDbEntity
  8
0
 62
     0
100
AcDbLine
 10
224.263738655727
 20
15.87711952790607
 30
0.0
 11
224.9304759882837
 21
15.87711952790607
 31
0.0
  0
LINE
  5
4C378
102
{ACAD_REACTORS
330
4C371
102
}
330
4B7F3
100
AcDbEntity
  8
0
 62
     0
100
AcDbLine
 10
223.371153347049
 20
15.87711952790607
 30
0.0
 11
223.371153347049
 21
16.10296667409115
 31
0.0
  0
LINE
  5
4C379
102
{ACAD_REACTORS
330
4C371
102
}
330
4B7F3
100
AcDbEntity
  8
0
 62
     0
100
AcDbLine
 10
224.9304759882837
 20
15.87711952790607
 30
0.0
 11
224.9304759882837
 21
16.10296667409115
 31
0.0
  0
LINE
  5
4C37A
102
{ACAD_REACTORS
330
4C36E
102
}
330
4B7F3
100
AcDbEntity
  8
0
 62
     0
100
AcDbLine
 10
225.4001649515919
 20
16.12412506081215
 30
0.0
 11
225.4001649515919
 21
13.53735916098692
 31
0.0
  0
LINE
  5
4C37B
102
{ACAD_REACTORS
330
4C36E
102
}
330
4B7F3
100
AcDbEntity
  8
0
 62
     0
100
AcDbLine
 10
225.626012097777
 20
16.12412506081215
 30
0.0
 11
225.626012097777
 21
13.53735916098692
 31
0.0
  0
LINE
  5
4C37C
102
{ACAD_REACTORS
330
4C340
102
}
330
4B7F3
100
AcDbEntity
  8
0
 62
     0
100
AcDbLine
 10
223.1164161309745
 20
13.53735916098692
 30
0.0
 11
223.3608546720345
 21
13.53735916098692
 31
0.0
  0
LINE
  5
4C37D
102
{ACAD_REACTORS
330
4C371
102
}
330
4B7F3
100
AcDbEntity
  8
0
 62
     0
100
AcDbLine
 10
224.0378906796058
 20
13.51620741375338
 30
0.0
 11
224.263738655727
 21
13.51620741375338
 31
0.0
  0
LINE
  5
4C37E
102
{ACAD_REACTORS
330
4C36E
102
}
330
4B7F3
100
AcDbEntity
  8
0
 62
     0
100
AcDbLine
 10
225.4001649515919
 20
13.53735916098692
 30
0.0
 11
225.626012097777
 21
13.53735916098692
 31
0.0
  0
LINE
  5
4C37F
102
{ACAD_REACTORS
330
4C36E
102
}
330
4B7F3
100
AcDbEntity
  8
0
 62
     0
100
AcDbLine
 10
225.4001649515919
 20
16.12412506081215
 30
0.0
 11
225.626012097777
 21
16.12412506081215
 31
0.0
  0
LINE
  5
4C380
330
4B7F3
100
AcDbEntity
  8
0
 62
     0
100
AcDbLine
 10
224.9304759882837
 20
16.10755455993867
 30
0.0
 11
223.371153347049
 21
16.10755455993867
 31
0.0
  0
LINE
  5
4C381
102
{ACAD_REACTORS
330
4C36E
102
}
330
4B7F3
100
AcDbEntity
  8
0
 62
     0
100
AcDbLine
 10
229.5043989935255
 20
13.53735916098692
 30
0.0
 11
229.5043989935255
 21
15.57938333105119
 31
0.0
  0
LINE
  5
4C382
102
{ACAD_REACTORS
330
4C36E
102
}
330
4B7F3
100
AcDbEntity
  8
0
 62
     0
100
AcDbLine
 10
231.2173510756454
 20
13.53735916098692
 30
0.0
 11
231.2173510756454
 21
16.12412506081215
 31
0.0
  0
LINE
  5
4C383
102
{ACAD_REACTORS
330
4C36E
102
}
330
4B7F3
100
AcDbEntity
  8
0
 62
     0
100
AcDbLine
 10
229.2785510174043
 20
13.53735916098692
 30
0.0
 11
229.2785510174043
 21
16.12412506081215
 31
0.0
  0
LINE
  5
4C384
102
{ACAD_REACTORS
330
4C36E
102
}
330
4B7F3
100
AcDbEntity
  8
0
 62
     0
100
AcDbLine
 10
230.9915030995243
 20
14.08210089074827
 30
0.0
 11
230.9915030995243
 21
16.12412506081215
 31
0.0
  0
LINE
  5
4C385
102
{ACAD_REACTORS
330
4C36E
102
}
330
4B7F3
100
AcDbEntity
  8
0
 62
     0
100
AcDbLine
 10
229.2785510174043
 20
16.12412506081215
 30
0.0
 11
230.9915030995243
 21
14.08210089074827
 31
0.0
  0
LINE
  5
4C386
102
{ACAD_REACTORS
330
4C36E
102
}
330
4B7F3
100
AcDbEntity
  8
0
 62
     0
100
AcDbLine
 10
231.2173510756454
 20
13.53735916098692
 30
0.0
 11
229.5043989935255
 21
15.57938333105119
 31
0.0
  0
LINE
  5
4C387
102
{ACAD_REACTORS
330
4C36E
102
}
330
4B7F3
100
AcDbEntity
  8
0
 62
     0
100
AcDbLine
 10
229.2785510174043
 20
13.53735916098692
 30
0.0
 11
229.5043989935255
 21
13.53735916098692
 31
0.0
  0
LINE
  5
4C388
102
{ACAD_REACTORS
330
4C36E
102
}
330
4B7F3
100
AcDbEntity
  8
0
 62
     0
100
AcDbLine
 10
230.9915030995243
 20
16.12412506081215
 30
0.0
 11
231.2173510756454
 21
16.12412506081215
 31
0.0
  0
LINE
  5
4C389
102
{ACAD_REACTORS
330
4C2D4
102
}
330
4B7F3
100
AcDbEntity
  8
0
 62
    83
100
AcDbLine
 10
226.6875960396039
 20
22.31666633663386
 30
0.0
 11
227.3930415841584
 21
22.31666633663386
 31
0.0
  0
LINE
  5
4C38A
102
{ACAD_REACTORS
330
4C2D4
102
}
330
4B7F3
100
AcDbEntity
  8
0
 62
    83
100
AcDbLine
 10
226.6875960396039
 20
25.98498316831709
 30
0.0
 11
227.3930415841584
 21
25.98498316831709
 31
0.0
  0
LINE
  5
4C38B
102
{ACAD_REACTORS
330
4C2D4
102
}
330
4B7F3
100
AcDbEntity
  8
0
 62
    83
100
AcDbLine
 10
222.8217544554455
 20
25.98498316831709
 30
0.0
 11
222.8217544554455
 21
23.7981019801981
 31
0.0
  0
LINE
  5
4C38C
102
{ACAD_REACTORS
330
4C2D4
102
}
330
4B7F3
100
AcDbEntity
  8
0
 62
    83
100
AcDbLine
 10
226.6875960396039
 20
22.31666633663386
 30
0.0
 11
226.6875960396039
 21
25.98498316831709
 31
0.0
  0
LINE
  5
4C38D
102
{ACAD_REACTORS
330
4C2D4
102
}
330
4B7F3
100
AcDbEntity
  8
0
 62
    83
100
AcDbLine
 10
223.9970267326732
 20
23.35084950495056
 30
0.0
 11
223.9970267326732
 21
24.95080000000002
 31
0.0
  0
LINE
  5
4C38E
102
{ACAD_REACTORS
330
4C2D4
102
}
330
4B7F3
100
AcDbEntity
  8
0
 62
    83
100
AcDbLine
 10
225.5969772277228
 20
23.35084950495056
 30
0.0
 11
223.9970267326732
 21
23.35084950495056
 31
0.0
  0
LINE
  5
4C38F
102
{ACAD_REACTORS
330
4C2D4
102
}
330
4B7F3
100
AcDbEntity
  8
0
 62
    83
100
AcDbLine
 10
225.5969772277228
 20
24.95080000000002
 30
0.0
 11
225.5969772277228
 21
23.35084950495056
 31
0.0
  0
LINE
  5
4C390
102
{ACAD_REACTORS
330
4C2D4
102
}
330
4B7F3
100
AcDbEntity
  8
0
 62
    83
100
AcDbLine
 10
223.9970267326732
 20
24.95080000000002
 30
0.0
 11
225.5969772277228
 21
24.95080000000002
 31
0.0
  0
LINE
  5
4C391
102
{ACAD_REACTORS
330
4C2D4
102
}
330
4B7F3
100
AcDbEntity
  8
0
 62
    83
100
AcDbLine
 10
228.5348608037274
 20
25.98498316831709
 30
0.0
 11
227.3930415841584
 21
24.47750579499154
 31
0.0
  0
LINE
  5
4C392
102
{ACAD_REACTORS
330
4C2D4
102
}
330
4B7F3
100
AcDbEntity
  8
0
 62
    83
100
AcDbLine
 10
228.6628435643564
 20
22.31666633663386
 30
0.0
 11
229.4529425742574
 21
22.31666633663386
 31
0.0
  0
LINE
  5
4C393
102
{ACAD_REACTORS
330
4C2D4
102
}
330
4B7F3
100
AcDbEntity
  8
0
 62
    83
100
AcDbLine
 10
228.5348608037274
 20
25.98498316831709
 30
0.0
 11
229.2554178217821
 21
25.98498316831709
 31
0.0
  0
LINE
  5
4C394
102
{ACAD_REACTORS
330
4C2D4
102
}
330
4B7F3
100
AcDbEntity
  8
0
 62
    83
100
AcDbLine
 10
227.3930415841584
 20
24.47750579499154
 30
0.0
 11
227.3930415841584
 21
25.98498316831709
 31
0.0
  0
LINE
  5
4C395
102
{ACAD_REACTORS
330
4C2D4
102
}
330
4B7F3
100
AcDbEntity
  8
0
 62
    83
100
AcDbLine
 10
227.3930415841584
 20
22.31666633663386
 30
0.0
 11
227.3930415841584
 21
24.15082475247547
 31
0.0
  0
LINE
  5
4C396
102
{ACAD_REACTORS
330
4C2D4
102
}
330
4B7F3
100
AcDbEntity
  8
0
 62
    83
100
AcDbLine
 10
229.2554178217821
 20
25.98498316831709
 30
0.0
 11
228.0545528101339
 21
24.35977938264443
 31
0.0
  0
LINE
  5
4C397
102
{ACAD_REACTORS
330
4C2D4
102
}
330
4B7F3
100
AcDbEntity
  8
0
 62
    83
100
AcDbLine
 10
229.4529425742574
 20
22.31666633663386
 30
0.0
 11
228.0545528101339
 21
24.35977938264443
 31
0.0
  0
LINE
  5
4C398
102
{ACAD_REACTORS
330
4C2D4
102
}
330
4B7F3
100
AcDbEntity
  8
0
 62
    83
100
AcDbLine
 10
227.3930415841584
 20
24.15082475247547
 30
0.0
 11
228.6628435643564
 21
22.31666633663386
 31
0.0
  0
CIRCLE
  5
4C399
102
{ACAD_REACTORS
330
4C2D4
102
}
330
4B7F3
100
AcDbEntity
  8
0
 62
    83
100
AcDbCircle
 10
230.9202693069307
 20
24.15082475247547
 30
0.0
 40
0.8399740099009905
  0
LINE
  5
4C39A
102
{ACAD_REACTORS
330
4C2D4
102
}
330
4B7F3
100
AcDbEntity
  8
0
 62
    83
100
AcDbLine
 10
233.4880910891088
 20
22.31666633663386
 30
0.0
 11
233.4880910891088
 21
25.98498316831709
 31
0.0
  0
LINE
  5
4C39B
102
{ACAD_REACTORS
330
4C2D4
102
}
330
4B7F3
100
AcDbEntity
  8
0
 62
    83
100
AcDbLine
 10
234.1653188118811
 20
22.31666633663386
 30
0.0
 11
233.4880910891088
 21
22.31666633663386
 31
0.0
  0
LINE
  5
4C39C
102
{ACAD_REACTORS
330
4C2D4
102
}
330
4B7F3
100
AcDbEntity
  8
0
 62
    83
100
AcDbLine
 10
234.1653188118811
 20
25.98498316831709
 30
0.0
 11
234.1653188118811
 21
22.31666633663386
 31
0.0
  0
LINE
  5
4C39D
102
{ACAD_REACTORS
330
4C2D4
102
}
330
4B7F3
100
AcDbEntity
  8
0
 62
    83
100
AcDbLine
 10
233.4880910891088
 20
25.98498316831709
 30
0.0
 11
234.1653188118811
 21
25.98498316831709
 31
0.0
  0
ATTDEF
  5
4C39E
330
4B7F3
100
AcDbEntity
  8
0
 62
    83
100
AcDbText
 10
358.533879707976
 20
10.96670330022678
 30
0.0
 40
3.0
  1
.
  7
BIGFONT
 72
     1
 11
358.6767368508332
 21
10.56670330022678
 31
0.0
100
AcDbAttributeDefinition
  3
図番
  2
DWGNO
 70
     0
 74
     1
  0
ATTDEF
  5
4C39F
330
4B7F3
100
AcDbEntity
  8
0
 62
    83
100
AcDbText
 10
281.6624924016095
 20
26.12885909990166
 30
0.0
 40
4.0
  1
-
  7
BIGFONT
 72
     1
 11
283.3767781158953
 21
25.59552576656833
 31
0.0
100
AcDbAttributeDefinition
  3
表題 １
  2
PROJECT1
 70
     0
 74
     1
  0
ATTDEF
  5
4C3A0
330
4B7F3
100
AcDbEntity
  8
0
 62
    83
100
AcDbText
 10
282.4874511365476
 20
18.3750366335602
 30
0.0
 40
4.0
  1
-
  7
BIGFONT
 72
     1
 11
284.2017368508333
 21
17.84170330022687
 31
0.0
100
AcDbAttributeDefinition
  3
表題 ２
  2
PROJECT2
 70
     0
 74
     1
  0
ATTDEF
  5
4C3A1
330
4B7F3
100
AcDbEntity
  8
0
 62
    83
100
AcDbText
 10
282.4874511365476
 20
11.10003663356011
 30
0.0
 40
4.0
  1
-
  7
BIGFONT
 72
     1
 11
284.2017368508333
 21
10.56670330022678
 31
0.0
100
AcDbAttributeDefinition
  3
表題 ３
  2
PROJECT3
 70
     0
 74
     1
  0
ATTDEF
  5
4C3A2
330
4B7F3
100
AcDbEntity
  8
0
 62
    83
100
AcDbText
 10
331.7481654222618
 20
26.24170330022686
 30
0.0
 40
3.0
  1
1998/01/01
  7
BIGFONT
 72
     1
 11
344.6767368508332
 21
25.84170330022686
 31
0.0
100
AcDbAttributeDefinition
  3
日付
  2
DATE
 70
     0
 74
     1
  0
ATTDEF
  5
4C3A3
330
4B7F3
100
AcDbEntity
  8
0
 62
    83
100
AcDbText
 10
334.033879707976
 20
18.24170330022687
 30
0.0
 40
3.0
  1
.
  7
BIGFONT
 72
     1
 11
334.1767368508332
 21
17.84170330022687
 31
0.0
100
AcDbAttributeDefinition
  3
作成者
  2
DRAWN
 70
     0
 74
     1
  0
ATTDEF
  5
4C3A4
330
4B7F3
100
AcDbEntity
  8
0
 62
    83
100
AcDbText
 10
355.033879707976
 20
18.24170330022687
 30
0.0
 40
3.0
  1
.
  7
BIGFONT
 72
     1
 11
355.1767368508332
 21
17.84170330022687
 31
0.0
100
AcDbAttributeDefinition
  3
検図者
  2
CHECKED
 70
     8
 74
     1
  0
ATTDEF
  5
4C3A5
330
4B7F3
100
AcDbEntity
  8
0
 62
    83
100
AcDbText
 10
379.533879707976
 20
18.24170330022687
 30
0.0
 40
3.0
  1
.
  7
BIGFONT
 72
     1
 11
379.6767368508332
 21
17.84170330022687
 31
0.0
100
AcDbAttributeDefinition
  3
承認
  2
APPROVED
 70
     8
 74
     1
  0
ATTDEF
  5
4C3A6
330
4B7F3
100
AcDbEntity
  8
0
 62
    83
100
AcDbText
 10
376.6053082794047
 20
26.24170330022687
 30
0.0
 40
3.0
  1
1/1
  7
BIGFONT
 72
     1
 11
379.6767368508332
 21
25.84170330022687
 31
0.0
100
AcDbAttributeDefinition
  3
縮尺
  2
SCALE
 70
     0
 74
     1
  0
LWPOLYLINE
  5
4C3A7
330
4B7F3
100
AcDbEntity
  8
0
100
AcDbPolyline
 90
        3
 70
     1
 43
0.0
 10
23.91470288034736
 20
13.97268728129055
 10
22.04408800817297
 20
10.73268728129055
 10
25.78531775252175
 20
10.73268728129055
  0
TEXT
  5
4C3A8
330
4B7F3
100
AcDbEntity
  8
0
100
AcDbText
 10
23.22898859463308
 20
10.91268728129055
 30
0.0
 40
1.8
  1
A
  7
BIGFONT
 72
     4
 11
23.91470288034736
 21
11.81268728129055
 31
0.0
100
AcDbText
  0
LWPOLYLINE
  5
4C3A9
330
4B7F3
100
AcDbEntity
  8
0
100
AcDbPolyline
 90
        3
 70
     1
 43
0.0
 10
23.91470288034736
 20
19.97268728129055
 10
22.04408800817297
 20
16.73268728129055
 10
25.78531775252175
 20
16.73268728129055
  0
TEXT
  5
4C3AA
330
4B7F3
100
AcDbEntity
  8
0
100
AcDbText
 10
23.31470288034736
 20
16.91268728129055
 30
0.0
 40
1.8
  1
B
  7
BIGFONT
 72
     4
 11
23.91470288034736
 21
17.81268728129055
 31
0.0
100
AcDbText
  0
LWPOLYLINE
  5
4C3AB
330
4B7F3
100
AcDbEntity
  8
0
100
AcDbPolyline
 90
        3
 70
     1
 43
0.0
 10
23.91470288034736
 20
25.97268728129055
 10
22.04408800817297
 20
22.73268728129055
 10
25.78531775252175
 20
22.73268728129055
  0
TEXT
  5
4C3AC
330
4B7F3
100
AcDbEntity
  8
0
100
AcDbText
 10
23.27184573749022
 20
22.91268728129055
 30
0.0
 40
1.8
  1
C
  7
BIGFONT
 72
     4
 11
23.91470288034736
 21
23.81268728129055
 31
0.0
100
AcDbText
  0
LWPOLYLINE
  5
4C3AD
330
4B7F3
100
AcDbEntity
  8
0
100
AcDbPolyline
 90
        3
 70
     1
 43
0.0
 10
23.91470288034736
 20
31.44768728129046
 10
22.04408800817297
 20
28.20768728129046
 10
25.78531775252175
 20
28.20768728129046
  0
TEXT
  5
4C3AE
330
4B7F3
100
AcDbEntity
  8
0
100
AcDbText
 10
23.31470288034736
 20
28.38768728129046
 30
0.0
 40
1.8
  1
D
  7
BIGFONT
 72
     4
 11
23.91470288034736
 21
29.28768728129046
 31
0.0
100
AcDbText
  0
ATTDEF
  5
4C3AF
330
4B7F3
100
AcDbEntity
  8
0
 62
    83
 48
0.5
100
AcDbText
 10
26.47495122985561
 20
10.59212324367185
 30
0.0
 40
2.0
  1

  7
BIGFONT
 11
26.47495122985561
 21
10.32545657700518
 31
0.0
100
AcDbAttributeDefinition
  3
改定内容 1
  2
REV01
 70
     8
 74
     1
  0
ATTDEF
  5
4C3B0
330
4B7F3
100
AcDbEntity
  8
0
 62
    83
 48
0.5
100
AcDbText
 10
80.97889358425684
 20
10.59212324367185
 30
0.0
 40
2.0
  1

  7
BIGFONT
 72
     1
 11
80.97889358425684
 21
10.32545657700518
 31
0.0
100
AcDbAttributeDefinition
  3
改訂日付1
  2
REVD1
 70
     8
 74
     1
  0
ATTDEF
  5
4C3B1
330
4B7F3
100
AcDbEntity
  8
0
 62
    83
 48
0.5
100
AcDbText
 10
92.67184913363053
 20
10.59212324367185
 30
0.0
 40
2.0
  1

  7
BIGFONT
 72
     1
 11
92.67184913363053
 21
10.32545657700518
 31
0.0
100
AcDbAttributeDefinition
  3
改定者 1
  2
R1D
 70
     8
 74
     1
  0
ATTDEF
  5
4C3B2
330
4B7F3
100
AcDbEntity
  8
0
 62
    83
 48
0.5
100
AcDbText
 10
101.7968241336305
 20
10.59212324367185
 30
0.0
 40
2.0
  1

  7
BIGFONT
 72
     1
 11
101.7968241336305
 21
10.32545657700518
 31
0.0
100
AcDbAttributeDefinition
  3
改定検図 1
  2
R1C
 70
     8
 74
     1
  0
ATTDEF
  5
4C3B3
330
4B7F3
100
AcDbEntity
  8
0
 62
    83
 48
0.5
100
AcDbText
 10
110.9218241336305
 20
10.59212324367185
 30
0.0
 40
2.0
  1

  7
BIGFONT
 72
     1
 11
110.9218241336305
 21
10.32545657700518
 31
0.0
100
AcDbAttributeDefinition
  3
改定承認 1
  2
R1A
 70
     8
 74
     1
  0
ATTDEF
  5
4C3B4
330
4B7F3
100
AcDbEntity
  8
0
 62
    83
 48
0.5
100
AcDbText
 10
26.47495122985561
 20
15.84212324367185
 30
0.0
 40
2.0
  1

  7
BIGFONT
 11
26.47495122985561
 21
15.57545657700518
 31
0.0
100
AcDbAttributeDefinition
  3
改定内容 2
  2
REV02
 70
     8
 74
     1
  0
ATTDEF
  5
4C3B5
330
4B7F3
100
AcDbEntity
  8
0
 62
    83
 48
0.5
100
AcDbText
 10
80.97889358425684
 20
15.84212324367185
 30
0.0
 40
2.0
  1

  7
BIGFONT
 72
     1
 11
80.97889358425684
 21
15.57545657700518
 31
0.0
100
AcDbAttributeDefinition
  3
改訂日付2
  2
REVD2
 70
     8
 74
     1
  0
ATTDEF
  5
4C3B6
330
4B7F3
100
AcDbEntity
  8
0
 62
    83
 48
0.5
100
AcDbText
 10
92.67184913363053
 20
15.84212324367185
 30
0.0
 40
2.0
  1

  7
BIGFONT
 72
     1
 11
92.67184913363053
 21
15.57545657700518
 31
0.0
100
AcDbAttributeDefinition
  3
改定者 2
  2
R2D
 70
     8
 74
     1
  0
ATTDEF
  5
4C3B7
330
4B7F3
100
AcDbEntity
  8
0
 62
    83
 48
0.5
100
AcDbText
 10
101.7968241336305
 20
15.84212324367185
 30
0.0
 40
2.0
  1

  7
BIGFONT
 72
     1
 11
101.7968241336305
 21
15.57545657700518
 31
0.0
100
AcDbAttributeDefinition
  3
改定検図 2
  2
R2C
 70
     8
 74
     1
  0
ATTDEF
  5
4C3B8
330
4B7F3
100
AcDbEntity
  8
0
 62
    83
 48
0.5
100
AcDbText
 10
110.9218241336305
 20
15.84212324367185
 30
0.0
 40
2.0
  1

  7
BIGFONT
 72
     1
 11
110.9218241336305
 21
15.57545657700518
 31
0.0
100
AcDbAttributeDefinition
  3
改定承認 2
  2
R2A
 70
     8
 74
     1
  0
ATTDEF
  5
4C3B9
330
4B7F3
100
AcDbEntity
  8
0
 62
    83
 48
0.5
100
AcDbText
 10
26.47495122985561
 20
21.97120919868645
 30
0.0
 40
2.0
  1

  7
BIGFONT
 11
26.47495122985561
 21
21.70454253201979
 31
0.0
100
AcDbAttributeDefinition
  3
改定内容 3
  2
REV03
 70
     8
 74
     1
  0
ATTDEF
  5
4C3BA
330
4B7F3
100
AcDbEntity
  8
0
 62
    83
 48
0.5
100
AcDbText
 10
80.97889358425684
 20
21.97120919868645
 30
0.0
 40
2.0
  1

  7
BIGFONT
 72
     1
 11
80.97889358425684
 21
21.70454253201979
 31
0.0
100
AcDbAttributeDefinition
  3
改訂日付3
  2
REVD3
 70
     8
 74
     1
  0
ATTDEF
  5
4C3BB
330
4B7F3
100
AcDbEntity
  8
0
 62
    83
 48
0.5
100
AcDbText
 10
92.67184913363053
 20
21.97120919868645
 30
0.0
 40
2.0
  1

  7
BIGFONT
 72
     1
 11
92.67184913363053
 21
21.70454253201979
 31
0.0
100
AcDbAttributeDefinition
  3
改定者 3
  2
R3D
 70
     8
 74
     1
  0
ATTDEF
  5
4C3BC
330
4B7F3
100
AcDbEntity
  8
0
 62
    83
 48
0.5
100
AcDbText
 10
101.7968241336305
 20
21.97120919868645
 30
0.0
 40
2.0
  1

  7
BIGFONT
 72
     1
 11
101.7968241336305
 21
21.70454253201979
 31
0.0
100
AcDbAttributeDefinition
  3
改定検図 3
  2
R3C
 70
     8
 74
     1
  0
ATTDEF
  5
4C3BD
330
4B7F3
100
AcDbEntity
  8
0
 62
    83
 48
0.5
100
AcDbText
 10
110.9218241336305
 20
21.97120919868645
 30
0.0
 40
2.0
  1

  7
BIGFONT
 72
     1
 11
110.9218241336305
 21
21.70454253201979
 31
0.0
100
AcDbAttributeDefinition
  3
改定承認 3
  2
R3A
 70
     8
 74
     1
  0
ATTDEF
  5
4C3BE
330
4B7F3
100
AcDbEntity
  8
0
 62
    83
 48
0.5
100
AcDbText
 10
26.47495122985561
 20
27.88052406770488
 30
0.0
 40
2.0
  1

  7
BIGFONT
 11
26.47495122985561
 21
27.61385740103822
 31
0.0
100
AcDbAttributeDefinition
  3
改定内容 4
  2
REV04
 70
     8
 74
     1
  0
ATTDEF
  5
4C3BF
330
4B7F3
100
AcDbEntity
  8
0
 62
    83
 48
0.5
100
AcDbText
 10
80.97889358425684
 20
27.88052406770488
 30
0.0
 40
2.0
  1

  7
BIGFONT
 72
     1
 11
80.97889358425684
 21
27.61385740103822
 31
0.0
100
AcDbAttributeDefinition
  3
改訂日付4
  2
REVD4
 70
     8
 74
     1
  0
ATTDEF
  5
4C3C0
330
4B7F3
100
AcDbEntity
  8
0
 62
    83
 48
0.5
100
AcDbText
 10
92.67184913363053
 20
27.88052406770488
 30
0.0
 40
2.0
  1

  7
BIGFONT
 72
     1
 11
92.67184913363053
 21
27.61385740103822
 31
0.0
100
AcDbAttributeDefinition
  3
改定者 4
  2
R4D
 70
     8
 74
     1
  0
ATTDEF
  5
4C3C1
330
4B7F3
100
AcDbEntity
  8
0
 62
    83
 48
0.5
100
AcDbText
 10
101.7968241336305
 20
27.88052406770488
 30
0.0
 40
2.0
  1

  7
BIGFONT
 72
     1
 11
101.7968241336305
 21
27.61385740103822
 31
0.0
100
AcDbAttributeDefinition
  3
改定検図 4
  2
R4C
 70
     8
 74
     1
  0
ATTDEF
  5
4C3C2
330
4B7F3
100
AcDbEntity
  8
0
 62
    83
 48
0.5
100
AcDbText
 10
110.9218241336305
 20
27.88052406770488
 30
0.0
 40
2.0
  1

  7
BIGFONT
 72
     1
 11
110.9218241336305
 21
27.61385740103822
 31
0.0
100
AcDbAttributeDefinition
  3
改定承認 4
  2
R4A
 70
     8
 74
     1
  0
TEXT
  5
4C3C3
330
4B7F3
100
AcDbEntity
  8
0
 62
     0
100
AcDbText
 10
391.1356686741034
 20
10.23410826057125
 30
0.0
 40
2.8
  1
3
  7
BIGFONT
100
AcDbText
  0
ENDBLK
  5
4BD2B
330
4B7F3
100
AcDbEntity
  8
0
100
AcDbBlockEnd
  0
BLOCK
  5
4BD4F
330
4BD4C
100
AcDbEntity
  8
0
100
AcDbBlockBegin
  2
_DOT
 70
     0
 10
0.0
 20
0.0
 30
0.0
  3
_DOT
  1

  0
LWPOLYLINE
  5
4BD4D
330
4BD4C
100
AcDbEntity
  8
0
  6
ByBlock
 62
     0
100
AcDbPolyline
 90
        2
 70
     1
 43
0.5
 10
-0.25
 20
0.0
 42
1.0
 10
0.25
 20
0.0
 42
1.0
  0
LINE
  5
4BD4E
330
4BD4C
100
AcDbEntity
  8
0
  6
ByBlock
 62
     0
100
AcDbLine
 10
-0.5
 20
0.0
 30
0.0
 11
-1.0
 21
0.0
 31
0.0
  0
ENDBLK
  5
4BD50
330
4BD4C
100
AcDbEntity
  8
0
100
AcDbBlockEnd
  0
BLOCK
  5
4C462
330
4C458
100
AcDbEntity
  8
0
100
AcDbBlockBegin
  2
*D3
 70
     1
 10
0.0
 20
0.0
 30
0.0
  3
*D3
  1

  0
LINE
  5
4C4EF
330
4C458
100
AcDbEntity
  8
P_2DIM
 62
     0
370
    -2
100
AcDbLine
 10
733.6391138722893
 20
862.5444636059252
 30
0.0
 11
733.6391138722893
 21
1017.073269993339
 31
0.0
  0
LINE
  5
4C4F0
330
4C458
100
AcDbEntity
  8
P_2DIM
 62
     0
370
    -2
100
AcDbLine
 10
993.6391138722893
 20
862.5444636059251
 30
0.0
 11
993.6391138722893
 21
1017.073269993339
 31
0.0
  0
LINE
  5
4C4F1
330
4C458
100
AcDbEntity
  8
P_2DIM
 62
     0
370
    -2
100
AcDbLine
 10
739.6391138722893
 20
1009.573269993339
 30
0.0
 11
987.6391138722893
 21
1009.573269993339
 31
0.0
  0
SOLID
  5
4C4F2
330
4C458
100
AcDbEntity
  8
P_2DIM
 62
     0
100
AcDbTrace
 10
739.6391138722893
 20
1010.573269993339
 30
0.0
 11
739.6391138722893
 21
1008.573269993339
 31
0.0
 12
733.6391138722893
 22
1009.573269993339
 32
0.0
 13
733.6391138722893
 23
1009.573269993339
 33
0.0
  0
SOLID
  5
4C4F3
330
4C458
100
AcDbEntity
  8
P_2DIM
 62
     0
100
AcDbTrace
 10
987.6391138722893
 20
1010.573269993339
 30
0.0
 11
987.6391138722893
 21
1008.573269993339
 31
0.0
 12
993.6391138722893
 22
1009.573269993339
 32
0.0
 13
993.6391138722893
 23
1009.573269993339
 33
0.0
  0
MTEXT
  5
4C4F4
330
4C458
100
AcDbEntity
  8
P_2DIM
 62
   230
100
AcDbMText
 10
863.6391138722893
 20
1020.823269993339
 30
0.0
 40
15.0
 41
0.0
 71
     5
 72
     1
  1
\A1;□260
  7
BIGFONT
 73
     1
 44
1.0
  0
POINT
  5
4C4F5
330
4C458
100
AcDbEntity
  8
DEFPOINTS
 62
     0
100
AcDbPoint
 10
733.6391138722893
 20
847.5444636059252
 30
0.0
  0
POINT
  5
4C4F6
330
4C458
100
AcDbEntity
  8
DEFPOINTS
 62
     0
100
AcDbPoint
 10
993.6391138722893
 20
847.5444636059251
 30
0.0
  0
POINT
  5
4C4F7
330
4C458
100
AcDbEntity
  8
DEFPOINTS
 62
     0
100
AcDbPoint
 10
993.6391138722893
 20
1009.573269993339
 30
0.0
  0
ENDBLK
  5
4C463
330
4C458
100
AcDbEntity
  8
0
100
AcDbBlockEnd
  0
BLOCK
  5
4C46F
330
4C465
100
AcDbEntity
  8
0
100
AcDbBlockBegin
  2
*D4
 70
     1
 10
0.0
 20
0.0
 30
0.0
  3
*D4
  1

  0
LINE
  5
4C4C0
330
4C465
100
AcDbEntity
  8
P_2DIM
 62
     0
370
    -2
100
AcDbLine
 10
733.6391138722893
 20
862.5444636059252
 30
0.0
 11
733.6391138722893
 21
971.7735519835505
 31
0.0
  0
LINE
  5
4C4C1
330
4C465
100
AcDbEntity
  8
P_2DIM
 62
     0
370
    -2
100
AcDbLine
 10
760.6391138722893
 20
889.5444636059252
 30
0.0
 11
760.6391138722893
 21
971.7735519835505
 31
0.0
  0
LINE
  5
4C4C2
330
4C465
100
AcDbEntity
  8
P_2DIM
 62
     0
370
    -2
100
AcDbLine
 10
739.6391138722893
 20
964.2735519835505
 30
0.0
 11
754.6391138722893
 21
964.2735519835505
 31
0.0
  0
MTEXT
  5
4C4C3
330
4C465
100
AcDbEntity
  8
P_2DIM
 62
   230
100
AcDbMText
 10
747.1391138722893
 20
984.8985519835505
 30
0.0
 40
15.0
 41
0.0
 71
     5
 72
     1
  1
\A1;27
  7
BIGFONT
 73
     1
 44
1.0
  0
SOLID
  5
4C4C4
330
4C465
100
AcDbEntity
  8
P_2DIM
 62
     0
100
AcDbTrace
 10
739.6391138722893
 20
965.2735519835505
 30
0.0
 11
739.6391138722893
 21
963.2735519835505
 31
0.0
 12
733.6391138722893
 22
964.2735519835505
 32
0.0
 13
733.6391138722893
 23
964.2735519835505
 33
0.0
  0
SOLID
  5
4C4C5
330
4C465
100
AcDbEntity
  8
P_2DIM
 62
     0
100
AcDbTrace
 10
754.6391138722893
 20
965.2735519835505
 30
0.0
 11
754.6391138722893
 21
963.2735519835505
 31
0.0
 12
760.6391138722893
 22
964.2735519835505
 32
0.0
 13
760.6391138722893
 23
964.2735519835505
 33
0.0
  0
POINT
  5
4C4C6
330
4C465
100
AcDbEntity
  8
DEFPOINTS
 62
     0
100
AcDbPoint
 10
733.6391138722893
 20
847.5444636059252
 30
0.0
  0
POINT
  5
4C4C7
330
4C465
100
AcDbEntity
  8
DEFPOINTS
 62
     0
100
AcDbPoint
 10
760.6391138722893
 20
874.5444636059252
 30
0.0
  0
POINT
  5
4C4C8
330
4C465
100
AcDbEntity
  8
DEFPOINTS
 62
     0
100
AcDbPoint
 10
760.6391138722893
 20
964.2735519835505
 30
0.0
  0
ENDBLK
  5
4C470
330
4C465
100
AcDbEntity
  8
0
100
AcDbBlockEnd
  0
BLOCK
  5
4C47C
330
4C472
100
AcDbEntity
  8
0
100
AcDbBlockBegin
  2
*D5
 70
     1
 10
0.0
 20
0.0
 30
0.0
  3
*D5
  1

  0
LINE
  5
4C4B7
330
4C472
100
AcDbEntity
  8
P_2DIM
 62
     0
370
    -2
100
AcDbLine
 10
760.6391138722893
 20
889.5444636059252
 30
0.0
 11
760.6391138722893
 21
971.7735519835505
 31
0.0
  0
LINE
  5
4C4B8
330
4C472
100
AcDbEntity
  8
P_2DIM
 62
     0
370
    -2
100
AcDbLine
 10
803.6391138722893
 20
904.5444636059252
 30
0.0
 11
803.6391138722893
 21
971.7735519835505
 31
0.0
  0
LINE
  5
4C4B9
330
4C472
100
AcDbEntity
  8
P_2DIM
 62
     0
370
    -2
100
AcDbLine
 10
766.6391138722893
 20
964.2735519835505
 30
0.0
 11
797.6391138722893
 21
964.2735519835505
 31
0.0
  0
SOLID
  5
4C4BA
330
4C472
100
AcDbEntity
  8
P_2DIM
 62
     0
100
AcDbTrace
 10
766.6391138722893
 20
965.2735519835505
 30
0.0
 11
766.6391138722893
 21
963.2735519835505
 31
0.0
 12
760.6391138722893
 22
964.2735519835505
 32
0.0
 13
760.6391138722893
 23
964.2735519835505
 33
0.0
  0
SOLID
  5
4C4BB
330
4C472
100
AcDbEntity
  8
P_2DIM
 62
     0
100
AcDbTrace
 10
797.6391138722893
 20
965.2735519835505
 30
0.0
 11
797.6391138722893
 21
963.2735519835505
 31
0.0
 12
803.6391138722893
 22
964.2735519835505
 32
0.0
 13
803.6391138722893
 23
964.2735519835505
 33
0.0
  0
MTEXT
  5
4C4BC
330
4C472
100
AcDbEntity
  8
P_2DIM
 62
   230
100
AcDbMText
 10
782.1391138722893
 20
975.5235519835505
 30
0.0
 40
15.0
 41
0.0
 71
     5
 72
     1
  1
\A1;43
  7
BIGFONT
 73
     1
 44
1.0
  0
POINT
  5
4C4BD
330
4C472
100
AcDbEntity
  8
DEFPOINTS
 62
     0
100
AcDbPoint
 10
760.6391138722893
 20
874.5444636059252
 30
0.0
  0
POINT
  5
4C4BE
330
4C472
100
AcDbEntity
  8
DEFPOINTS
 62
     0
100
AcDbPoint
 10
803.6391138722893
 20
889.5444636059252
 30
0.0
  0
POINT
  5
4C4BF
330
4C472
100
AcDbEntity
  8
DEFPOINTS
 62
     0
100
AcDbPoint
 10
803.6391138722893
 20
964.2735519835505
 30
0.0
  0
ENDBLK
  5
4C47D
330
4C472
100
AcDbEntity
  8
0
100
AcDbBlockEnd
  0
BLOCK
  5
4C489
330
4C47F
100
AcDbEntity
  8
0
100
AcDbBlockBegin
  2
*D6
 70
     1
 10
0.0
 20
0.0
 30
0.0
  3
*D6
  1

  0
LINE
  5
4C4A5
330
4C47F
100
AcDbEntity
  8
P_2DIM
 62
     0
370
    -2
100
AcDbLine
 10
803.6391138722893
 20
904.5444636059252
 30
0.0
 11
803.6391138722893
 21
971.7735519835505
 31
0.0
  0
LINE
  5
4C4A6
330
4C47F
100
AcDbEntity
  8
P_2DIM
 62
     0
370
    -2
100
AcDbLine
 10
923.6391138722897
 20
904.5444636059257
 30
0.0
 11
923.6391138722897
 21
971.7735519835505
 31
0.0
  0
LINE
  5
4C4A7
330
4C47F
100
AcDbEntity
  8
P_2DIM
 62
     0
370
    -2
100
AcDbLine
 10
809.6391138722893
 20
964.2735519835505
 30
0.0
 11
917.6391138722897
 21
964.2735519835505
 31
0.0
  0
SOLID
  5
4C4A8
330
4C47F
100
AcDbEntity
  8
P_2DIM
 62
     0
100
AcDbTrace
 10
809.6391138722893
 20
965.2735519835505
 30
0.0
 11
809.6391138722893
 21
963.2735519835505
 31
0.0
 12
803.6391138722893
 22
964.2735519835505
 32
0.0
 13
803.6391138722893
 23
964.2735519835505
 33
0.0
  0
SOLID
  5
4C4A9
330
4C47F
100
AcDbEntity
  8
P_2DIM
 62
     0
100
AcDbTrace
 10
917.6391138722897
 20
965.2735519835505
 30
0.0
 11
917.6391138722897
 21
963.2735519835505
 31
0.0
 12
923.6391138722897
 22
964.2735519835505
 32
0.0
 13
923.6391138722897
 23
964.2735519835505
 33
0.0
  0
MTEXT
  5
4C4AA
330
4C47F
100
AcDbEntity
  8
P_2DIM
 62
   230
100
AcDbMText
 10
863.6391138722895
 20
975.5235519835505
 30
0.0
 40
15.0
 41
0.0
 71
     5
 72
     1
  1
\A1;120
  7
BIGFONT
 73
     1
 44
1.0
  0
POINT
  5
4C4AB
330
4C47F
100
AcDbEntity
  8
DEFPOINTS
 62
     0
100
AcDbPoint
 10
803.6391138722893
 20
889.5444636059252
 30
0.0
  0
POINT
  5
4C4AC
330
4C47F
100
AcDbEntity
  8
DEFPOINTS
 62
     0
100
AcDbPoint
 10
923.6391138722897
 20
889.5444636059257
 30
0.0
  0
POINT
  5
4C4AD
330
4C47F
100
AcDbEntity
  8
DEFPOINTS
 62
     0
100
AcDbPoint
 10
923.6391138722897
 20
964.2735519835505
 30
0.0
  0
ENDBLK
  5
4C48A
330
4C47F
100
AcDbEntity
  8
0
100
AcDbBlockEnd
  0
BLOCK
  5
4C496
330
4C48C
100
AcDbEntity
  8
0
100
AcDbBlockBegin
  2
*D7
 70
     1
 10
0.0
 20
0.0
 30
0.0
  3
*D7
  1

  0
LINE
  5
4C4D2
330
4C48C
100
AcDbEntity
  8
P_2DIM
 62
     0
370
    -2
100
AcDbLine
 10
923.6391138722897
 20
904.5444636059257
 30
0.0
 11
923.6391138722897
 21
971.7735519835505
 31
0.0
  0
LINE
  5
4C4D3
330
4C48C
100
AcDbEntity
  8
P_2DIM
 62
     0
370
    -2
100
AcDbLine
 10
966.6391138722893
 20
889.5444636059251
 30
0.0
 11
966.6391138722893
 21
971.7735519835505
 31
0.0
  0
LINE
  5
4C4D4
330
4C48C
100
AcDbEntity
  8
P_2DIM
 62
     0
370
    -2
100
AcDbLine
 10
929.6391138722897
 20
964.2735519835505
 30
0.0
 11
960.6391138722893
 21
964.2735519835505
 31
0.0
  0
SOLID
  5
4C4D5
330
4C48C
100
AcDbEntity
  8
P_2DIM
 62
     0
100
AcDbTrace
 10
929.6391138722897
 20
965.2735519835505
 30
0.0
 11
929.6391138722897
 21
963.2735519835505
 31
0.0
 12
923.6391138722897
 22
964.2735519835505
 32
0.0
 13
923.6391138722897
 23
964.2735519835505
 33
0.0
  0
SOLID
  5
4C4D6
330
4C48C
100
AcDbEntity
  8
P_2DIM
 62
     0
100
AcDbTrace
 10
960.6391138722893
 20
965.2735519835505
 30
0.0
 11
960.6391138722893
 21
963.2735519835505
 31
0.0
 12
966.6391138722893
 22
964.2735519835505
 32
0.0
 13
966.6391138722893
 23
964.2735519835505
 33
0.0
  0
MTEXT
  5
4C4D7
330
4C48C
100
AcDbEntity
  8
P_2DIM
 62
   230
100
AcDbMText
 10
945.1391138722895
 20
975.5235519835505
 30
0.0
 40
15.0
 41
0.0
 71
     5
 72
     1
  1
\A1;43
  7
BIGFONT
 73
     1
 44
1.0
  0
POINT
  5
4C4D8
330
4C48C
100
AcDbEntity
  8
DEFPOINTS
 62
     0
100
AcDbPoint
 10
923.6391138722897
 20
889.5444636059257
 30
0.0
  0
POINT
  5
4C4D9
330
4C48C
100
AcDbEntity
  8
DEFPOINTS
 62
     0
100
AcDbPoint
 10
966.6391138722893
 20
874.5444636059251
 30
0.0
  0
POINT
  5
4C4DA
330
4C48C
100
AcDbEntity
  8
DEFPOINTS
 62
     0
100
AcDbPoint
 10
966.6391138722893
 20
964.2735519835505
 30
0.0
  0
ENDBLK
  5
4C497
330
4C48C
100
AcDbEntity
  8
0
100
AcDbBlockEnd
  0
BLOCK
  5
4C4A3
330
4C499
100
AcDbEntity
  8
0
100
AcDbBlockBegin
  2
*D8
 70
     1
 10
0.0
 20
0.0
 30
0.0
  3
*D8
  1

  0
LINE
  5
4C4C9
330
4C499
100
AcDbEntity
  8
P_2DIM
 62
     0
370
    -2
100
AcDbLine
 10
966.6391138722893
 20
889.5444636059251
 30
0.0
 11
966.6391138722893
 21
971.7735519835505
 31
0.0
  0
LINE
  5
4C4CA
330
4C499
100
AcDbEntity
  8
P_2DIM
 62
     0
370
    -2
100
AcDbLine
 10
993.6391138722893
 20
862.5444636059251
 30
0.0
 11
993.6391138722893
 21
971.7735519835505
 31
0.0
  0
LINE
  5
4C4CB
330
4C499
100
AcDbEntity
  8
P_2DIM
 62
     0
370
    -2
100
AcDbLine
 10
972.6391138722893
 20
964.2735519835505
 30
0.0
 11
987.6391138722893
 21
964.2735519835505
 31
0.0
  0
MTEXT
  5
4C4CC
330
4C499
100
AcDbEntity
  8
P_2DIM
 62
   230
100
AcDbMText
 10
980.1391138722893
 20
984.8985519835505
 30
0.0
 40
15.0
 41
0.0
 71
     5
 72
     1
  1
\A1;27
  7
BIGFONT
 73
     1
 44
1.0
  0
SOLID
  5
4C4CD
330
4C499
100
AcDbEntity
  8
P_2DIM
 62
     0
100
AcDbTrace
 10
972.6391138722893
 20
965.2735519835505
 30
0.0
 11
972.6391138722893
 21
963.2735519835505
 31
0.0
 12
966.6391138722893
 22
964.2735519835505
 32
0.0
 13
966.6391138722893
 23
964.2735519835505
 33
0.0
  0
SOLID
  5
4C4CE
330
4C499
100
AcDbEntity
  8
P_2DIM
 62
     0
100
AcDbTrace
 10
987.6391138722893
 20
965.2735519835505
 30
0.0
 11
987.6391138722893
 21
963.2735519835505
 31
0.0
 12
993.6391138722893
 22
964.2735519835505
 32
0.0
 13
993.6391138722893
 23
964.2735519835505
 33
0.0
  0
POINT
  5
4C4CF
330
4C499
100
AcDbEntity
  8
DEFPOINTS
 62
     0
100
AcDbPoint
 10
966.6391138722893
 20
874.5444636059251
 30
0.0
  0
POINT
  5
4C4D0
330
4C499
100
AcDbEntity
  8
DEFPOINTS
 62
     0
100
AcDbPoint
 10
993.6391138722893
 20
847.5444636059251
 30
0.0
  0
POINT
  5
4C4D1
330
4C499
100
AcDbEntity
  8
DEFPOINTS
 62
     0
100
AcDbPoint
 10
993.6391138722893
 20
964.2735519835505
 30
0.0
  0
ENDBLK
  5
4C4A4
330
4C499
100
AcDbEntity
  8
0
100
AcDbBlockEnd
  0
ENDSEC
  0
SECTION
  2
ENTITIES
  0
LINE
  5
4B52E
330
4B4BD
100
AcDbEntity
  8
P006
100
AcDbLine
 10
733.6391138722893
 20
847.5444636059252
 30
0.0
 11
733.6391138722893
 21
641.5444636059251
 31
0.0
  0
LINE
  5
4B52F
330
4B4BD
100
AcDbEntity
  8
P006
100
AcDbLine
 10
760.6391138722893
 20
614.5444636059251
 30
0.0
 11
966.6391138722893
 21
614.544463605925
 31
0.0
  0
LINE
  5
4B530
330
4B4BD
100
AcDbEntity
  8
P006
100
AcDbLine
 10
993.6391138722893
 20
641.544463605925
 30
0.0
 11
993.6391138722893
 21
847.5444636059251
 31
0.0
  0
LINE
  5
4B531
330
4B4BD
100
AcDbEntity
  8
P006
100
AcDbLine
 10
966.6391138722893
 20
874.5444636059251
 30
0.0
 11
760.6391138722893
 21
874.5444636059252
 31
0.0
  0
LINE
  5
4B532
330
4B4BD
100
AcDbEntity
  8
P006
100
AcDbLine
 10
966.6391138722893
 20
874.5444636059251
 30
0.0
 11
993.6391138722893
 21
847.5444636059251
 31
0.0
  0
LINE
  5
4B533
330
4B4BD
100
AcDbEntity
  8
P006
100
AcDbLine
 10
993.6391138722893
 20
641.544463605925
 30
0.0
 11
966.6391138722893
 21
614.544463605925
 31
0.0
  0
LINE
  5
4B534
330
4B4BD
100
AcDbEntity
  8
P006
100
AcDbLine
 10
760.6391138722893
 20
614.5444636059251
 30
0.0
 11
733.6391138722893
 21
641.5444636059251
 31
0.0
  0
LINE
  5
4B535
330
4B4BD
100
AcDbEntity
  8
P006
100
AcDbLine
 10
733.6391138722893
 20
847.5444636059252
 30
0.0
 11
760.6391138722893
 21
874.5444636059252
 31
0.0
  0
MTEXT
  5
4B5E7
330
4B4BD
100
AcDbEntity
  8
P_3TEXT
100
AcDbMText
 10
1194.519406630698
 20
619.6418556791773
 30
0.0
 40
15.0
 41
1110.0
 71
     1
 72
     5
  1
仕様：t8.7天然ゴム・ポリエステル芯材\P\P＊取付可能個数\P・ＣＰ－８００３５      ８枚
  7
BIGFONT
 73
     1
 44
1.0
  0
LINE
  5
4B5EE
330
4B4BD
100
AcDbEntity
  8
P902
  6
PHANTOM2
100
AcDbLine
 10
718.6391138722893
 20
889.5444636059252
 30
0.0
 11
718.6391138722893
 21
599.544463605925
 31
0.0
  0
LINE
  5
4B5EF
330
4B4BD
100
AcDbEntity
  8
P902
  6
PHANTOM2
100
AcDbLine
 10
718.6391138722893
 20
599.5444636059251
 30
0.0
 11
1008.639113872289
 21
599.5444636059249
 31
0.0
  0
LINE
  5
4B5F0
330
4B4BD
100
AcDbEntity
  8
P902
  6
PHANTOM2
100
AcDbLine
 10
1008.639113872289
 20
599.5444636059248
 30
0.0
 11
1008.63911387229
 21
889.544463605925
 31
0.0
  0
LINE
  5
4B5F1
330
4B4BD
100
AcDbEntity
  8
P902
  6
PHANTOM2
100
AcDbLine
 10
718.6391138722897
 20
889.5444636059257
 30
0.0
 11
1008.63911387229
 21
889.5444636059257
 31
0.0
  0
LINE
  5
4B5F2
330
4B4BD
100
AcDbEntity
  8
P902
  6
PHANTOM2
100
AcDbLine
 10
656.1391138722893
 20
952.0444636059254
 30
0.0
 11
718.6391138722893
 21
889.5444636059256
 31
0.0
  0
LINE
  5
4B5F3
330
4B4BD
100
AcDbEntity
  8
P902
  6
PHANTOM2
100
AcDbLine
 10
1071.13911387229
 20
952.0444636059256
 30
0.0
 11
1008.63911387229
 21
889.5444636059257
 31
0.0
  0
LINE
  5
4B5F4
330
4B4BD
100
AcDbEntity
  8
P902
  6
PHANTOM2
100
AcDbLine
 10
1008.639113872289
 20
599.5444636059245
 30
0.0
 11
1071.139113872289
 21
537.0444636059246
 31
0.0
  0
LINE
  5
4B5F5
330
4B4BD
100
AcDbEntity
  8
P902
  6
PHANTOM2
100
AcDbLine
 10
718.6391138722888
 20
599.5444636059248
 30
0.0
 11
656.1391138722893
 21
537.0444636059249
 31
0.0
  0
LINE
  5
4B5F6
330
4B4BD
100
AcDbEntity
  8
P902
  6
PHANTOM2
100
AcDbLine
 10
803.6391138722893
 20
856.5444636059251
 30
0.0
 11
803.6391138722893
 21
889.5444636059252
 31
0.0
  0
LINE
  5
4B5F7
330
4B4BD
100
AcDbEntity
  8
P902
  6
PHANTOM2
100
AcDbLine
 10
751.6391138722893
 20
804.5444636059252
 30
0.0
 11
718.6391138722893
 21
804.5444636059252
 31
0.0
  0
LINE
  5
4B5F8
330
4B4BD
100
AcDbEntity
  8
P902
  6
PHANTOM2
100
AcDbLine
 10
751.6391138722893
 20
684.5444636059248
 30
0.0
 11
718.6391138722893
 21
684.5444636059249
 31
0.0
  0
LINE
  5
4B5F9
330
4B4BD
100
AcDbEntity
  8
P902
  6
PHANTOM2
100
AcDbLine
 10
803.6391138722893
 20
632.5444636059251
 30
0.0
 11
803.6391138722888
 21
599.5444636059246
 31
0.0
  0
LINE
  5
4B5FA
330
4B4BD
100
AcDbEntity
  8
P902
  6
PHANTOM2
100
AcDbLine
 10
923.6391138722897
 20
856.544463605925
 30
0.0
 11
923.6391138722897
 21
889.5444636059253
 31
0.0
  0
LINE
  5
4B5FB
330
4B4BD
100
AcDbEntity
  8
P902
  6
PHANTOM2
100
AcDbLine
 10
975.6391138722893
 20
804.5444636059253
 30
0.0
 11
1008.63911387229
 21
804.5444636059253
 31
0.0
  0
LINE
  5
4B5FC
330
4B4BD
100
AcDbEntity
  8
P902
  6
PHANTOM2
100
AcDbLine
 10
975.6391138722893
 20
684.5444636059248
 30
0.0
 11
1008.63911387229
 21
684.544463605925
 31
0.0
  0
LINE
  5
4B5FD
330
4B4BD
100
AcDbEntity
  8
P902
  6
PHANTOM2
100
AcDbLine
 10
923.6391138722902
 20
632.544463605925
 30
0.0
 11
923.6391138722902
 21
599.5444636059248
 31
0.0
  0
CIRCLE
  5
4B7B0
330
4B4BD
100
AcDbEntity
  8
P006
100
AcDbCircle
 10
803.6391138722893
 20
847.5444636059251
 30
0.0
 40
9.0
  0
CIRCLE
  5
4B7B1
330
4B4BD
100
AcDbEntity
  8
P006
100
AcDbCircle
 10
760.6391138722893
 20
804.544463605925
 30
0.0
 40
9.0
  0
CIRCLE
  5
4B7B2
330
4B4BD
100
AcDbEntity
  8
P006
100
AcDbCircle
 10
760.6391138722893
 20
684.5444636059252
 30
0.0
 40
9.0
  0
CIRCLE
  5
4B7B3
330
4B4BD
100
AcDbEntity
  8
P006
100
AcDbCircle
 10
803.6391138722893
 20
641.5444636059251
 30
0.0
 40
9.0
  0
CIRCLE
  5
4B7B4
330
4B4BD
100
AcDbEntity
  8
P006
100
AcDbCircle
 10
923.6391138722893
 20
641.544463605925
 30
0.0
 40
9.0
  0
CIRCLE
  5
4B7B5
330
4B4BD
100
AcDbEntity
  8
P006
100
AcDbCircle
 10
966.6391138722893
 20
684.5444636059251
 30
0.0
 40
9.0
  0
CIRCLE
  5
4B7B6
330
4B4BD
100
AcDbEntity
  8
P006
100
AcDbCircle
 10
966.6391138722893
 20
804.5444636059249
 30
0.0
 40
9.0
  0
CIRCLE
  5
4B7B7
330
4B4BD
100
AcDbEntity
  8
P006
100
AcDbCircle
 10
923.6391138722893
 20
847.544463605925
 30
0.0
 40
9.0
  0
INSERT
  5
4C3C4
330
4B4BD
100
AcDbEntity
  8
P_5DRAWFRAME
100
AcDbBlockReference
 66
     1
  2
DFP3
 10
0.0
 20
0.0
 30
0.0
 41
5.0
 42
5.0
 43
5.0
  0
ATTRIB
  5
4C3C5
330
4C3C4
100
AcDbEntity
  8
0
 62
    83
100
AcDbText
 10
1714.812255682737
 20
54.83351650113389
 30
0.0
 40
15.0
  1
E3P0449-003
  7
BIGFONT
 72
     1
 11
1793.383684254166
 21
52.83351650113389
 31
0.0
100
AcDbAttribute
  2
DWGNO
 70
     0
 74
     1
  0
ATTRIB
  5
4C3C6
330
4C3C4
100
AcDbEntity
  8
0
 62
    83
100
AcDbText
 10
1408.312462008048
 20
130.6442954995083
 30
0.0
 40
20.0
  1
-
  7
BIGFONT
 72
     1
 11
1416.883890579476
 21
127.9776288328416
 31
0.0
100
AcDbAttribute
  2
PROJECT1
 70
     0
 74
     1
  0
ATTRIB
  5
4C3C7
330
4C3C4
100
AcDbEntity
  8
0
 62
    83
100
AcDbText
 10
1250.437255682738
 20
91.87518316780101
 30
0.0
 40
20.0
  1
ザイルオプション(ｽｸｴｱ□260)
  7
BIGFONT
 72
     1
 11
1421.008684254166
 21
89.20851650113434
 31
0.0
100
AcDbAttribute
  2
PROJECT2
 70
     0
 74
     1
  0
ATTRIB
  5
4C3C8
330
4C3C4
100
AcDbEntity
  8
0
 62
    83
100
AcDbText
 10
1324.3420175875
 20
55.50018316780055
 30
0.0
 40
20.0
  1
CPP-80035S
  7
BIGFONT
 72
     1
 11
1421.008684254166
 21
52.83351650113389
 31
0.0
100
AcDbAttribute
  2
PROJECT3
 70
     0
 74
     1
  0
ATTRIB
  5
4C3C9
330
4C3C4
100
AcDbEntity
  8
0
 62
    83
100
AcDbText
 10
1656.955112825595
 20
131.2085165011343
 30
0.0
 40
15.0
  1
2009/11/10
  7
BIGFONT
 72
     1
 11
1723.383684254166
 21
129.2085165011343
 31
0.0
100
AcDbAttribute
  2
DATE
 70
     0
 74
     1
  0
ATTRIB
  5
4C3CA
330
4C3C4
100
AcDbEntity
  8
0
 62
    83
100
AcDbText
 10
1654.383684254166
 20
91.20851650113434
 30
0.0
 40
15.0
  1
内野
  7
BIGFONT
 72
     1
 11
1670.883684254166
 21
89.20851650113434
 31
0.0
100
AcDbAttribute
  2
DRAWN
 70
     0
 74
     1
  0
ATTRIB
  5
4C3CB
330
4C3C4
100
AcDbEntity
  8
0
 62
    83
100
AcDbText
 10
1759.883684254166
 20
91.20851650113434
 30
0.0
 40
15.0
  1
守谷
  7
BIGFONT
 72
     1
 11
1775.883684254166
 21
89.20851650113434
 31
0.0
100
AcDbAttribute
  2
CHECKED
 70
     8
 74
     1
  0
ATTRIB
  5
4C3CC
330
4C3C4
100
AcDbEntity
  8
0
 62
    83
100
AcDbText
 10
1881.883684254166
 20
91.20851650113434
 30
0.0
 40
15.0
  1
中西
  7
BIGFONT
 72
     1
 11
1898.383684254166
 21
89.20851650113434
 31
0.0
100
AcDbAttribute
  2
APPROVED
 70
     8
 74
     1
  0
ATTRIB
  5
4C3CD
330
4C3C4
100
AcDbEntity
  8
0
 62
    83
100
AcDbText
 10
1879.812255682737
 20
131.2085165011343
 30
0.0
 40
15.0
  1
1/5
  7
BIGFONT
 72
     1
 11
1898.383684254166
 21
129.2085165011343
 31
0.0
100
AcDbAttribute
  2
SCALE
 70
     0
 74
     1
  0
ATTRIB
  5
4C3CE
330
4C3C4
100
AcDbEntity
  8
0
 62
    83
 48
0.5
100
AcDbText
 10
132.3747561492783
 20
52.96061621835926
 30
0.0
 40
10.0
  1

  7
BIGFONT
 11
132.3747561492783
 21
51.62728288502592
 31
0.0
100
AcDbAttribute
  2
REV01
 70
     8
 74
     1
  0
ATTRIB
  5
4C3CF
330
4C3C4
100
AcDbEntity
  8
0
 62
    83
 48
0.5
100
AcDbText
 10
404.8944679212841
 20
52.96061621835926
 30
0.0
 40
10.0
  1

  7
BIGFONT
 72
     1
 11
404.8944679212841
 21
51.62728288502592
 31
0.0
100
AcDbAttribute
  2
REVD1
 70
     8
 74
     1
  0
ATTRIB
  5
4C3D0
330
4C3C4
100
AcDbEntity
  8
0
 62
    83
 48
0.5
100
AcDbText
 10
463.3592456681527
 20
52.96061621835926
 30
0.0
 40
10.0
  1

  7
BIGFONT
 72
     1
 11
463.3592456681527
 21
51.62728288502592
 31
0.0
100
AcDbAttribute
  2
R1D
 70
     8
 74
     1
  0
ATTRIB
  5
4C3D1
330
4C3C4
100
AcDbEntity
  8
0
 62
    83
 48
0.5
100
AcDbText
 10
508.9841206681522
 20
52.96061621835926
 30
0.0
 40
10.0
  1

  7
BIGFONT
 72
     1
 11
508.9841206681522
 21
51.62728288502592
 31
0.0
100
AcDbAttribute
  2
R1C
 70
     8
 74
     1
  0
ATTRIB
  5
4C3D2
330
4C3C4
100
AcDbEntity
  8
0
 62
    83
 48
0.5
100
AcDbText
 10
554.6091206681522
 20
52.96061621835926
 30
0.0
 40
10.0
  1

  7
BIGFONT
 72
     1
 11
554.6091206681522
 21
51.62728288502592
 31
0.0
100
AcDbAttribute
  2
R1A
 70
     8
 74
     1
  0
ATTRIB
  5
4C3D3
330
4C3C4
100
AcDbEntity
  8
0
 62
    83
 48
0.5
100
AcDbText
 10
132.3747561492783
 20
79.21061621835925
 30
0.0
 40
10.0
  1

  7
BIGFONT
 11
132.3747561492783
 21
77.87728288502592
 31
0.0
100
AcDbAttribute
  2
REV02
 70
     8
 74
     1
  0
ATTRIB
  5
4C3D4
330
4C3C4
100
AcDbEntity
  8
0
 62
    83
 48
0.5
100
AcDbText
 10
404.8944679212841
 20
79.21061621835925
 30
0.0
 40
10.0
  1

  7
BIGFONT
 72
     1
 11
404.8944679212841
 21
77.87728288502592
 31
0.0
100
AcDbAttribute
  2
REVD2
 70
     8
 74
     1
  0
ATTRIB
  5
4C3D5
330
4C3C4
100
AcDbEntity
  8
0
 62
    83
 48
0.5
100
AcDbText
 10
463.3592456681527
 20
79.21061621835925
 30
0.0
 40
10.0
  1

  7
BIGFONT
 72
     1
 11
463.3592456681527
 21
77.87728288502592
 31
0.0
100
AcDbAttribute
  2
R2D
 70
     8
 74
     1
  0
ATTRIB
  5
4C3D6
330
4C3C4
100
AcDbEntity
  8
0
 62
    83
 48
0.5
100
AcDbText
 10
508.9841206681522
 20
79.21061621835925
 30
0.0
 40
10.0
  1

  7
BIGFONT
 72
     1
 11
508.9841206681522
 21
77.87728288502592
 31
0.0
100
AcDbAttribute
  2
R2C
 70
     8
 74
     1
  0
ATTRIB
  5
4C3D7
330
4C3C4
100
AcDbEntity
  8
0
 62
    83
 48
0.5
100
AcDbText
 10
554.6091206681522
 20
79.21061621835925
 30
0.0
 40
10.0
  1

  7
BIGFONT
 72
     1
 11
554.6091206681522
 21
77.87728288502592
 31
0.0
100
AcDbAttribute
  2
R2A
 70
     8
 74
     1
  0
ATTRIB
  5
4C3D8
330
4C3C4
100
AcDbEntity
  8
0
 62
    83
 48
0.5
100
AcDbText
 10
132.3747561492783
 20
109.8560459934323
 30
0.0
 40
10.0
  1

  7
BIGFONT
 11
132.3747561492783
 21
108.5227126600989
 31
0.0
100
AcDbAttribute
  2
REV03
 70
     8
 74
     1
  0
ATTRIB
  5
4C3D9
330
4C3C4
100
AcDbEntity
  8
0
 62
    83
 48
0.5
100
AcDbText
 10
404.8944679212841
 20
109.8560459934323
 30
0.0
 40
10.0
  1

  7
BIGFONT
 72
     1
 11
404.8944679212841
 21
108.5227126600989
 31
0.0
100
AcDbAttribute
  2
REVD3
 70
     8
 74
     1
  0
ATTRIB
  5
4C3DA
330
4C3C4
100
AcDbEntity
  8
0
 62
    83
 48
0.5
100
AcDbText
 10
463.3592456681527
 20
109.8560459934323
 30
0.0
 40
10.0
  1

  7
BIGFONT
 72
     1
 11
463.3592456681527
 21
108.5227126600989
 31
0.0
100
AcDbAttribute
  2
R3D
 70
     8
 74
     1
  0
ATTRIB
  5
4C3DB
330
4C3C4
100
AcDbEntity
  8
0
 62
    83
 48
0.5
100
AcDbText
 10
508.9841206681522
 20
109.8560459934323
 30
0.0
 40
10.0
  1

  7
BIGFONT
 72
     1
 11
508.9841206681522
 21
108.5227126600989
 31
0.0
100
AcDbAttribute
  2
R3C
 70
     8
 74
     1
  0
ATTRIB
  5
4C3DC
330
4C3C4
100
AcDbEntity
  8
0
 62
    83
 48
0.5
100
AcDbText
 10
554.6091206681522
 20
109.8560459934323
 30
0.0
 40
10.0
  1

  7
BIGFONT
 72
     1
 11
554.6091206681522
 21
108.5227126600989
 31
0.0
100
AcDbAttribute
  2
R3A
 70
     8
 74
     1
  0
ATTRIB
  5
4C3DD
330
4C3C4
100
AcDbEntity
  8
0
 62
    83
 48
0.5
100
AcDbText
 10
132.3747561492783
 20
139.4026203385244
 30
0.0
 40
10.0
  1

  7
BIGFONT
 11
132.3747561492783
 21
138.0692870051911
 31
0.0
100
AcDbAttribute
  2
REV04
 70
     8
 74
     1
  0
ATTRIB
  5
4C3DE
330
4C3C4
100
AcDbEntity
  8
0
 62
    83
 48
0.5
100
AcDbText
 10
404.8944679212841
 20
139.4026203385244
 30
0.0
 40
10.0
  1

  7
BIGFONT
 72
     1
 11
404.8944679212841
 21
138.0692870051911
 31
0.0
100
AcDbAttribute
  2
REVD4
 70
     8
 74
     1
  0
ATTRIB
  5
4C3DF
330
4C3C4
100
AcDbEntity
  8
0
 62
    83
 48
0.5
100
AcDbText
 10
463.3592456681527
 20
139.4026203385244
 30
0.0
 40
10.0
  1

  7
BIGFONT
 72
     1
 11
463.3592456681527
 21
138.0692870051911
 31
0.0
100
AcDbAttribute
  2
R4D
 70
     8
 74
     1
  0
ATTRIB
  5
4C3E0
330
4C3C4
100
AcDbEntity
  8
0
 62
    83
 48
0.5
100
AcDbText
 10
508.9841206681522
 20
139.4026203385244
 30
0.0
 40
10.0
  1

  7
BIGFONT
 72
     1
 11
508.9841206681522
 21
138.0692870051911
 31
0.0
100
AcDbAttribute
  2
R4C
 70
     8
 74
     1
  0
ATTRIB
  5
4C3E1
330
4C3C4
100
AcDbEntity
  8
0
 62
    83
 48
0.5
100
AcDbText
 10
554.6091206681522
 20
139.4026203385244
 30
0.0
 40
10.0
  1

  7
BIGFONT
 72
     1
 11
554.6091206681522
 21
138.0692870051911
 31
0.0
100
AcDbAttribute
  2
R4A
 70
     8
 74
     1
  0
SEQEND
  5
4C3E2
330
4C3C4
100
AcDbEntity
  8
P_5DRAWFRAME
  0
DIMENSION
  5
4C457
330
4B4BD
100
AcDbEntity
  8
P_2DIM
100
AcDbDimension
  2
*D3
 10
993.6391138722893
 20
1009.573269993339
 30
0.0
 11
863.6391138722893
 21
1020.823269993339
 31
0.0
 70
    32
  1
□<>
 71
     5
 42
260.0
  3
DIMBIGFONT$0
100
AcDbAlignedDimension
 13
733.6391138722893
 23
847.5444636059252
 33
0.0
 14
993.6391138722893
 24
847.5444636059251
 34
0.0
100
AcDbRotatedDimension
1001
ACAD
1000
DSTYLE
1002
{
1070
    40
1040
5.0
1070
    79
1070
     2
1070
   173
1070
     0
1070
   179
1070
     1
1002
}
  0
DIMENSION
  5
4C464
330
4B4BD
100
AcDbEntity
  8
P_2DIM
100
AcDbDimension
  2
*D4
 10
760.6391138722893
 20
964.2735519835505
 30
0.0
 11
747.1391138722893
 21
984.8985519835505
 31
0.0
 70
    32
 71
     5
 42
27.0
  3
DIMBIGFONT$0
100
AcDbAlignedDimension
 13
733.6391138722893
 23
847.5444636059252
 33
0.0
 14
760.6391138722893
 24
874.5444636059252
 34
0.0
100
AcDbRotatedDimension
1001
ACAD
1000
DSTYLE
1002
{
1070
    40
1040
5.0
1070
    79
1070
     2
1070
   173
1070
     0
1070
   179
1070
     1
1002
}
  0
DIMENSION
  5
4C471
330
4B4BD
100
AcDbEntity
  8
P_2DIM
100
AcDbDimension
  2
*D5
 10
803.6391138722893
 20
964.2735519835505
 30
0.0
 11
782.1391138722893
 21
975.5235519835505
 31
0.0
 70
    32
 71
     5
 42
43.0
  3
DIMBIGFONT$0
100
AcDbAlignedDimension
 13
760.6391138722893
 23
874.5444636059252
 33
0.0
 14
803.6391138722893
 24
889.5444636059252
 34
0.0
100
AcDbRotatedDimension
1001
ACAD
1000
DSTYLE
1002
{
1070
    40
1040
5.0
1070
    79
1070
     2
1070
   173
1070
     0
1070
   179
1070
     1
1002
}
  0
DIMENSION
  5
4C47E
330
4B4BD
100
AcDbEntity
  8
P_2DIM
100
AcDbDimension
  2
*D6
 10
923.6391138722897
 20
964.2735519835505
 30
0.0
 11
863.6391138722895
 21
975.5235519835505
 31
0.0
 70
    32
 71
     5
 42
120.0000000000005
  3
DIMBIGFONT$0
100
AcDbAlignedDimension
 13
803.6391138722893
 23
889.5444636059252
 33
0.0
 14
923.6391138722897
 24
889.5444636059257
 34
0.0
100
AcDbRotatedDimension
1001
ACAD
1000
DSTYLE
1002
{
1070
    40
1040
5.0
1070
    79
1070
     2
1070
   173
1070
     0
1070
   179
1070
     1
1002
}
  0
DIMENSION
  5
4C48B
330
4B4BD
100
AcDbEntity
  8
P_2DIM
100
AcDbDimension
  2
*D7
 10
966.6391138722893
 20
964.2735519835505
 30
0.0
 11
945.1391138722895
 21
975.5235519835505
 31
0.0
 70
    32
 71
     5
 42
42.99999999999955
  3
DIMBIGFONT$0
100
AcDbAlignedDimension
 13
923.6391138722897
 23
889.5444636059257
 33
0.0
 14
966.6391138722893
 24
874.5444636059251
 34
0.0
100
AcDbRotatedDimension
1001
ACAD
1000
DSTYLE
1002
{
1070
    40
1040
5.0
1070
    79
1070
     2
1070
   173
1070
     0
1070
   179
1070
     1
1002
}
  0
DIMENSION
  5
4C498
330
4B4BD
100
AcDbEntity
  8
P_2DIM
100
AcDbDimension
  2
*D8
 10
993.6391138722893
 20
964.2735519835505
 30
0.0
 11
980.1391138722893
 21
984.8985519835505
 31
0.0
 70
    32
 71
     5
 42
27.0
  3
DIMBIGFONT$0
100
AcDbAlignedDimension
 13
966.6391138722893
 23
874.5444636059251
 33
0.0
 14
993.6391138722893
 24
847.5444636059251
 34
0.0
100
AcDbRotatedDimension
1001
ACAD
1000
DSTYLE
1002
{
1070
    40
1040
5.0
1070
    79
1070
     2
1070
   173
1070
     0
1070
   179
1070
     1
1002
}
  0
LEADER
  5
4C4DB
330
4B4BD
100
AcDbEntity
  8
P_2DIM
100
AcDbLeader
  3
DIMBIGFONT$7
 73
     0
 74
     0
 75
     1
 40
15.0
 41
224.9999999999998
 76
     3
 10
1008.60667234973
 20
774.9207483185664
 30
0.0
 10
1051.933956232086
 20
831.092400473045
 30
0.0
 10
1053.933956232086
 20
831.092400473045
 30
0.0
340
4C4DC
1001
ACAD
1000
DSTYLE
1002
{
1070
    40
1040
5.0
1070
    79
1070
     2
1070
   173
1070
     0
1070
   179
1070
     1
1002
}
  0
MTEXT
  5
4C4DC
102
{ACAD_REACTORS
330
4C4DB
102
}
330
4B4BD
100
AcDbEntity
  8
P_2DIM
 62
   230
100
AcDbMText
 10
1057.683956232086
 20
834.842400473045
 30
0.0
 40
15.0
 41
0.0
 71
     7
 72
     1
  1
ザイルロープを示す
  7
BIGFONT
 73
     1
 44
1.0
  0
LEADER
  5
4C4DD
330
4B4BD
100
AcDbEntity
  8
P_2DIM
100
AcDbLeader
  3
DIMBIGFONT$7
 73
     0
 74
     0
 75
     1
 40
15.0
 41
211.4285714285713
 76
     3
 10
1000.447771519584
 20
684.3213198920648
 30
0.0
 10
1040.148855313586
 20
726.9030505691444
 30
0.0
 10
1042.148855313586
 20
726.9030505691444
 30
0.0
340
4C4DE
1001
ACAD
1000
DSTYLE
1002
{
1070
    40
1040
5.0
1070
    79
1070
     2
1070
   173
1070
     0
1070
   179
1070
     1
1002
}
  0
MTEXT
  5
4C4DE
102
{ACAD_REACTORS
330
4C4DD
102
}
330
4B4BD
100
AcDbEntity
  8
P_2DIM
 62
   230
100
AcDbMText
 10
1045.898855313586
 20
730.6530505691444
 30
0.0
 40
15.0
 41
0.0
 71
     7
 72
     1
  1
Sフックを示す
  7
BIGFONT
 73
     1
 44
1.0
  0
LEADER
  5
4C4E1
330
4B4BD
100
AcDbEntity
  8
P_2DIM
100
AcDbLeader
  3
DIMBIGFONT$7
 73
     0
 74
     0
 75
     1
 40
15.00000000000003
 41
111.4285714285714
 76
     3
 10
811.8862884733517
 20
636.3036297357185
 30
0.0
 10
867.9052002575881
 20
534.8322671645283
 30
0.0
 10
869.9052002575881
 20
534.8322671645283
 30
0.0
340
4C4E2
1001
ACAD
1000
DSTYLE
1002
{
1070
    40
1040
5.0
1070
    79
1070
     2
1070
   173
1070
     0
1070
   179
1070
     1
1002
}
  0
MTEXT
  5
4C4E2
102
{ACAD_REACTORS
330
4C4E1
102
}
330
4B4BD
100
AcDbEntity
  8
P_2DIM
 62
   230
100
AcDbMText
 10
873.6552002575881
 20
538.5822671645283
 30
0.0
 40
15.0
 41
0.0
 71
     7
 72
     1
  1
\A1;ハトメ穴φ18
  7
BIGFONT
 73
     1
 44
1.0
  0
ENDSEC
  0
SECTION
  2
OBJECTS
  0
DICTIONARY
  5
4B4B1
330
0
100
AcDbDictionary
281
     1
  3
ACAD_GROUP
350
4B4B2
  3
ACAD_LAYOUT
350
4B7D5
  3
ACAD_MLEADERSTYLE
350
4C4FA
  3
ACAD_MLINESTYLE
350
4B4B3
  3
ACAD_PLOTSETTINGS
350
4B7D6
  3
ACAD_PLOTSTYLENAME
350
4B7D3
  3
ACAD_TABLESTYLE
350
4C4F9
  3
AcDbVariableDictionary
350
4B7DE
  0
DICTIONARY
  5
4B4B2
102
{ACAD_REACTORS
330
4B4B1
102
}
330
4B4B1
100
AcDbDictionary
281
     1
  0
DICTIONARY
  5
4B7D5
102
{ACAD_REACTORS
330
4B4B1
102
}
330
4B4B1
100
AcDbDictionary
281
     1
  3
Model
350
4B7D7
  3
ﾚｲｱｳﾄ1
350
4B7D8
  0
DICTIONARY
  5
4C4FA
102
{ACAD_REACTORS
330
4B4B1
102
}
330
4B4B1
100
AcDbDictionary
281
     1
  0
DICTIONARY
  5
4B4B3
102
{ACAD_REACTORS
330
4B4B1
102
}
330
4B4B1
100
AcDbDictionary
281
     1
  3
STANDARD
350
4B4C0
  0
DICTIONARY
  5
4B7D6
102
{ACAD_REACTORS
330
4B4B1
102
}
330
4B4B1
100
AcDbDictionary
281
     1
  0
ACDBDICTIONARYWDFLT
  5
4B7D3
102
{ACAD_REACTORS
330
4B4B1
102
}
330
4B4B1
100
AcDbDictionary
281
     1
  3
Normal
350
4B7D4
100
AcDbDictionaryWithDefault
340
4B7D4
  0
DICTIONARY
  5
4C4F9
102
{ACAD_REACTORS
330
4B4B1
102
}
330
4B4B1
100
AcDbDictionary
281
     1
  0
DICTIONARY
  5
4B7DE
102
{ACAD_REACTORS
330
4B4B1
102
}
330
4B4B1
100
AcDbDictionary
281
     1
  3
DIMASSOC
350
4B7DF
  0
LAYOUT
  5
4B7D7
102
{ACAD_REACTORS
330
4B7D5
102
}
330
4B7D5
100
AcDbPlotSettings
  1

  2
C:\Program Files\AutoCAD 2002\plotters\A3 CPR190.pc3
  4

  6

 40
0.0
 41
0.0
 42
0.0
 43
0.0
 44
0.0
 45
0.0
 46
0.0
 47
0.0
 48
0.0
 49
0.0
140
0.0
141
0.0
142
1.0
143
1.0
 70
  1712
 72
     0
 73
     0
 74
     0
  7
KOTOBUKImono.ctb
 75
     0
147
1.0
148
0.0
149
0.0
100
AcDbLayout
  1
Model
 70
     1
 71
     0
 10
0.0
 20
0.0
 11
12.0
 21
9.0
 12
0.0
 22
0.0
 32
0.0
 14
0.0
 24
0.0
 34
0.0
 15
0.0
 25
0.0
 35
0.0
146
0.0
 13
0.0
 23
0.0
 33
0.0
 16
1.0
 26
0.0
 36
0.0
 17
0.0
 27
1.0
 37
0.0
 76
     0
330
4B4BD
331
4C4F8
  0
LAYOUT
  5
4B7D8
102
{ACAD_REACTORS
330
4B7D5
102
}
330
4B7D5
100
AcDbPlotSettings
  1

  2
C:\Program Files\AutoCAD 2002\plotters\A3 CPR190.pc3
  4

  6

 40
0.0
 41
0.0
 42
0.0
 43
0.0
 44
0.0
 45
0.0
 46
0.0
 47
0.0
 48
0.0
 49
0.0
140
0.0
141
0.0
142
1.0
143
1.0
 70
   688
 72
     0
 73
     0
 74
     5
  7
KOTOBUKImono.ctb
 75
    16
147
1.0
148
0.0
149
0.0
100
AcDbLayout
  1
ﾚｲｱｳﾄ1
 70
     0
 71
     1
 10
0.0
 20
0.0
 11
420.0
 21
297.0
 12
0.0
 22
0.0
 32
0.0
 14
1.000000000000000E+20
 24
1.000000000000000E+20
 34
1.000000000000000E+20
 15
-1.000000000000000E+20
 25
-1.000000000000000E+20
 35
-1.000000000000000E+20
146
0.0
 13
0.0
 23
0.0
 33
0.0
 16
1.0
 26
0.0
 36
0.0
 17
0.0
 27
1.0
 37
0.0
 76
     0
330
4B4BA
  0
MLINESTYLE
  5
4B4C0
102
{ACAD_REACTORS
330
4B4B3
102
}
330
4B4B3
100
AcDbMlineStyle
  2
STANDARD
 70
     0
  3

 62
     0
 51
90.0
 52
90.0
 71
     2
 49
0.5
 62
   256
  6
BYLAYER
 49
-0.5
 62
   256
  6
BYLAYER
  0
ACDBPLACEHOLDER
  5
4B7D4
102
{ACAD_REACTORS
330
4B7D3
102
}
330
4B7D3
  0
DICTIONARYVAR
  5
4B7DF
102
{ACAD_REACTORS
330
4B7DE
102
}
330
4B7DE
100
DictionaryVariables
280
     0
  1
1
  0
ENDSEC
  0
EOF
